<?xml version="1.0" encoding="UTF-8" standalone="no"?>
<!DOCTYPE svg PUBLIC "-//W3C//DTD SVG 1.1//EN" "http://www.w3.org/Graphics/SVG/1.1/DTD/svg11.dtd">
<svg xmlns="http://www.w3.org/2000/svg">
<metadata>Generated by Fontastic.me</metadata>
<defs>
<font id="ndqfonticons" horiz-adv-x="512">
<font-face font-family="ndqfonticons" units-per-em="512" ascent="480" descent="-32"/>
<missing-glyph horiz-adv-x="512"/>

<glyph unicode="" d="M340 335l-3 2c-14 6-33 10-53 10c-64 0-116-52-116-116c0-42 28-64 56-64c26 0 47 11 63 33c2-9 6-16 11-22c7-7 17-11 28-11c44 0 88 40 88 117c0 82-58 140-141 140c-100 0-175-80-175-185c0-87 62-151 147-151c33 0 60 6 85 19l4 3l-11 30l-5-3c-18-10-42-16-68-16c-69 0-115 49-115 121c0 86 57 150 135 150c66 0 107-43 107-112c0-47-22-79-44-79l-1 0c-3 0-5 1-7 3c-3 4-6 15-1 43z m-105-132c-22 0-25 19-25 30c0 43 31 79 69 79c8 0 14-1 17-2l-9-48c-4-27-28-59-52-59z"/>
<glyph unicode="" d="M355 382c0 0 0 0 0 0l-198 0c-11 0-19-9-19-21l0-187l0 0l0-77c0-12 8-21 19-21l198 0c11 0 19 9 19 21l0 285z m-145-288l-23 0c-6 0-11 5-11 11c0 7 5 12 11 12l23 0c6 0 11-5 11-12c0-6-5-11-11-11z m0 33l-23 0c-6 0-11 5-11 11c0 6 5 12 11 12l23 0c6 0 11-6 11-12c0-6-5-11-11-11z m0 32l-23 0c-6 0-11 5-11 12c0 6 5 11 11 11l23 0c6 0 11-5 11-11c0-7-5-12-11-12z m1 45l0 11l90 0l0-11z m56-110l-22 0c-6 0-11 5-11 11c0 7 5 12 11 12l22 0c6 0 11-5 11-12c0-6-5-11-11-11z m0 33l-22 0c-6 0-11 5-11 11c0 6 5 12 11 12l22 0c6 0 11-6 11-12c0-6-5-11-11-11z m0 32l-22 0c-6 0-11 5-11 12c0 6 5 11 11 11l22 0c6 0 11-5 11-11c0-7-5-12-11-12z m58-65l-23 0c-6 0-11 5-11 11c0 7 5 12 11 12l23 0c6 0 11-5 11-12c0-6-5-11-11-11z m0 33l-23 0c-6 0-11 5-11 11c0 6 5 12 11 12l23 0c6 0 11-6 11-12c0-6-5-11-11-11z m0 32l-23 0c-6 0-11 5-11 12c0 6 5 11 11 11l23 0c6 0 11-5 11-11c0-7-5-12-11-12z m15 69l-168 0l0 126l168 0z m29 208l-54 0c-2 0-5-3-5-5l0-39l64 0l0 39c0 2-2 5-5 5z"/>
<glyph unicode="" d="M257 229l-194 139l386 0z m-198-35l394 0l0-50l-394 0z"/>
<glyph unicode="" d="M86 390c-17-3-27-21-27-38l0-194c0-7 2-14 5-19l124 125z m312 1l-285 0l143-174z m28-2l-103-126l125-126c3 6 5 14 5 21l0 194c0 19-12 34-27 37z m-170-207l0 0l0 0l-56 68l-124-126c5-3 9-3 14-3l332 0c5 0 8 0 13 3l-124 125z"/>
<glyph unicode="" d="M396 415l-280 0c-19 0-34-15-34-34l0-213c0-19 15-34 34-34l18 0l0-83l101 83l161 0c19 0 34 15 34 34l0 213c0 19-15 34-34 34z"/>
<glyph unicode="" d="M280 102l-57 0l0 154l-39 0l0 53l39 0l0 31c0 43 11 70 62 70l42 0l0-53l-26 0c-20 0-21-8-21-22l0-26l48 0l-6-53l-42 0z"/>
<glyph unicode="" d="M275 275l0-70c0-18 0-28 2-33c2-5 6-10 12-13c6-5 14-7 23-7c15 0 25 3 40 13l0-47c-13-6-25-9-35-12c-11-2-22-4-35-4c-14 0-22 2-33 6c-11 3-20 8-27 15c-8 6-13 13-16 21c-3 7-5 18-5 32l0 108l-41 0l0 43c12 4 26 10 34 17c9 7 16 16 21 26c5 11 9 24 11 40l49 0l0-77l77 0l0-58l-77 0z"/>
<glyph unicode="" d="M179 102l-61 0l0 215l61 0z m-31 246c-16 0-30 14-30 31c0 17 14 31 30 31c17 0 31-14 31-31c0-17-14-31-31-31m246-246l-61 0l0 123c0 17-14 31-31 31c-17 0-31-14-31-31l0-123l-61 0l0 215l61 0l0-38c13 18 32 38 54 38c38 0 69-34 69-76l0-139z"/>
<glyph unicode="" d="M377 228c-5 5-16 7-33 7c-11 0-25-1-40-3c-6 4-13 8-18 13c-14 13-26 32-33 52c0 2 1 3 1 5c0 0 8 45 6 60c0 2-1 3-1 5l-1 1c-2 5-6 11-13 10l-4 1l0 0c-7 0-13-4-15-10c-5-18 0-44 9-79l-2-5c-7-16-15-32-22-46l-1-2c-7-14-14-27-20-37l-7-4c0 0-11-6-13-7c-22-13-37-28-39-40c-1-3 0-8 4-10l6-3c3-2 5-2 8-2c16 0 34 19 58 62c29 9 62 17 90 21c22-12 49-20 65-20c3 0 6 0 8 0c3 1 6 3 8 6c3 5 4 11 3 18c-1 2-2 5-4 7m-231-83c3 8 14 23 30 37c1 1 4 3 6 5c-17-27-29-38-36-42m98 226c5 0 8-13 8-25c0-12-3-20-6-26c-3 9-4 23-4 33c0 0-1 18 2 18m-29-161c3 6 7 13 10 20c9 17 15 30 19 41c9-15 19-28 31-39c2-1 3-2 5-4c-25-5-46-11-65-18m157 1c-1-1-6-1-8-1c-10 0-21 4-36 11c6 0 11 0 16 0c9 0 12 0 21-2c9-2 9-7 7-8m28 160l-53 52c-11 11-34 21-50 21l-176 0c-16 0-29-13-29-30l0-316c0-17 13-30 29-30l270 0c16 0 29 13 29 30l0 223c0 16-9 38-20 50m-17-17c1-1 2-3 3-4l-60 0l0 60c2-1 3-2 5-4z m14-256c0-4-3-6-6-6l-270 0c-3 0-6 2-6 6l0 316c0 4 3 6 6 6l176 0c2 0 4 0 6 0l0-94l93 0c1-2 1-4 1-5l0-223z"/>
<glyph unicode="" d="M303 269l16 0l-19-83l-24 117l-39 0l-28-117l-21 117l-41 0l41-188l40 0l28 111l25-111l37 0l47 188l-62 0z m97 102l-53 52c-11 11-34 21-50 21l-176 0c-16 0-29-13-29-30l0-316c0-17 13-30 29-30l270 0c16 0 29 13 29 30l0 223c0 16-9 38-20 50m-17-17c1-1 2-3 3-4l-60 0l0 60c2-1 3-2 5-4z m14-256c0-4-3-6-6-6l-270 0c-3 0-6 2-6 6l0 316c0 4 3 6 6 6l176 0c2 0 4 0 6 0l0-94l93 0c1-2 1-4 1-5l0-223z"/>
<glyph unicode="" d="M338 166c-7 1-7 20-7 20c0 0 20 20 25 47c11 0 19 29 7 39c0 11 15 83-60 83c-75 0-61-72-60-83c-12-10-5-39 7-39c5-27 25-47 25-47c0 0 0-19-7-20c-22-3-106-40-106-80l282 0c0 40-84 77-106 80m-144-6c17 10 36 19 52 25c-5 8-12 19-16 32c-6 5-10 12-13 20c-3 8-4 17-3 25c0 6 2 12 5 17c-2 17-3 50 19 75c8 9 19 16 32 20c-2 24-14 52-61 52c-75 0-60-73-60-83c-12-11-4-39 7-39c5-27 25-47 25-47c0 0 0-19-7-20c-22-4-106-40-106-80l121 0c2 1 4 2 5 3"/>
<glyph unicode="" d="M294 196c-8 1-8 22-8 22c0 0 23 22 27 52c13 0 21 31 8 42c1 12 17 92-65 92c-82 0-66-80-65-92c-13-11-5-42 8-42c5-30 27-52 27-52c0 0 0-21-8-22c-24-4-116-44-116-88l308 0c0 44-92 84-116 88"/>
<glyph unicode="" d="M334 435l-156 0c-19 0-34-15-34-33l0-292c0-18 15-33 34-33l156 0c19 0 34 15 34 33l0 292c0 18-15 33-34 33m-123-17l90 0l0-11l-90 0z m45-319c-12 0-22 10-22 23c0 12 10 22 22 22c12 0 22-10 22-22c0-13-10-23-22-23m90 67l-180 0l0 224l180 0z"/>
<glyph unicode="" d="M333 410l0-22l-44 0l0-264l44 0l0-22l-154 0l0 22l44 0l0 264l-44 0l0 22z"/>
<glyph unicode="" d="M388 410l0-22l-44 0l-110-264l44 0l0-22l-154 0l0 22l44 0l110 264l-44 0l0 22z"/>
<glyph unicode="" d="M356 251l-100-100l-100 100l62 0l0 150l76 0l0-150z m-100-100l-188 0l0-40l376 0l0 40z"/>
<glyph unicode="" d="M51 141l410 0l0-51l-410 0z m51 102l52 0l0-77l-52 0z m77 103l51 0l0-180l-51 0z m77-77l51 0l0-103l-51 0z m77 153l51 0l0-256l-51 0z"/>
<glyph unicode="" d="M256 341l205-170l-410 0"/>
<glyph unicode="" d="M256 171l-205 170l410 0"/>
<glyph unicode="" d="M273 410l-95 0c-43 0-83-33-83-70c0-38 29-69 72-69c3 0 6 0 9 0c-3-5-5-11-5-18c0-10 6-19 13-26c-5 0-11 0-16 0c-53 0-94-34-94-69c0-34 45-56 98-56c60 0 93 35 93 69c0 28-8 44-33 62c-9 6-25 21-25 29c0 11 3 16 18 28c16 12 27 29 27 49c0 24-11 48-31 55l30 0z m-34-233c1-3 2-7 2-10c0-28-18-49-70-49c-36 0-62 23-62 50c0 28 32 50 69 50c8 0 16-2 23-4c20-14 34-21 38-37m-58 103c-24 1-48 28-52 60c-4 32 12 57 37 56c24-1 48-26 52-59c4-32-12-57-37-57m189 61l0 69l-23 0l0-69l-68 0l0-22l68 0l0-68l23 0l0 68l68 0l0 22z"/>
<glyph unicode="" d="M276 435c-5 5-14 9-20 9l-141 0c-6 0-12-6-12-12l0-352c0-6 6-12 12-12l282 0c6 0 12 6 12 12l0 211c0 7-4 16-9 20z m109-343l-258 0l0 328l129 0c1 0 3-1 4-1l123-124c1-1 2-3 2-4z m12 352l-71 0c-6 0-8-4-3-9l77-77c5-4 9-3 9 4l0 70c0 6-6 12-12 12"/>
<glyph unicode="" d="M400 371l-53 52c-11 11-34 21-50 21l-176 0c-16 0-29-13-29-30l0-316c0-17 13-30 29-30l270 0c16 0 29 13 29 30l0 223c0 16-9 38-20 50z m-74 39c2-1 3-2 5-4l52-52c1-1 2-3 3-4l-60 0l0 60z m71-312c0-4-3-6-6-6l-270 0c-3 0-6 2-6 6l0 316c0 4 3 6 6 6l176 0c2 0 4 0 6 0l0-94l93 0c1-2 1-4 1-5l0-223z"/>
<glyph unicode="" d="M432 390l-352 0c-12 0-23-10-23-23l0-90c0-12 11-23 23-23l20 0c12 0 23 0 23 0c0 1 9 6 20 12l6 3c11 7 30 12 43 12l129 0c12 0 31-5 42-11l6-4c11-6 20-11 20-11c0-1 11-1 23-1l20 0c12 0 23 11 23 23l0 90c0 13-11 23-23 23z m-288-79l-21 0l0 23l21 0z m33 0l-21 0l0 23l21 0z m215 93c0 1 1 3 1 5c0 11-15 21-32 21l-199 0c-18 0-32-10-32-21c0-2 1-4 1-5z m3-164c0 0-5 3-12 6l0-35l-70 0c-16 0-29-13-29-30l0-84l-124 0c-12 0-22 10-22 22l0 126c-6-3-10-6-10-6c0 0-2 0-4 0l0-120c0-20 16-37 36-37l145 0l2 3l89 113l2 2l0 39c-2 1-3 1-3 1z"/>
<glyph unicode="" d="M381 104c0-4-3-7-7-7l-236 0c-4 0-7 3-7 7l0 304c0 4 3 7 7 7l174 0c4 0 9-3 12-6l53-70c2-3 4-9 4-13z m-77 252c0 4-4 7-8 7l-120 0c-4 0-8-3-8-7c0-4 4-8 8-8l120 0c4 0 8 4 8 8z m40-213c0 4-4 7-8 7l-160 0c-4 0-8-3-8-7c0-4 4-7 8-7l160 0c4 0 8 3 8 7z m0 170c0 4-4 7-8 7l-160 0c-4 0-8-3-8-7c0-4 4-7 8-7l160 0c4 0 8 3 8 7z m0-43c0 4-4 8-8 8l-160 0c-4 0-8-4-8-8c0-4 4-7 8-7l160 0c4 0 8 3 8 7z m0-85c0 4-4 8-8 8l-160 0c-4 0-8-4-8-8c0-4 4-7 8-7l160 0c4 0 8 3 8 7z m0 43c0 4-4 7-8 7l-160 0c-4 0-8-3-8-7c0-4 4-7 8-7l160 0c4 0 8 3 8 7z"/>
<glyph unicode="" d="M187 145c0-23-19-42-42-42c-23 0-42 19-42 42c0 24 19 42 42 42c23 0 42-18 42-42z m222-12c0 152-123 276-275 276c-1 0-1 0-1 0c0 0 0 0 0 0c-17 0-30-13-30-30c0-16 13-30 30-30l0 0c0 0 0 0 1 0c119 0 215-97 215-216c0 0 0 0 0 0c0-16 13-30 30-30c16 0 30 14 30 30l0 0l0 0c0 0 0 0 0 0z m-104-4c0 0 0 0 0 0c0 97-79 175-176 175c0 0 0 0-1 0l0 0c0 0 0 0 0 0c-14 0-25-11-25-25c0-14 11-25 25-25c0 0 0 0 0 0l0 0c1 0 1 0 1 0c69 0 125-56 125-125c0 0 0 0 0 0l0 0c0-1 0-1 0-1c0-14 12-25 25-25c14 0 26 11 26 25c0 0 0 1 0 1z"/>
<glyph unicode="" d="M163 124c1 0 1 0 1 0c0 0 1-1 1-1c0 0 0 0 1 0c25-18 56-29 90-29c63 0 118 38 143 92c1 0 1 0 1 1c0 0 1 1 1 1c2 5 4 9 5 14l65 0l0 54l-55 0c0 0 0 0 0 0l-28 0c0 0 0 0 0 0l-27 0c0-9-1-18-3-26c-12-46-53-80-102-80c-22 0-43 7-60 19c0 0 0 0 0 0c-4 3-10 5-16 5c-15 0-27-13-27-28c0-9 4-16 10-22z m238 64l0 0c0 0 0 0 0 0z m-91 68c0 30-24 54-54 54c-29 0-54-24-54-54c0-30 25-55 54-55c30 0 54 25 54 55z m39 132c-1 0-1 0-1 0c0 0-1 1-1 1c0 0 0 0-1 0c-25 18-56 29-90 29c-63 0-118-38-143-92c-1 0-1 0-1-1c0 0-1-1-1-1c-2-5-4-9-5-13l-65 0l0-55l55 0c0 0 0 0 0 0l28 0c0 0 0 0 1 0l26 0c0 9 1 18 3 26c12 46 53 80 102 80c22 0 43-7 60-19c0 0 0 0 0 0c4-3 10-5 16-5c15 0 27 13 27 28c0 9-4 17-10 22z m-238-64l0 0z"/>
<glyph unicode="" d="M176 228l-66 0c-7 0-13-6-14-15l0-139l94 0l0 139c0 9-7 15-14 15z m116 46l-66 0c-8 0-14-7-14-15l0-185l93 0l0 185c0 8-6 15-13 15z m120 61l-66 0c-8 0-14-7-14-15l0-246l93 0l0 246c0 8-6 15-13 15z m-93 103l-111 0l6-7l31-32c-1-18-17-37-45-54c-32-21-77-23-114-28l-1 0l0 0c-7-2-14-2-14-2l-1-8c2 0 8-3 14-4c19-6 41-10 63-10c69 0 119 28 138 64l34-35z"/>
<glyph unicode="" d="M374 127c-5 0-10 1-13 5c-8 8-8 20 0 27c52 53 52 139 0 191c-8 8-8 20 0 27c7 8 19 8 27 0c33-32 51-76 51-122c0-46-18-90-51-123c-4-4-9-5-14-5m-68 36c-5 0-10 2-14 6c-7 7-7 19 0 27c33 32 33 85 0 118c-7 7-7 20 0 27c8 8 20 8 27 0c48-47 48-125 0-172c-3-4-8-6-13-6m-60 266c11 10 19 7 19-8l0-332c0-15-8-18-19-8l-96 97l-65 0l0 154l65 0z"/>
<glyph unicode="" d="M432 365c-13-5-27-9-41-11c15 9 26 23 32 40c-14-8-30-14-46-17c-13 14-32 22-53 22c-40 0-72-32-72-72c0-6 0-11 1-16c-60 3-113 31-149 75c-6-11-10-23-10-36c0-25 13-48 33-61c-12 1-23 4-33 10c0-1 0-1 0-1c0-35 25-65 58-71c-6-2-13-3-19-3c-5 0-9 1-14 1c9-28 36-49 68-50c-25-19-56-31-90-31c-6 0-12 1-17 1c32-20 70-32 111-32c133 0 206 110 206 206c0 3-1 6-1 9c14 10 27 23 36 37"/>
<glyph unicode="" d="M355 410l-95 0c-43 0-83-33-83-70c0-38 29-69 73-69c3 0 6 0 9 0c-3-5-5-11-5-18c0-10 6-19 13-26c-6 0-11 0-17 0c-53 0-93-34-93-69c0-34 44-56 97-56c60 0 94 35 94 69c0 27-8 44-34 62c-8 6-25 21-25 29c0 11 3 16 19 28c15 12 26 29 26 49c0 24-10 48-30 55l30 0z m-33-233c1-3 1-7 1-10c0-28-18-49-69-49c-37 0-63 23-63 50c0 28 33 50 69 50c9 0 17-2 24-4c20-14 34-21 38-37m-58 103c-25 1-48 28-52 60c-5 32 12 57 36 56c25-1 48-26 52-59c5-32-12-57-36-57"/>
<glyph unicode="" d="M341 303l-50 0l-35-52l-35 52l-50 0l60-89l-67-99l96 0l0 34l-22 0l18 27l41-61l51 0l-67 99z m59 68l-53 52c-11 11-34 21-50 21l-176 0c-16 0-29-13-29-30l0-316c0-17 13-30 29-30l270 0c16 0 29 13 29 30l0 223c0 16-9 38-20 50m-17-17c1-1 2-3 3-4l-60 0l0 60c2-1 3-2 5-4z m14-256c0-4-3-6-6-6l-270 0c-3 0-6 2-6 6l0 316c0 4 3 6 6 6l176 0c2 0 4 0 6 0l0-94l93 0c1-2 1-4 1-5l0-223z"/>
<glyph unicode="" d="M400 371l-53 52c-11 11-34 21-50 21l-176 0c-16 0-29-13-29-30l0-316c0-17 13-30 29-30l270 0c16 0 29 13 29 30l0 223c0 16-9 38-20 50m-17-17c1-1 2-3 3-4l-60 0l0 60c2-1 3-2 5-4z m14-256c0-4-3-6-6-6l-270 0c-3 0-6 2-6 6l0 316c0 4 3 6 6 6l176 0c2 0 4 0 6 0l0-94l93 0c1-2 1-4 1-5l0-223z m-90 206l0-32l-29 0l0-124l29 0l0-32l-102 0l0 32l29 0l0 124l-29 0l0 32z"/>
<glyph unicode="" d="M215 233l-23 23l-70-70l70-71l23 24l-46 47z m82-94l23-24l70 71l-70 70l-23-23l46-47z m103 232l-53 52c-11 11-34 21-50 21l-176 0c-16 0-29-13-29-30l0-316c0-17 13-30 29-30l270 0c16 0 29 13 29 30l0 223c0 16-9 38-20 50m-17-17c1-1 2-3 3-4l-60 0l0 60c2-1 3-2 5-4z m14-256c0-4-3-6-6-6l-270 0c-3 0-6 2-6 6l0 316c0 4 3 6 6 6l176 0c2 0 4 0 6 0l0-94l93 0c1-2 1-4 1-5l0-223z m-173 24l26-7c2-1 5 0 5 3l36 130c1 3 0 5-3 6l-26 7c-2 1-5-1-5-3l-36-131c-1-2 0-5 3-5"/>
<glyph unicode="" d="M139 256l70 0l0-23l-70 0z m0-47l70 0l0-23l-70 0z m0-47l70 0l0-23l-70 0z m261 209l-53 52c-11 11-34 21-50 21l-176 0c-16 0-29-13-29-30l0-316c0-17 13-30 29-30l270 0c16 0 29 13 29 30l0 223c0 16-9 38-20 50m-17-17c1-1 2-3 3-4l-60 0l0 60c2-1 3-2 5-4z m14-256c0-4-3-6-6-6l-270 0c-3 0-6 2-6 6l0 316c0 4 3 6 6 6l176 0c2 0 4 0 6 0l0-94l93 0c1-2 1-4 1-5l0-223z m-118 88l70 0c-6-27-29-47-58-47c-32 0-58 26-58 58c0 29 20 52 46 58z m36 93c32 0 58-26 58-58c0-4 0-8-1-12l-69 0l0 69c4 1 8 1 12 1"/>
<glyph unicode="" d="M221 397l35 0l0-24l-35 0l0 24z m-35-24l35 0l0-23l-35 0z m35-23l35 0l0-24l-35 0l0 24z m-35-24l35 0l0-23l-35 0z m35-23l35 0l0-24l-35 0l0 24z m-35-24l35 0l0-23l-35 0z m35-23l0-23l-35 0l0-83c0-6 5-11 11-11l47 0c7 0 12 5 12 11l0 106z m23-94l-47 0l0 24l47 0z m156 209l-53 52c-11 11-34 21-50 21l-176 0c-16 0-29-13-29-30l0-316c0-17 13-30 29-30l270 0c16 0 29 13 29 30l0 223c0 16-9 38-20 50m-17-17c1-1 2-3 3-4l-60 0l0 60c2-1 3-2 5-4z m14-256c0-4-3-6-6-6l-270 0c-3 0-6 2-6 6l0 316c0 4 3 6 6 6l176 0c2 0 4 0 6 0l0-94l93 0c1-2 1-4 1-5l0-223z"/>
<glyph unicode="" d="M68 115l376 0l0 282l-376 0z m71 24l-47 0l0 47l47 0z m0 94l-47 0l0 46l47 0z m0 93l-47 0l0 47l47 0z m211-187l-188 0l0 234l188 0z m70 0l-47 0l0 47l47 0z m0 94l-47 0l0 46l47 0z m0 93l-47 0l0 47l47 0z m-211 0l0-140l94 70z"/>
<glyph unicode="" d="M209 338c0-32 26-59 59-59c32 0 58 27 58 59c0 33-26 59-58 59c-33 0-59-26-59-59m-141 0c0-32 27-59 59-59c32 0 59 27 59 59c0 33-27 59-59 59c-32 0-59-26-59-59m282-117l0 35c0 13-11 23-24 23l-234 0c-13 0-24-10-24-23l0-117c0-13 11-24 24-24l234 0c13 0 24 11 24 24l0 35l94-59l0 164z m-47-59l-188 0l0 71l188 0z"/>
<glyph unicode="" d="M186 373l258 71l0-270c0-33-37-59-82-59c-46 0-83 26-83 59c0 32 37 59 83 59c12 0 24-2 35-6l0 121l-164-45l0-176c0-32-37-59-83-59c-45 0-82 27-82 59c0 32 37 59 82 59c13 0 25-2 36-6l0 193z"/>
<glyph unicode="" d="M384 336l-88 13l-40 80l-40-80l-88-13l64-62l-15-89l79 42l79-42l-15 89z m-128-89l-56-30l11 63l-45 44l62 9l28 56l28-56l62-9l-45-44l11-63z"/>
<glyph unicode="" d="M384 336l-88 13l-40 80l-40-80l-88-13l64-62l-15-89l79 42l79-42l-15 89z"/>
<glyph unicode="" d="M400 371l-53 52c-11 11-34 21-50 21l-176 0c-16 0-29-13-29-30l0-316c0-17 13-30 29-30l270 0c16 0 29 13 29 30l0 223c0 16-9 38-20 50z m-74 39c2-1 3-2 5-4l52-52c1-1 2-3 3-4l-60 0l0 60z m71-312c0-4-3-6-6-6l-270 0c-3 0-6 2-6 6l0 316c0 4 3 6 6 6l176 0c2 0 4 0 6 0l0-94l93 0c1-2 1-4 1-5l0-223z m-133 138c-1 1-3 3-5 4l-3 2l-23-22l5-3c2-1 3-2 5-3l0-1c4-4 7-10 7-16c0-5-3-11-7-15l-43-44c-9-8-23-8-31 0l-1 1c-4 4-7 10-7 16c0 6 3 11 7 15l22 22l-1 2c-4 8-5 17-5 25l0 11l-38-38c-20-21-20-54 0-75l1 0c10-10 23-16 37-16c14 0 28 6 37 16l44 43c10 10 15 23 15 37c0 15-5 28-15 38z m64 63c-10 10-23 16-37 16c-14 0-28-6-38-16l-43-43c-10-10-16-24-16-38c0-14 6-27 16-37l1-1c1-1 3-3 5-4l3-3l22 23l-4 3c-2 1-3 2-5 3l0 1c-9 8-9 22 0 31l43 43c8 9 23 9 31 0l1 0c9-9 9-23 0-31l-22-22l1-3c4-8 5-16 5-25l0-10l38 38c10 10 15 23 15 37c0 14-5 27-15 37z"/>
<glyph unicode="" d="M420 362l-94 0l0 23c0 13-10 24-23 24l-94 0c-13 0-23-11-23-24l0-23l-94 0c-13 0-24-11-24-24l0-211c0-13 11-24 24-24l328 0c13 0 24 11 24 24l0 211c0 13-11 24-24 24m-211 23c0 0 0 0 0 0l94 0c0 0 0 0 0 0l0-23l-94 0z m117-117l-140 0m-47 44l-47 0l0 15l328 0l0-15l-47 0m-36-42c0-9-8-16-17-16l-128 0c-9 0-17 7-17 16c0 9 8 16 17 16l128 0c9 0 17-7 17-16z"/>
<glyph unicode="" d="M420 362l-94 0l0 23c0 13-10 24-23 24l-94 0c-13 0-23-11-23-24l0-23l-94 0c-13 0-24-11-24-24l0-211c0-13 11-24 24-24l328 0c13 0 24 11 24 24l0 211c0 13-11 24-24 24m-211 23c0 0 0 0 0 0l94 0c0 0 0 0 0 0l0-23l-94 0z m117-117l-140 0m-47 44l-47 0l0 15l328 0l0-15l-47 0m53-127l-64 0l0-64l-30 0l0 64l-64 0l0 30l64 0l0 64l30 0l0-64l64 0z"/>
<glyph unicode="" d="M420 362l-94 0l0 23c0 13-10 24-23 24l-94 0c-13 0-23-11-23-24l0-23l-94 0c-13 0-24-11-24-24l0-211c0-13 11-24 24-24l328 0c13 0 24 11 24 24l0 211c0 13-11 24-24 24m-211 23c0 0 0 0 0 0l94 0c0 0 0 0 0 0l0-23l-94 0z m117-117l-140 0m-47 44l-47 0l0 15l328 0l0-15l-47 0m41-67l-46-45l46-46l-22-21l-45 46l-45-46l-21 21l45 46l-45 45l21 21l45-45l45 45z"/>
<glyph unicode="" d="M420 362l-94 0l0 23c0 13-10 24-23 24l-94 0c-13 0-23-11-23-24l0-23l-94 0c-13 0-24-11-24-24l0-211c0-13 11-24 24-24l328 0c13 0 24 11 24 24l0 211c0 13-11 24-24 24z m-211 23c0 0 0 0 0 0l94 0c0 0 0 0 0 0l0-23l-94 0z m-117-73l0 15l328 0l0-15z m207-190l-77 77l32 6l45-44l96 96l32-7z"/>
<glyph unicode="" d="M397 256l-59 0l-82-82l-82 82l-59 0l-47-94l0-23l376 0l0 23z m-329-141l376 0l0-23l-376 0z m211 211l0 94l-46 0l0-94l-83 0l106-105l106 105z"/>
<glyph unicode="" d="M368 286l-82 0l0 82c0 4-3 7-8 7l-44 0c-5 0-8-3-8-7l0-82l-82 0c-4 0-7-3-7-8l0-44c0-5 3-8 7-8l82 0l0-82c0-4 3-8 8-8l44 0c5 0 8 4 8 8l0 82l82 0c4 0 8 3 8 8l0 44c-1 5-4 8-8 8"/>
<glyph unicode="" d="M137 278l0-44c0-5 3-8 7-8l224 0c4 0 7 3 7 8l0 44c0 5-3 8-7 8l-224 0c-4 0-7-3-7-8"/>
<glyph unicode="" d="M355 382l0 0l-198 0c-11 0-19-9-19-21l0-136l0 0l0-128c0-12 8-21 19-21l198 0c11 0 19 9 19 21c0 0 0 246 0 264c0 19-19 21-19 21z m-145-271l-23 0c-6 0-11 5-11 11c0 7 5 12 11 12l23 0c6 0 11-5 11-12c0-6-5-11-11-11z m0 50l-23 0c-6 0-11 5-11 11c0 7 5 12 11 12l23 0c6 0 11-5 11-12c0-6-5-11-11-11z m0 50l-23 0c-6 0-11 5-11 11c0 6 5 11 11 11l23 0c6 0 11-5 11-11c0-6-5-11-11-11z m57-100l-22 0c-6 0-11 5-11 11c0 7 5 12 11 12l22 0c6 0 11-5 11-12c0-6-5-11-11-11z m0 50l-22 0c-6 0-11 5-11 11c0 7 5 12 11 12l22 0c6 0 11-5 11-12c0-6-5-11-11-11z m0 50l-22 0c-6 0-11 5-11 11c0 6 5 11 11 11l22 0c6 0 11-5 11-11c0-6-5-11-11-11z m58-100l-23 0c-6 0-11 5-11 11c0 7 5 12 11 12l23 0c6 0 11-5 11-12c0-6-5-11-11-11z m0 50l-23 0c-6 0-11 5-11 11c0 7 5 12 11 12l23 0c6 0 11-5 11-12c0-6-5-11-11-11z m0 50l-23 0c-6 0-11 5-11 11c0 6 5 11 11 11l23 0c6 0 11-5 11-11c0-6-5-11-11-11z m15 68l-168 0l0 75l168 0z"/>
<glyph unicode="" d="M393 239l-35 0l0-34l-34 0l0-34l-34 0l0 34l34 0l0 34l34 0l0 34l-34 0l0 34l-34 0l0 34l34 0l0-34l34 0l0-34l35 0z m-103 102l-34 0l0 34l34 0l0-34m0-204l-34 0l0 34l34 0l0-34m33 102l-34 0l0 34l34 0l0-34m-33 34l-34 0l0 34l34 0l0-34m-1-68l-34 0l0 34l34 0l0-34m-33 34l-34 0l0 34l34 0l0-34m-34 34l-34 0l0 34l34 0l0-34m0-68l-34 0l0 34l34 0l0-34m-34 34l-34 0l0 34l34 0l0-34m-34 34l-35 0l0 34l35 0l0-34m0-68l-35 0l0 34l35 0l0-34"/>
<glyph unicode="" d="M119 273l35 0l0 34l34 0l0 34l34 0l0-34l-34 0l0-34l-34 0l0-34l34 0l0-34l34 0l0-34l-34 0l0 34l-34 0l0 34l-35 0z m103-102l34 0l0-34l-34 0l0 34m0 204l34 0l0-34l-34 0l0 34m-33-102l34 0l0-34l-34 0l0 34m33-34l34 0l0-34l-34 0l0 34m1 68l34 0l0-34l-34 0l0 34m33-34l34 0l0-34l-34 0l0 34m34-34l34 0l0-34l-34 0l0 34m0 68l34 0l0-34l-34 0l0 34m34-34l34 0l0-34l-34 0l0 34m34-34l35 0l0-34l-35 0l0 34m0 68l35 0l0-34l-35 0l0 34"/>
<glyph unicode="" d="M187 273l34 0l0 34l34 0l0 34l34 0l0-34l-34 0l0-34l-34 0l0-34l34 0l0-34l34 0l0-34l-34 0l0 34l-34 0l0 34l-34 0z m102-102l35 0l0-34l-35 0l0 34m0 204l35 0l0-34l-35 0l0 34m-32-102l34 0l0-34l-34 0l0 34m32-34l35 0l0-34l-35 0l0 34m2 68l34 0l0-34l-34 0l0 34"/>
<glyph unicode="" d="M325 239l-34 0l0-34l-34 0l0-34l-34 0l0 34l34 0l0 34l34 0l0 34l-34 0l0 34l-34 0l0 34l34 0l0-34l34 0l0-34l34 0z m-102 102l-35 0l0 34l35 0l0-34m0-204l-35 0l0 34l35 0l0-34m32 102l-34 0l0 34l34 0l0-34m-32 34l-35 0l0 34l35 0l0-34m-2-68l-34 0l0 34l34 0l0-34"/>
<glyph unicode="" d="M405 435l-298 0c-50 0-90-40-90-89l0-180c0-49 40-89 90-89l298 0c50 0 90 40 90 89l0 180c0 49-40 89-90 89m60-269c0-16-6-30-18-42c-11-11-26-17-42-17l-298 0c-16 0-31 6-42 17c-12 12-18 26-18 42l0 180c0 15 6 30 18 42c11 11 26 17 42 17l298 0c16 0 31-6 42-17c12-12 18-27 18-42z m-269-29l150 119l-150 119z"/>
<glyph unicode="" d="M256 495c-132 0-239-107-239-239c0-132 107-239 239-239c132 0 239 107 239 239c0 132-107 239-239 239m0-433c-107 0-194 87-194 194c0 107 87 194 194 194c107 0 194-87 194-194c0-107-87-194-194-194m-60 299l179-105l-179-105z"/>
<glyph unicode="" d="M376 166l-61 52c-6 5-13 8-18 8c14 16 23 38 23 62c0 53-43 96-96 96c-53 0-96-43-96-96c0-53 43-96 96-96c24 0 46 9 62 23c0-5 3-12 8-18l52-61c9-10 23-11 32-2c9 9 8 23-2 32m-152 58c-35 0-64 29-64 64c0 35 29 64 64 64c35 0 64-29 64-64c0-35-29-64-64-64"/>
<glyph unicode="" d="M256 416c94 0 171-62 171-139c0-76-77-138-171-138c-9 0-18 0-27 1c-36-36-80-43-122-44l0 9c23 11 42 32 42 55c0 3 0 6 0 10c-39 25-64 64-64 107c0 77 77 139 171 139"/>
<glyph unicode="" d="M388 388l-33 0l0-11c0-12-10-22-22-22c-12 0-22 10-22 22l0 11l-110 0l0-11c0-12-10-22-22-22c-12 0-22 10-22 22l0 11l-33 0c-12 0-22-10-22-22l0-242c0-12 10-22 22-22l264 0c12 0 22 10 22 22l0 242c0 12-10 22-22 22m0-264c0 0 0 0 0 0l-264 0c0 0 0 0 0 0l0 198l264 0z m-209 242c6 0 11 5 11 11l0 44c0 6-5 11-11 11c-6 0-11-5-11-11l0-44c0-6 5-11 11-11m154 0c6 0 11 5 11 11l0 44c0 6-5 11-11 11c-6 0-11-5-11-11l0-44c0-6 5-11 11-11m-55-66l-110 0l0-22l88 0l0-44l-88 0l0-22l88 0l0-44l-88 0l0-22l110 0z m44-154l22 0l0 154l-44 0l0-22l22 0z m57-52l-246 0c-12 0-22 7-22 19l0-11c0-12 10-22 22-22l246 0c12 0 22 10 22 22l0 11c0-12-10-19-22-19"/>
<glyph unicode="" d="M205 297l41 0l0-41l-41 0z m61 0l41 0l0-41l-41 0z m62 0l41 0l0-41l-41 0z m-185-123l41 0l0-41l-41 0z m62 0l41 0l0-41l-41 0z m61 0l41 0l0-41l-41 0z m-61 62l41 0l0-41l-41 0z m61 0l41 0l0-41l-41 0z m62 0l41 0l0-41l-41 0z m-185 0l41 0l0-41l-41 0z m226 184l0-21l-41 0l0 21l-144 0l0-21l-41 0l0 21l-41 0l0-328l308 0l0 328z m20-307l-266 0l0 225l266 0z"/>
<glyph unicode="" d="M331 297l0-48c0-33-28-61-61-61l-28 0c-33 0-61 28-61 61l0 48l-27 0l0-48c0-48 40-89 88-89l0-47l-58 0l0-28l144 0l0 28l-58 0l0 47c48 0 88 41 88 89l0 48z m-89-89l28 0c19 0 36 16 40 34l-41 0l0 14l42 0l0 14l-42 0l0 13l42 0l0 14l-42 0l0 14l42 0l0 13l-42 0l0 14l42 0l0 14l-42 0l0 13l42 0l0 14l-42 0l0 14l41 0c-4 18-21 34-40 34l-28 0c-21 0-41-19-41-41l0-137c0-22 20-41 41-41z"/>
<glyph unicode="" d="M387 306c-24 4-46 15-63 33c-18 17-29 39-33 63c23 15 58 9 81-14c24-24 29-58 15-82z m-17-17c-22 7-43 18-60 36c-18 17-29 38-36 60c-14-23-9-58 15-81c23-24 58-29 81-15z m-94-105c-29 0-50-18-69-35c-21-18-38-33-65-25c-5 4-5 7-5 8c-1 7 8 17 12 20c1 1 1 1 2 2c6-3 14-1 20 4l135 111c-12 5-22 11-31 21c-10 9-17 20-21 31l-111-135c-5-5-6-12-5-18c0 0-1 0-1-1c-2-1-21-17-20-36c0-7 3-16 15-24l3-1c7-3 15-4 21-4c27 0 46 17 64 33c18 15 34 29 56 29c51 0 91-54 91-55c3-4 9-5 14-2c4 3 5 9 2 14c-2 2-45 63-107 63z"/>
<glyph unicode="" d="M242 278l25 0l0-26l-25 0z m0-39l25 0l0-25l-25 0z m42 0l25 0l0-25l-25 0z m-42-38l0-103l-116 0l0 116l103 0l0 25l-105 0c-13 0-23-10-23-23l0-120c0-13 10-23 23-23l120 0c13 0 23 10 23 23l0 105l-25 0z m169 38l-89 0l0-25l84 0l0-97l-97 0l0 84l-25 0l0-89c0-11 9-20 21-20l106 0c12 0 21 9 21 20l0 107c0 11-9 20-21 20z m-15 143l-94 0c-10 0-18-8-18-18l0-74l25 0l0 66l79 0l0-78l-66 0l0-26l74 0c10 0 18 8 18 18l0 94c0 10-8 18-18 18z m-167-104l-123 0l0 135l135 1l1-124l25 0l0 123c0 15-11 26-26 26l-135 0c-14 0-26-11-26-26l0-135c0-14 12-26 26-26l123 0z m55 0l25 0l0-26l-25 0z"/>
<glyph unicode="" d="M318 158l-3 0c-26 0-47 21-47 47l0 77c0 26 21 47 47 47l3 0c25 0 46-21 46-47l0-77c0-26-21-47-46-47z m-3 145c-12 0-22-10-22-21l0-77c0-12 10-21 22-21l3 0c11 0 21 9 21 21l0 77c0 11-10 21-21 21z m74-178l-3 0c-26 0-47 21-47 47l0 77c0 26 21 47 47 47l3 0c26 0 47-21 47-47l0-77c0-26-21-47-47-47z m-3 145c-12 0-22-9-22-21l0-77c0-11 10-21 22-21l3 0c11 0 21 10 21 21l0 77c0 12-10 21-21 21z m-16-220l-113 0c-36 0-65 28-66 63c-33 25-69 42-109 52c-23 6-39 29-35 53l1 8c3 21 23 37 47 37c4 0 9-1 13-2c29-7 57-17 83-30l0 169c0 26 21 47 47 47l8 0c26 0 47-21 47-47l0-195c0-12 10-21 22-21l2 0c12 0 22 9 22 21l25 0l0-33c0-11 10-21 22-21l3 0c11 0 21 10 21 21l26 0l0-57c0-36-30-65-66-65z m-275 187c-11 0-20-6-22-15l-1-8c-2-11 5-22 16-24c45-12 87-32 124-60l5-4l0-11c0-22 17-40 40-40l113 0c22 0 40 18 40 40l0 16c-6-4-14-6-21-6l-3 0c-23 0-42 17-46 39c-7-4-14-6-22-6l-3 0c-26 0-47 21-47 47l0 195c0 12-10 21-22 21l-8 0c-12 0-21-9-21-21l0-212l-19 11c-30 16-63 29-96 37c-2 1-5 1-7 1z m104 94l-5 1c-6-19-43-43-64-40c-6 1-11 3-11 15c0 30 39 42 73 47c2-1 4-1 7-1l0 18c-3 0-5 0-7 0c-34 4-73 16-73 46c0 12 5 15 11 15c21 3 58-20 64-40l5 2l0 23c-18 20-49 35-71 32c-17-2-26-14-26-32c0-29 22-46 50-55c-28-9-50-25-50-55c0-18 9-30 26-32c2 0 3 0 5 0c22 0 50 14 66 32l0 24z m82 31c21 11 34 25 35 26l-12 11c-1 0-12-11-29-20l0-33c17-9 28-21 29-21l12 12c-1 0-14 15-35 25z"/>
<glyph unicode="" d="M196 128l120 128l-120 128z"/>
<glyph unicode="" d="M384 196l-128 120l-128-120z"/>
<glyph unicode="" d="M316 384l-120-128l120-128z"/>
<glyph unicode="" d="M128 316l128-120l128 120z"/>
<glyph unicode="" d="M122 212l175 0l0 158z"/>
<glyph unicode="" d="M357 194l-63 62l63 62c0 1 1 2 1 2c1 3 0 5-1 7l-30 30c-2 1-4 2-7 1c0 0-1-1-2-1l-62-63l-62 63c-1 0-2 1-2 1c-3 1-5 0-7-1l-30-30c-1-2-2-4-1-7c0 0 1-1 1-2l63-62l-63-62c0-1-1-2-1-2c-1-3 0-5 1-7l30-30c2-1 4-2 7-1c0 0 1 1 2 1l62 63l62-63c1 0 2-1 2-1c3-1 5 0 7 1l30 30c1 2 2 4 1 7c0 0-1 1-1 2"/>
<glyph unicode="" d="M316 230c-10 0-17-7-17-17c0-9 7-17 17-17c9 0 17 8 17 17c0 10-8 17-17 17z m0 52c-10 0-17-8-17-17c0-10 7-18 17-18c9 0 17 8 17 18c0 9-8 17-17 17z m-60-52c-9 0-17-7-17-17c0-9 8-17 17-17c9 0 17 8 17 17c0 10-8 17-17 17z m0 52c-9 0-17-8-17-17c0-10 8-18 17-18c9 0 17 8 17 18c0 9-8 17-17 17z m-60 42l120 0c9 0 17 8 17 17c0 10-8 17-17 17l-120 0c-9 0-17-7-17-17c0-9 8-17 17-17z m0-179c10 0 17 8 17 17c0 10-7 17-17 17c-9 0-17-7-17-17c0-9 8-17 17-17z m162 282l-204 0c-19 0-35-16-35-34l0-274c0-18 16-34 35-34l204 0c19 0 35 16 35 34l0 274c0 18-16 34-35 34z m9-316l-222 0l0 290l222 0z m-111 68c-9 0-17-7-17-17c0-9 8-17 17-17c9 0 17 8 17 17c0 10-8 17-17 17z m-60 17c10 0 17 8 17 17c0 10-7 17-17 17c-9 0-17-7-17-17c0-9 8-17 17-17z m0 51c10 0 17 8 17 18c0 9-7 17-17 17c-9 0-17-8-17-17c0-10 8-18 17-18z m120-68c-10 0-17-7-17-17c0-9 7-17 17-17c9 0 17 8 17 17c0 10-8 17-17 17z"/>
<glyph unicode="" d="M256 444c-104 0-188-84-188-188c0-104 84-188 188-188c104 0 188 84 188 188c0 104-84 188-188 188z m0-351c-90 0-163 73-163 163c0 90 73 163 163 163c90 0 163-73 163-163c0-90-73-163-163-163z m69 250l-69-69l-61 69c-5 5-13 5-18 0c-5-5-5-13 0-18l62-69l-70-69c-5-5-5-13 0-18c5-5 13-5 18 0l69 69l61-69c5-5 13-5 18 0c5 5 5 13 0 18l-62 69l70 69c5 5 5 13 0 18c-5 5-13 5-18 0z"/>
<glyph unicode="" d="M162 419c-90-52-120-167-69-257c52-90 167-120 257-69c90 52 120 167 69 257c-52 90-167 120-257 69z m224-88c42-72 17-164-55-205c-72-42-164-17-205 55c-42 72-17 164 55 205c72 41 164 17 205-55z m-173-62c-4-3-6-8-6-13c0-5 2-10 6-13l53-53c7-8 19-8 27 0l0 0c7 7 7 19 0 26l-40 40l40 40c7 7 7 19 0 26l0 0c-8 8-20 8-27 0z"/>
<glyph unicode="" d="M437 207c27 101-32 203-132 230c-101 27-203-32-230-132c-27-101 32-203 132-230c101-27 204 32 230 132z m-220-96c-80 21-127 104-106 184c21 80 104 128 184 106c80-21 128-104 106-184c-21-80-104-128-184-106z m79 166c0 5-2 10-6 13c-3 4-8 6-13 6l-75 0c-10 0-19-9-19-19l0 0c0-10 9-19 19-19l56 0l0-56c0-10 9-19 19-19l0 0c10 0 19 9 19 19z"/>
<glyph unicode="" d="M419 350c-52 90-167 120-257 69c-90-52-120-167-69-257c52-90 167-120 257-69c90 52 120 167 69 257z m-88-224c-72-42-164-17-205 55c-42 72-17 164 55 205c72 42 164 17 205-55c42-72 17-164-55-205z m-62 173c-3 4-8 6-13 6c-5 0-10-2-13-6l-53-53c-8-7-8-19 0-27l0 0c7-7 19-7 26 0l40 40l40-40c7-7 19-7 26 0l0 0c8 8 8 20 0 27z"/>
<glyph unicode="" d="M93 162c52-90 167-120 257-69c90 52 120 167 69 257c-52 90-167 120-257 69c-90-52-120-167-69-257z m88 224c72 42 164 17 205-55c42-72 17-164-55-205c-72-42-164-17-205 55c-42 72-17 164 55 205z m62-173c3-4 8-6 13-6c5 0 10 2 13 6l53 53c8 7 8 19 0 27l0 0c-7 7-19 7-26 0l-40-40l-40 40c-7 7-19 7-26 0l0 0c-8-8-8-20 0-27z"/>
<glyph unicode="" d="M350 93c90 52 120 167 69 257c-52 90-167 120-257 69c-90-52-120-167-69-257c52-90 167-120 257-69z m-224 88c-42 72-17 164 55 205c72 42 164 17 205-55c42-72 17-164-55-205c-72-42-164-17-205 55z m173 62c4 3 6 8 6 13c0 5-2 10-6 13l-53 53c-7 8-19 8-27 0l0 0c-7-7-7-19 0-26l40-40l-40-40c-7-7-7-19 0-26l0 0c8-8 20-8 27 0z"/>
<glyph unicode="" d="M207 75c101-27 203 32 230 132c27 101-32 203-132 230c-101 27-203-32-230-132c-27-101 32-204 132-230z m-96 220c21 80 104 128 184 106c80-21 128-104 106-184c-21-80-104-128-184-106c-80 21-127 104-106 184z m166-79c5 0 10 2 13 6c4 3 6 8 6 13l0 75c0 10-9 19-19 19l0 0c-10 0-19-9-19-19l0-56l-56 0c-10 0-19-9-19-19l0 0c0-10 9-19 19-19z"/>
<glyph unicode="" d="M347 264l-165 165c-2 2-5 3-8 3c-3 0-6-1-8-3l-1 0c-2-3-3-6-3-9l0-79c0-4 1-6 3-9l77-76l-76-76c-3-3-4-5-4-9l0-79c0-4 1-6 3-9l1 0c2-2 5-3 8-3c3 0 6 1 8 3l165 165c4 4 4 12 0 16z"/>
<glyph unicode="" d="M314 442l-233 0c-3 0-6-1-8-3c-2-2-3-5-3-8l0-1c0-3 1-6 3-8l57-56c2-2 5-4 8-4l108 0l0-108c0-3 1-6 3-8l57-56c2-3 5-4 8-4l0 0c3 0 6 1 8 4c3 2 4 5 4 8l0 233c0 6-5 11-12 11z"/>
<glyph unicode="" d="M326 198l0 233c0 3-2 6-4 8c-2 2-5 3-8 3l0 0c-3 0-6-1-8-3l-57-57c-2-2-3-5-3-8l0-108l-108 0c-3 0-6-1-8-3l-57-57c-2-2-3-5-3-8l0 0c0-3 1-6 3-8c3-3 5-4 8-4l233 0c7 0 12 5 12 12z"/>
<glyph unicode="" d="M264 165l165 165c2 2 3 5 3 8c0 3-1 6-3 8l0 1c-3 2-6 3-9 3l-79 0c-4 0-6-1-9-3l-76-77l-76 76c-3 3-5 4-9 4l-79 0c-4 0-6-1-9-3l0-1c-2-2-3-5-3-8c0-3 1-6 3-8l165-165c4-4 12-4 16 0z"/>
<glyph unicode="" d="M165 248l165-165c2-2 5-3 8-3c3 0 6 1 8 3l1 0c2 3 3 6 3 9l0 80c0 3-1 5-3 8l-77 76l76 76c3 3 4 5 4 9l0 79c0 4-1 6-4 9l0 0c-2 2-5 3-8 3c-3 0-6-1-8-3l-165-165c-4-4-4-12 0-16z"/>
<glyph unicode="" d="M248 347l-165-165c-2-2-3-5-3-8c0-3 1-6 3-8l0-1c3-2 6-3 9-3l79 0c4 0 6 1 9 3l76 77l76-76c3-3 5-4 9-4l79 0c4 0 6 1 9 4l0 0c2 2 3 5 3 8c0 3-1 6-3 8l-165 165c-4 4-12 4-16 0z"/>
<glyph unicode="" d="M256 242l111 111l-83 0l0 111l-56 0l0-111l-83 0z m0-194l222 83l0 111l-121 46l-31-32l112-42l-182-68l-182 68l112 42l-31 32l-121-46l0-111l222-83"/>
<glyph unicode="" d="M291 422l-163 0l0-332l256 0l0 235z m4-43l44-46l-44 0z m-140-262l0 278l120 0l0-82l82 0l0-196z m173 167l-144 0l0 14l144 0z m0-56l-144 0l0 14l144 0z m0-56l-144 0l0 14l144 0z"/>
<glyph unicode="" d="M423 291l-34-35c-22-22-54-26-80-14l80 80c9 9 9 24 0 33l-34 34c-9 9-24 9-33 0l-79-80c-13 26-9 58 13 80l35 34c27 28 72 28 99 0l33-33c28-27 28-72 0-99z m-233-101c-9 9-9 24 0 33l99 99c9 9 24 9 33 0c9-9 9-24 0-33l-99-99c-9-9-24-9-33 0z m-67-33l34-34c9-9 24-9 33 0l80 80c12-26 8-58-14-80l-32-34c-27-28-72-28-99 0l-36 36c-28 27-28 72 0 99l34 32c22 22 54 26 80 14l-80-80c-9-9-9-24 0-33z"/>
<glyph unicode="" d="M288 437c100 0 181-81 181-181c0-100-81-181-181-181l0 39c38 0 74 15 101 41c27 27 42 63 42 101c0 38-15 74-42 101c-27 26-63 41-101 41c-38 0-73-15-100-41c-21-21-34-47-40-75l76 0l-91-104l-90 104l66 0c13 88 88 155 179 155z m78-155l0-52l-104 0l0 129l52 0l0-77z"/>
<glyph unicode="" d="M196 331l183 0c10 0 17-5 17-14c0-9-7-14-17-14l-183 0c-9 0-17 5-17 14c0 9 8 14 17 14z m0-67l214 0c9 0 17-4 17-14c0-9-11-13-20-13l-214 0c-9 0-14 4-14 13c0 10 8 14 17 14z m0-66l158 0c10 0 17-5 17-14c0-10-7-14-17-14l-158 0c-9 0-17 4-17 14c0 9 8 14 17 14z m-98-1l19-16l34 42l15-17l-42-50l-12 0l-27 26l0 15z m2 67l19-17l34 42l15-16l-42-50l-12 0l-27 26l0 15z m0 67l19-17l34 42l15-17l-42-50l-12 0l-27 27l0 15l13 0z"/>
<glyph unicode="" d="M314 371l-246 0l0-230l376 0l0 230z m0-111l-116 0l0 48l116 0z m-238 103l115 0l0-48l-115 0z m0-55l115 0l0-48l-115 0z m0-56l115 0l0-48l-115 0z m0-103l0 48l115 0l0-48z m122 0l0 48l116 0l0-48z m238 0l-115 0l0 48l115 0z m0 111l-115 0l0 48l115 0z m-115 55l0 48l115 0l0-48z"/>
<glyph unicode="" d="M427 85l-49 0c0 162-131 293-293 293l0 49c188 0 342-153 342-342z m-98 0l-49 0c0 108-87 195-195 195l0 49c135 0 244-109 244-244z m-97 0l-49 0c0 54-44 98-98 98l0 49c81 0 147-66 147-147z m-98 0c0 27-22 49-49 49l0-49z"/>
<glyph unicode="" d="M329 350l25 0l-29-130l-38 182l-61 0l-44-182l-33 182l-64 0l65-292l62 0l44 173l39-173l57 0l75 292l-98 0z"/>
<glyph unicode="" d="M389 403l-78 0l-55-81l-55 81l-78 0l93-139l-105-155l151 0l0 52l-35 0l29 43l64-95l81 0l-105 155z"/>
<glyph unicode="" d="M424 177c-12 22-66 36-113 38c-4 5-8 10-13 15c-40 46-56 113-62 148c-1 8-2 14-3 19c0 4-1 11-9 11c-3 0-5-1-7-3c-3-3-3-7-2-11c1-4 1-11 3-18c3-36 5-105-23-159c-3-6-6-11-9-16c-52-16-94-43-100-65c-2-8 0-16 6-22c6-7 14-10 23-10c25 0 53 27 83 81c14 4 28 6 41 8c5 0 13 1 18 2c14 2 30 3 46 2c38-39 69-59 92-59c12 0 23 6 29 17c4 7 4 15 0 22z m-309-55c-4 0-7 1-10 5c-2 1-2 2-1 4c3 12 29 32 68 46c-22-35-43-55-57-55z m139 91c-4-1-12-2-17-2c-9-1-18-3-27-5c0 1 1 2 1 3c14 26 22 59 25 95c13-35 29-64 49-86c0-1 1-2 2-2c-12-1-23-2-33-3z m154-49c-3-5-7-8-13-8l0 0c-15 0-37 14-64 39c41-5 72-17 77-27c1-2 1-2 0-4z"/>
<glyph unicode="" d="M204 171l-121 67l0 37l121 66l0-44l-84-40l84-43z m2-23l80 216l26 0l-81-216z m105 23l0 43l85 42l-85 42l0 43l122-67l0-36z"/>
<glyph unicode="" d="M85 427l0-342l223 0l119 119l0 223l-342 0z m184-238l-26 0l0 54l-54 0l0 26l54 0l0 54l26 0l0-54l54 0l0-26l-54 0z m36-96l0 114l114 0z"/>
<glyph unicode="" d="M85 427l0-342l223 0l119 119l0 223l-342 0z m184-158l54 0l0-26l-54 0l0 0l-26 0l0 0l-54 0l0 26l54 0m62-176l0 114l114 0z"/>
<glyph unicode="" d="M85 427l0-342l223 0l119 119l0 223l-342 0z m326-217l-3-3l-103 0l0-103l-3-3l-201 0l0 310l310 0z m-168-21l26 0l0 54l54 0l0 26l-54 0l0 54l-26 0l0-54l-54 0l0-26l54 0z"/>
<glyph unicode="" d="M85 427l0-342l223 0l119 119l0 223l-342 0z m326-217l-3-3l-103 0l0-103l-3-3l-201 0l0 310l310 0z m-168 59l-54 0l0-26l54 0l0 0l26 0l0 0l54 0l0 26l-54 0"/>
<glyph unicode="" d="M256 427c-94 0-171-77-171-171c0-94 77-171 171-171c94 0 171 77 171 171c0 94-77 171-171 171z m0-302c-72 1-130 59-131 131c1 72 59 130 131 131c72-1 130-59 131-131c-1-72-59-130-131-131z m17 148l0 68l-34 0l0-68l-68 0l0-34l68 0l0-68l34 0l0 68l68 0l0 34z"/>
<glyph unicode="" d="M256 427c-94 0-171-77-171-171c0-94 77-171 171-171c94 0 171 77 171 171c0 94-77 171-171 171z m0-302c-72 1-130 59-131 131c1 72 59 130 131 131c72-1 130-59 131-131c-1-72-59-130-131-131z m-17 148l-68 0l0-34l170 0l0 34l-68 0"/>
<glyph unicode="" d="M407 407c-13 13-28 20-47 20l-208 0c-19 0-34-7-47-20c-13-13-20-28-20-47l0-208c0-18 7-34 20-47c13-13 28-20 47-20l208 0c19 0 34 7 47 20c13 13 20 29 20 47l0 208c0 19-7 34-20 47z m-18-255c0-8-3-15-9-20c-5-6-12-9-20-9l-208 0c-8 0-15 3-20 9c-6 5-9 12-9 20l0 208c0 8 3 15 9 20c5 6 12 9 20 9l208 0c8 0 15-3 20-9c6-5 9-12 9-20l0-208z m-48 123l-66 0l0 66c0 3-1 5-3 7c-1 2-4 3-7 3l-18 0c-3 0-6-1-7-3c-2-2-3-4-3-7l0-66l-66 0c-3 0-5-1-7-3c-2-1-3-4-3-7l0-18c0-3 1-6 3-7c2-2 4-3 7-3l66 0l0-66c0-3 1-5 3-7c1-2 4-3 7-3l18 0c3 0 6 1 7 3c2 2 3 4 3 7l0 66l66 0c3 0 5 1 7 3c2 1 3 4 3 7l0 18c0 3-1 6-3 7c-2 2-4 3-7 3z"/>
<glyph unicode="" d="M85 427l342 0l0-342l-342 0z m38-38l0-266l266 0l0 266z m50-114l64 0l0 64l38 0l0-64l64 0l0-38l-64 0l0-64l-38 0l0 64l-64 0z"/>
<glyph unicode="" d="M85 427l342 0l0-342l-342 0z m38-38l0-266l266 0l0 266z m157-152l-107 0l0 38l107 0m-5 0l64 0l0-38l-64 0"/>
<glyph unicode="" d="M433 354l-109 0l0 13c0 58-55 55-55 55l-27 0c-58 0-55-55-55-55l0-13l-109 0c-28 0-27-28-27-28l0-53c0 0 117-43 204-43c96 0 206 43 206 43l0 53c0 29-28 28-28 28z m-209 14c0 28 32 28 32 28c33 0 32-28 32-28l0-14l-64 0z m66-127l-68 0l0 26l68 0z m171-124l0 137c0 0-89-41-206-41c-108 0-204 42-204 42l0-138c0-27 27-27 27-27l355 0c30 0 28 27 28 27z m-171 72c0-9-8-17-17-17l-34 0c-9 0-17 8-17 17l0 18l68 0z"/>
<glyph unicode="" d="M307 190c0-4-1-7-4-10c-3-3-6-4-10-4l-74 0c-4 0-7 1-10 4c-3 3-4 6-4 10l0 37l-154 0l0-110c0-10 4-19 11-26c7-7 16-11 26-11l336 0c10 0 19 4 26 11c7 7 11 16 11 26l0 110l-154 0z m-80 37l58 0l0-30l-58 0z m223 135c-7 7-16 11-26 11l-80 0l0 37c0 6-2 11-7 15c-4 4-9 7-15 7l-132 0c-6 0-11-3-15-7c-5-4-7-9-7-15l0-37l-80 0c-10 0-19-4-26-11c-7-7-11-15-11-26l0-87l410 0l0 87c0 11-4 19-11 26z m-135 11l-118 0l0 29l118 0z"/>
<glyph unicode="" d="M298 189c-8 2-8 25-8 25c0 0 24 24 30 57c14 0 23 35 9 48c0 13 18 102-73 102c-91 0-73-89-73-102c-14-13-5-48 9-48c6-33 30-57 30-57c0 0 0-23-8-25c-27-4-129-49-129-98l342 0c0 49-102 94-129 98z m127 62l0 45l-30 0l0-45l-45 0l0-30l45 0l0-44l30 0l0 44l45 0l0 30z"/>
<glyph unicode="" d="M256 189c-8 2-8 25-8 25c0 0 25 24 30 57c14 0 23 35 9 48c0 13 19 102-73 102c-91 0-73-89-73-102c-14-13-5-48 9-48c6-33 31-57 31-57c0 0-1-23-9-25c-27-4-128-49-128-98l341 0c0 49-101 94-129 98z m178 117c-10-10-19-21-28-32c-8-12-17-24-24-36c-3-4-6-9-8-13c0 0-1 0-1 0c-6 6-12 11-18 15c-7 5-13 9-20 13c-3 2-6 4-10 6c-3 1-7 3-11 5l-16-53c2-1 5-1 8-2c3-1 6-1 9-2c7-2 12-4 18-6c12-4 22-9 29-16l22-21l8 25c3 12 8 25 12 38c5 13 11 25 17 38c5 12 12 24 20 35c7 11 16 22 27 31c-12-7-23-16-34-25z"/>
<glyph unicode="" d="M273 225c-1 3-2 15-2 15c0 0 25 24 30 57c14 0 23 35 9 47c1 13 19 102-73 102c-91 0-73-89-72-102c-15-12-6-47 8-47c6-33 31-57 31-57c0 0-1-24-9-25c-27-4-128-49-128-98l187 0l0 62c2 31 6 37 19 46z m106-1l-47 0c-30 0-53-24-53-53l0-39c0-29 23-53 53-53l47 0c29 0 53 24 53 53l0 39c0 29-24 53-53 53z m30-45l-55-80c-2-2-5-4-7-4c-2 0-4 1-5 2l-45 31c-3 5-3 11 0 15c2 4 12 6 16 3l29-21l48 66c3 4 12 5 16 2c4-3 6-10 3-14z"/>
<glyph unicode="" d="M410 294c0-18-4-34-11-49c-7-15-17-28-30-38c-13-11-29-19-48-25c-18-6-39-9-62-9l0-20c0-12-3-24-10-34c-7-10-16-18-27-23c-3-2-6-3-11-4c-4-1-8-2-13-2c-5 0-9 1-15 2c-5 1-10 3-16 6l0 58c5-4 9-6 13-7c5-1 8-1 12 0c3 1 6 3 8 6c2 3 3 6 3 10l0 160l56 0l0-99c5 0 10 0 17 0c6 1 13 2 20 4c8 1 15 4 22 7c7 3 14 7 19 12c6 5 11 12 15 19c3 7 5 16 5 26c0 14-3 26-9 35c-6 10-13 17-23 23c-9 6-20 10-32 13c-12 3-25 4-37 4c-13 0-25-1-37-4c-12-3-23-8-33-14c-9-6-17-14-22-23c-6-9-9-21-9-34c0-4 0-8 1-13c1-5 2-9 4-14c1-4 3-8 5-12c2-3 4-6 6-8l-36-38c-5 5-10 11-14 18c-4 7-8 14-10 22c-3 8-5 15-6 23c-2 8-3 16-3 22c0 19 4 36 12 52c7 16 18 29 31 40c14 11 30 20 49 26c19 6 39 10 62 10c23 0 44-4 63-10c19-6 35-15 48-26c14-11 24-24 32-40c7-15 11-33 11-52z"/>
<glyph unicode="" d="M195 326c0-11 1-20 3-26c1-5 4-10 7-14c4-4 10-6 16-8c6-2 19-3 28-3c9 0 12 1 19 3c6 3 11 5 15 10c4 5 7 10 8 16c1 6 2 15 2 27l0 34c0 10-1 17-2 21c-2 5-4 10-8 14c-3 5-8 8-15 11c-7 3-11 4-20 4c-11 0-27-2-34-6c-7-5-12-10-14-17c-3-7-5-17-5-30z m41 48c0 6 0 11 1 13c1 1 5 2 7 2c2 0 6-1 7-2c0-2 1-7 1-13l0-57c0-6-1-10-2-12c0-1-5-2-8-2c-2 0-4 1-5 3c-1 2-1 6-1 12l0 56z m-110-98l40 0l0 60l31 106l-40 1c-5-31-9-53-12-71c0 11-4 39-10 71l-39 0l30-107l0-60z m186 10c2-4 5-6 9-8c4-2 11-2 17-2c5 0 10 0 14 2c5 2 8 5 11 9l-1-10l42 0l0 138l-42 0l0-95c0-11 0-17 0-19c-1-2-5-3-8-3c-2 0-5 1-5 3c-1 2-1 8-1 18l0 96l-40 0l0-95c0-11 0-19 0-23c1-4 2-8 4-11z m102-36l-314 0c-17 0-31-15-31-33l0-122c0-18 14-33 31-33l314 0c17 0 31 15 31 33l0 122c0 18-14 33-31 33z m-253-63l-12 0l0-98l-30 0l0 98l-14 0l0 27l56 0z m84-98l-30 0l0 8c-2-3-4-6-8-7c-3-2-6-3-10-3c-5 0-10 1-13 3c-3 1-5 3-6 6c-2 3-3 5-3 8c0 3 0 9 0 17l0 66l28 0l0-66c0-8 1-13 1-14c1-1 4-2 7-2c2 0 5 1 5 2c1 2 1 6 1 14l0 66l28 0l0-98z m84 28c0-8 0-13-1-17c-1-3-4-6-7-9c-4-2-7-4-12-4c-3 0-7 1-10 3c-3 1-9 3-12 7l-2-8l-27 0l0 125l29 0l0-36c3 3 9 5 12 7c3 1 7 2 10 2c4 0 8-1 11-2c3-2 4-3 6-6c1-2 2-4 2-7c0-2 1 0 1-7l0-48z m83 27l-42 0l0-29c0-4 0-7 1-8c1-2 3-2 5-2c2 0 6 1 6 2c1 2 1 5 1 10l0 13l29 0l0-7c0-6-1-11-2-14c0-3-2-7-5-11c-3-3-8-6-12-8c-4-2-10-3-16-3c-7 0-11 1-16 3c-4 2-9 4-12 8c-3 3-5 6-6 10c-1 4-2 10-2 17l0 32c0 9 1 9 4 14c2 5 7 9 13 12c5 2 10 4 17 4c8 0 16-2 22-5c5-3 9-8 11-13c3-5 4-9 4-19z m-113 23c-1 1-5 2-7 2c-2 0-3-1-4-2c0-1-1 2-1-3l0-47c0-5 1-8 1-10c1-1 2-2 4-2c2 0 7 1 7 2c1 2 1 5 1 11l0 46c0 5 0 1-1 3z m77 4c-2 0-5-1-5-2c-1-1-1 0-1-5l0-6l11 0l0 6c0 5 0 3-1 5c0 1-2 2-4 2z"/>
<glyph unicode="" d="M359 204c-11 0-22-4-30-10l-126 61l0 2l126 61c8-7 19-10 30-10c28 0 51 22 51 50c0 28-23 51-51 51c-28 0-50-23-50-51l0 0l-125-60c-8 7-19 11-31 11c-28 0-51-23-51-51c0-27 23-50 51-50c10 0 19 3 27 8l129-62l0 0c0-28 22-51 50-51c28 0 51 23 51 51c0 28-23 50-51 50z"/>
<glyph unicode="" d="M404 363c0 2 0 3-1 5l-79 90c0 0 0 0 0 0c-1 1-1 1-2 1c0 1 0 1-1 1c0 0-1 0-1 0c0 0 0 1-1 1c0 0-1 0-1 0l-195 0c-8 0-16-7-16-16l0-378c0-9 8-16 16-16l266 0c8 0 16 7 16 16l0 295c0 0 0 0-1 1z m-218-271c7 0 14 2 18 3l4-17c-4-2-14-4-25-4c-34 0-51 21-51 49c0 33 23 51 53 51c11 0 20-2 24-4l-5-17c-4 1-10 3-18 3c-18 0-31-10-31-32c0-20 11-32 31-32z m60-18c-11 0-22 3-28 6l5 18c6-3 15-6 24-6c10 0 16 4 16 11c0 6-5 9-17 13c-16 6-26 15-26 29c0 17 13 29 36 29c11 0 20-2 25-4l-5-18c-4 2-10 4-20 4c-10 0-14-4-14-9c0-6 5-9 18-14c17-6 25-15 25-29c0-16-12-30-39-30z m103 1l-26 0l-31 98l24 0l12-41c3-12 6-23 9-35l0 0c2 12 5 23 9 34l12 42l24 0z m-226 113l0 257l187 0l0-82c0-5 3-8 8-8l71 0l0-167z m209 146l-149 0l0-88l149 0l0 69l0 0l0 19z m-100-87l-47 0l0 20l47 0z m0 22l-47 0l0 20l47 0z m0 22l-47 0l0 20l47 0l0-20z m1 22l0 20l48 0l0-20l-48 0z m97-65l-19 0l0 57l-13 0l0-57l-11 0l0 45l-12 0l0-45l-10 0l0 33l-13 0l0-33l-18 0l0 63l96 0l0-63z m0 67l0 0l0-2l-48 0l0 20l48 0l0-18z"/>
<glyph unicode="" d="M260 153c-14 0-22-13-22-30c0-18 9-31 22-31c14 0 22 13 22 31c0 16-8 30-22 30z m-103 0c-4 0-7 0-9-1l0-59c2 0 5 0 7 0c19-1 31 10 31 31c0 19-11 29-29 29z m247 210c0 2 0 3-1 5l-79 90c0 0 0 0 0 0c-1 1-1 1-2 1c0 1 0 1-1 1c0 0-1 0-1 0c0 0 0 1-1 1c0 0-1 0-1 0l-195 0c-8 0-16-7-16-16l0-378c0-9 8-16 16-16l266 0c8 0 16 7 16 16l0 295c0 0 0 0-1 1z m-212-275c-9-8-24-11-41-11c-11 0-18 0-24 1l0 89c8 1 18 2 28 2c17 0 28-3 37-10c9-7 15-18 15-34c0-17-6-29-15-37z m67-12c-27 0-42 20-42 46c0 27 17 47 44 47c27 0 43-20 43-45c0-30-18-48-45-48z m104 17c7 0 13 1 17 3l4-16c-4-2-13-4-24-4c-31 0-47 20-47 45c0 31 22 48 49 48c11 0 19-2 23-4l-5-16c-4 2-9 4-17 4c-16 0-29-10-29-30c0-18 11-30 29-30z m-240 95l0 257l187 0l0-82c0-5 3-8 8-8l71 0l0-167l-266 0z m113 162l58 0c3 0 5 2 5 5c0 3-2 6-5 6l-58 0c-3 0-6-3-6-6c0-3 3-5 6-5z m87-32l-146 0c-3 0-5-2-5-5c0-3 2-6 5-6l146 0c3 0 5 3 5 6c0 3-2 5-5 5z m-131 21l5 20c2 5 2 9 3 14l0 0c1-5 2-9 3-14l4-20l9 0l11 43l-8 0l-4-19c-2-6-3-10-3-15l0 0c-1 4-2 9-3 14l-4 20l-8 0l-5-19c-1-6-2-11-3-15l0 0c-1 4-2 9-3 14l-4 20l-8 0l10-43z m131-63l-146 0c-3 0-5-3-5-6c0-3 2-5 5-5l146 0c3 0 5 2 5 5c0 3-2 6-5 6z m0-44l-146 0c-3 0-5-2-5-5c0-3 2-5 5-5l146 0c3 0 5 2 5 5c0 3-2 5-5 5z"/>
<glyph unicode="" d="M404 363c0 2 0 3-1 5l-79 90c0 0 0 0 0 0c-1 1-1 1-2 1c0 1 0 1-1 1c0 0-1 0-1 0c0 0 0 1-1 1c0 0-1 0-1 0l-195 0c-8 0-16-7-16-16l0-378c0-9 8-16 16-16l266 0c8 0 16 7 16 16l0 295c0 0 0 0-1 1z m-229-264c-7-6-18-9-32-9c-8 0-14 0-18 1l0 68c6 1 13 2 21 2c14 0 22-3 29-8c7-5 12-14 12-26c0-13-5-23-12-28z m52-10c-21 0-33 16-33 36c0 21 13 36 34 36c21 0 33-16 33-35c0-23-14-37-34-37z m80 13c5 0 10 1 13 3l2-13c-2-1-9-3-17-3c-25 0-37 15-37 35c0 24 17 37 38 37c8 0 15-1 17-3l-3-12c-3 1-8 2-13 2c-13 0-22-7-22-23c0-14 8-23 22-23z m63-12l-6 13c-3 5-5 8-7 13l0 0c-1-5-3-8-5-13l-6-13l-18 0l20 36l-19 34l18 0l6-13c2-4 4-7 5-11l0 0c2 4 3 7 5 11l6 13l18 0l-20-34l21-36z m-247 98l0 257l187 0l0-82c0-5 3-8 8-8l71 0l0-167z m25-39c-4 0-6-1-7-1l0-46c1 0 3 0 5 0c15 0 24 8 24 24c0 15-8 23-22 23z m79 0c-10 0-16-10-16-24c0-14 6-23 16-23c11 0 17 10 17 23c0 13-6 24-17 24z m78 178l0 45l-156 0l0-111l45 0l0-46l157 0l0 112z m-111-58l-37 0l0 95l140 0l0-37l-103 0z m149-46l-140 0l0 95l140 0z m-112 78c0-3-3-5-6-5c-3 0-5 2-5 5c0 3 2 6 5 6c3 0 6-3 6-6z m8 2l82 0l0-4l-82 0z m-8-21c0-3-3-5-6-5c-3 0-5 2-5 5c0 3 2 5 5 5c3 0 6-2 6-5z m8 2l82 0l0-4l-82 0z m-8-23c0-3-3-5-6-5c-3 0-5 2-5 5c0 3 2 5 5 5c3 0 6-2 6-5z m8 2l82 0l0-4l-82 0z m-8-22c0-3-3-5-6-5c-3 0-5 2-5 5c0 3 2 6 5 6c3 0 6-3 6-6z m8 2l82 0l0-4l-82 0z"/>
<glyph unicode="" d="M329 154l0 0c-2-6-3-14-5-19l-6-21l22 0l-6 21c-2 6-4 13-5 19z m75 209c0 2 0 3-1 5l-79 90c0 0 0 0 0 0c-1 1-1 1-2 1c0 1 0 1-1 1c0 0-1 0-1 0c0 0 0 1-1 1c0 0-1 0-1 0l-195 0c-8 0-16-7-16-16l0-378c0-9 8-16 16-16l266 0c8 0 16 7 16 16l0 295c0 0 0 0-1 1z m-203-211l-37 0l0-22l35 0l0-18l-35 0l0-39l-22 0l0 97l59 0z m78-79l-61 0l0 97l22 0l0-79l39 0l0-18z m72 0l-8 25l-28 0l-7-25l-23 0l30 97l29 0l30-97z m38 115l-266 0l0 257l187 0l0-82c0-5 3-8 8-8l71 0l0-167z m-190 130l66 0l0-19l-46 0l0-33l43 0l0-18l-43 0l0-51l-20 0z m81-1l21 0c0 0 0-82 0-92c0-9 2-11 12-11c0-17 0-19 0-19c-16-1-33 2-33 21c0 20 0 101 0 101z"/>
<glyph unicode="" d="M248 143l0 0c-1-4-2-9-3-13l-4-14l14 0l-4 14c-1 4-2 9-3 13z m156 220c0 2 0 3-1 5l-79 90c0 0 0 0 0 0c-1 1-1 1-2 1c0 1 0 1-1 1c0 0-1 0-1 0c0 0 0 1-1 1c0 0-1 0-1 0l-195 0c-8 0-16-7-16-16l0-378c0-9 8-16 16-16l266 0c8 0 16 7 16 16l0 295c0 0 0 0-1 1z m-237-221l-23 0l0-16l22 0l0-12l-22 0l0-27l-14 0l0 67l37 0l0-12z m49-55l-38 0l0 67l14 0l0-54l24 0z m45 0l-4 17l-18 0l-4-17l-15 0l19 67l18 0l19-67z m39-1c-7 0-14 2-18 4l3 13c4-2 10-4 15-4c7 0 10 2 10 7c0 4-3 6-10 9c-10 4-17 10-17 20c0 11 9 20 23 20c7 0 12-2 16-3l-3-13c-3 2-7 4-13 4c-6 0-9-3-9-7c0-4 4-6 11-9c11-5 16-11 16-20c0-11-7-21-24-21z m84 1l-13 0l0 28l-23 0l0-28l-14 0l0 67l14 0l0-26l23 0l0 26l13 0z m-261 101l0 257l187 0l0-82c0-5 3-8 8-8l71 0l0-167z m138 157c-18-13-29-49-39-69c-9-20-27-17-27-17l0-24c0 0 11 0 20 4c10 4 20 12 26 23c3 4 6 13 11 22l27 0l0 24l-17 0c2 6 5 11 7 14c7 11 23 11 23 11l0 22c0 0-14 4-31-10z"/>
<glyph unicode="" d="M404 363c0 2 0 3-1 5l-79 90c0 0 0 0 0 0c-1 1-1 1-2 1c0 1 0 1-1 1c0 0-1 0-1 0c0 0 0 1-1 1c0 0-1 0-1 0l-195 0c-8 0-16-7-16-16l0-378c0-9 8-16 16-16l266 0c8 0 16 7 16 16l0 295c0 0 0 0-1 1z m-248-286c-10 0-21 2-26 5l4 17c6-3 14-6 23-6c10 0 15 4 15 10c0 6-5 9-16 13c-15 5-25 14-25 27c0 15 13 27 35 27c10 0 18-2 23-4l-5-17c-3 2-10 4-19 4c-9 0-13-4-13-8c0-6 5-9 17-13c16-6 24-14 24-27c0-16-12-28-37-28z m136 1l-22 0l-8 39c-2 9-3 18-4 28l0 0c-2-10-3-19-6-28l-8-39l-23 0l-21 91l22 0l6-38c2-10 4-22 6-31l0 0c2 9 4 20 6 32l8 37l22 0l7-38c2-11 3-21 5-31l0 0c1 10 3 21 5 32l8 37l21 0z m90 74l-35 0l0-21l33 0l0-17l-33 0l0-36l-21 0l0 91l56 0z m-259 36l0 257l187 0l0-82c0-5 3-8 8-8l71 0l0-167z m145 155c-19-14-31-54-42-76c-10-21-29-19-29-19l0-25c0 0 12-1 22 3c10 5 21 14 28 26c3 4 7 14 11 24l31 0l0 26l-19 0c3 7 5 13 7 16c8 11 26 11 26 11l0 25c0 0-15 4-35-11z"/>
<glyph unicode="" d="M404 363c0 2 0 3-1 5l-79 90c0 0 0 0 0 0c-1 1-1 1-2 1c0 1 0 1-1 1c0 0-1 0-1 0c0 0 0 1-1 1c0 0-1 0-1 0l-195 0c-8 0-16-7-16-16l0-378c0-9 8-16 16-16l266 0c8 0 16 7 16 16l0 295c0 0 0 0-1 1z m-281 82l187 0l0-82c0-5 3-8 8-8l71 0l0-167l-266 0z m62-356l-16 0l0 31l-26 0l0-31l-16 0l0 74l16 0l0-28l26 0l0 28l16 0z m64 60l-20 0l0-60l-16 0l0 60l-19 0l0 14l55 0z m69-60l-1 29c0 8 0 19 0 30l-1 0c-2-10-5-20-7-29l-9-28l-13 0l-7 28c-3 9-5 19-7 29l0 0c0-10-1-22-1-31l-2-28l-15 0l5 74l22 0l7-25c2-8 4-17 6-26l0 0c2 9 4 18 7 26l7 25l21 0l4-74l-16 0z m73 0l-44 0l0 74l16 0l0-60l28 0z m-70 186l-27 37c-8 11-22 15-34 10l-1 2c8 10 9 24 1 35l-20 28c-10 13-28 16-41 6l-2-2c-13-9-16-27-7-40l21-28c7-10 21-14 32-10l2-2c-8-10-8-24-1-35l28-37c9-13 27-15 40-6l3 2c12 9 15 27 6 40z m-88 68c-4-3-5-9-2-13l6-9c-7-1-14 2-19 8l-20 28c-6 8-4 20 4 27l3 2c9 6 21 4 27-4l20-29c5-6 5-15 1-21l-7 9c-3 4-9 5-13 2z m76-100l-3-2c-8-7-20-5-27 4l-27 37c-4 6-4 14-1 20l6-8c3-4 9-5 13-2c5 3 6 9 3 13l-7 9c7 2 15-1 20-7l27-37c6-9 5-21-4-27z"/>
<glyph unicode="" d="M404 363c0 2 0 3-1 5l-79 90c0 0 0 0 0 0c-1 1-1 1-2 1c0 1 0 1-1 1c0 0-1 0-1 0c0 0 0 1-1 1c0 0-1 0-1 0l-195 0c-8 0-16-7-16-16l0-378c0-9 8-16 16-16l266 0c8 0 16 7 16 16l0 295c0 0 0 0-1 1z m-281 82l187 0l0-82c0-5 3-8 8-8l71 0l0-167l-266 0z m77-373l-21 0l0 40l-34 0l0-40l-21 0l0 94l21 0l0-36l34 0l0 36l21 0l0-94z m81 76l-25 0l0-76l-20 0l0 76l-25 0l0 18l70 0z m87-76l-2 36c0 12 0 32 0 46l-1 0c-3-12-6-32-10-43l-11-37l-16 0l-10 36c-3 11-6 31-8 44l0 0c-1-13-1-34-2-46l-2-36l-19 0l6 94l27 0l9-31c3-11 6-16 8-27l1-7c2 11 5 24 8 34l10 31l27 0l5-94l-20 0z m-47 203l-27 37c-8 11-22 15-34 10l-1 2c8 10 9 24 1 35l-20 28c-10 13-28 16-41 6l-2-2c-13-9-16-27-7-40l21-28c7-10 21-14 32-10l2-2c-8-10-8-24-1-35l28-37c9-13 27-15 40-6l3 2c12 9 15 27 6 40z m-88 68c-4-3-5-9-2-13l6-9c-7-1-14 2-19 8l-20 28c-6 8-4 20 4 27l3 2c9 6 21 4 27-4l20-29c5-6 5-15 1-21l-7 9c-3 4-9 5-13 2z m76-100l-3-2c-8-7-20-5-27 4l-27 37c-4 6-4 14-1 20l6-8c3-4 9-5 13-2c5 3 6 9 3 13l-7 9c7 2 15-1 20-7l27-37c6-9 5-21-4-27z"/>
<glyph unicode="" d="M405 363c-1 2-1 3-2 5l-79 90c0 0 0 0 0 0c-1 1-1 1-2 1c0 1 0 1-1 1c0 0-1 0-1 0c0 0 0 1-1 1c0 0-1 0-1 0l-195 0c-8 0-16-7-16-16l0-378c0-9 8-16 16-16l266 0c8 0 16 7 16 16l0 295c0 0 0 0 0 1z m-204-291l-9 18c-4 7-6 12-9 18l0 0c-2-6-5-11-8-18l-8-18l-26 0l29 50l-28 49l26 0l9-18c3-6 5-11 7-16l0 0c3 6 5 10 7 16l9 18l25 0l-28-48l30-51z m100 0l-62 0l0 99l23 0l0-80l39 0z m38-2c-11 0-23 3-28 6l4 19c6-3 16-6 25-6c11 0 16 4 16 11c0 6-5 9-17 14c-16 5-27 14-27 29c0 17 14 30 38 30c11 0 19-2 25-5l-5-18c-4 2-11 5-21 5c-9 0-14-5-14-10c0-6 5-9 18-14c18-7 26-16 26-30c0-17-13-31-40-31z m-216 118l0 257l187 0l0-82c0-5 3-8 8-8l71 0l0-167z m157 170l-133 0l0-125l203 0l0 125z m0-60l-63 0l0 26l63 0z m-129 56l62 0l0-26l-62 0z m0-30l62 0l0-26l-62 0z m0-30l62 0l0-26l-62 0z m0-57l0 27l62 0l0-27z m66 0l0 27l63 0l0-27z m129 0l-62 0l0 27l62 0z m0 61l-62 0l0 26l62 0z m-62 30l0 26l62 0l0-26z"/>
<glyph unicode="" d="M405 363c-1 2-1 3-2 5l-79 90c0 0 0 0 0 0c-1 1-1 1-2 1c0 1 0 1-1 1c0 0-1 0-1 0c0 0 0 1-1 1c0 0-1 0-1 0l-195 0c-8 0-16-7-16-16l0-378c0-9 8-16 16-16l266 0c8 0 16 7 16 16l0 295c0 0 0 0 0 1z m-204-291l-9 18c-4 7-6 12-9 18l0 0c-2-6-5-11-8-18l-8-18l-26 0l29 50l-28 49l26 0l9-18c3-6 5-11 7-16l0 0c3 6 5 10 7 16l9 18l25 0l-28-48l30-51z m100 0l-62 0l0 99l23 0l0-80l39 0z m38-2c-11 0-23 3-28 6l4 19c6-3 16-6 25-6c11 0 16 4 16 11c0 6-5 9-17 14c-16 5-27 14-27 29c0 17 14 30 38 30c11 0 19-2 25-5l-5-18c-4 2-11 5-21 5c-9 0-14-5-14-10c0-6 5-9 18-14c18-7 26-16 26-30c0-17-13-31-40-31z m-216 118l0 257l187 0l0-82c0-5 3-8 8-8l71 0l0-167z m178 170l-31 0l-23-33l-22 33l-31 0l37-56l-42-63l61 0l0 21l-14 0l11 18l26-39l33 0l-42 63z"/>
<glyph unicode="" d="M405 363c-1 2-1 3-2 5l-79 90c0 0 0 0 0 0c-1 1-1 1-2 1c0 1 0 1-1 1c0 0-1 0-1 0c0 0 0 1-1 1c0 0-1 0-1 0l-195 0c-8 0-16-7-16-16l0-378c0-9 8-16 16-16l266 0c8 0 16 7 16 16l0 295c0 0 0 0 0 1z m-230-282l-7 14c-3 5-5 9-7 14l0 0c-2-5-4-9-6-14l-7-14l-20 0l23 39l-22 38l20 0l7-14c2-4 4-8 6-13l0 0c2 5 3 9 5 13l7 14l20 0l-22-37l23-40z m78 0l-49 0l0 77l18 0l0-62l31 0z m29-1c-9 0-18 2-22 5l3 14c5-2 12-5 20-5c8 0 12 4 12 9c0 4-4 7-13 11c-13 4-21 11-21 22c0 13 11 24 29 24c9 0 15-2 20-4l-4-14c-3 1-9 3-16 3c-8 0-11-3-11-7c0-5 4-7 14-11c14-5 20-12 20-23c0-13-10-24-31-24z m83 1l-7 14c-2 5-4 9-6 14l-1 0c-1-5-3-9-6-14l-6-14l-20 0l22 39l-21 38l20 0l7-14c2-4 4-8 5-13l1 0c1 5 3 9 5 13l6 14l20 0l-21-37l23-40z m-242 107l0 257l187 0l0-82c0-5 3-8 8-8l71 0l0-167z m160 170l-133 0l0-125l204 0l0 125z m0-61l-62 0l0 27l62 0z m-129 57l63 0l0-26l-63 0z m0-30l63 0l0-27l-63 0z m0-31l63 0l0-26l-63 0z m0-56l0 26l63 0l0-26z m67 0l0 26l62 0l0-26z m129 0l-62 0l0 26l62 0z m0 60l-62 0l0 27l62 0z m-62 31l0 26l62 0l0-26z"/>
<glyph unicode="" d="M405 363c-1 2-1 3-2 5l-79 90c0 0 0 0 0 0c-1 1-1 1-2 1c0 1 0 1-1 1c0 0-1 0-1 0c0 0 0 1-1 1c0 0-1 0-1 0l-195 0c-8 0-16-7-16-16l0-378c0-9 8-16 16-16l266 0c8 0 16 7 16 16l0 295c0 0 0 0 0 1z m-230-282l-7 14c-3 5-5 9-7 14l0 0c-2-5-4-9-6-14l-7-14l-20 0l23 39l-22 38l20 0l7-14c2-4 4-8 6-13l0 0c2 5 3 9 5 13l7 14l20 0l-22-37l23-40z m78 0l-49 0l0 77l18 0l0-62l31 0z m29-1c-9 0-18 2-22 5l3 14c5-2 12-5 20-5c8 0 12 4 12 9c0 4-4 7-13 11c-13 4-21 11-21 22c0 13 11 24 29 24c9 0 15-2 20-4l-4-14c-3 1-9 3-16 3c-8 0-11-3-11-7c0-5 4-7 14-11c14-5 20-12 20-23c0-13-10-24-31-24z m83 1l-7 14c-2 5-4 9-6 14l-1 0c-1-5-3-9-6-14l-6-14l-20 0l22 39l-21 38l20 0l7-14c2-4 4-8 5-13l1 0c1 5 3 9 5 13l6 14l20 0l-21-37l23-40z m-242 107l0 257l187 0l0-82c0-5 3-8 8-8l71 0l0-167z m178 170l-31 0l-23-33l-22 33l-31 0l37-56l-42-63l61 0l0 21l-14 0l11 18l26-39l33 0l-42 63z"/>
<glyph unicode="" d="M244 138c0 6-5 9-13 9c-4 0-6 0-7 0l0-19l6 0c9 0 14 4 14 10z m-14-22l-6 0l0-23c2 0 4 0 7 0c8 0 15 3 15 12c0 7-7 11-16 11z m68 29c-4 0-6 0-7-1l0-21l6 0c9 0 14 5 14 11c0 7-5 11-13 11z m107 218c-1 2-1 3-2 5l-79 90c0 0 0 0 0 0c-1 1-1 1-2 1c0 1 0 1-1 1c0 0-1 0-1 0c0 0 0 1-1 1c0 0-1 0-1 0l-195 0c-8 0-16-7-16-16l0-378c0-9 8-16 16-16l266 0c8 0 16 7 16 16l0 295c0 0 0 0 0 1z m-282 82l187 0l0-82c0-5 3-8 8-8l71 0l0-167l-266 0z m52-364l-7 14c0 0-7 15-7 14l0 0c0 0-6-13-6-14l-7-14l-20 0l23 39l-22 38l20 0l7-14c0 0 6-13 6-13l0 0c0 0 6 14 5 13l7 14l20 0l-22-37l23-40z m81 6c-5-4-15-7-31-7c-8 0-15 1-19 1l0 78c5 1 14 1 23 1c11 0 18-1 23-4c6-3 10-9 10-16c0-7-4-13-13-17l0 0c9-2 16-9 16-19c0-7-4-13-9-17z m57-6c0 0-3 11-5 18c-2 9-5 12-12 12l-5 0l0-30l-18 0l0 75c6 1 14 2 23 2c12 0 20-2 25-6c5-4 7-9 7-16c0-10-7-17-13-19l0 0c5-4 7-6 10-15c2-9 4-17 6-21l-18 0z m76 0l-48 0l0 77l17 0l0-62l31 0z m-223 195l61-29l0 14l-46 20l0 0l46 21l0 13l-61-28z m71-34l13 0l27 93l-13 0z m48 60l47-21l0 0l-47-20l0-14l61 28l0 12l-61 28z"/>
<glyph unicode="" d="M404 363c0 2 0 3-1 5l-79 90c0 0 0 0 0 0c-1 1-1 1-2 1c0 1 0 1-1 1c0 0-1 0-1 0c0 0 0 1-1 1c0 0-1 0-1 0l-195 0c-8 0-16-7-16-16l0-378c0-9 8-16 16-16l266 0c8 0 16 7 16 16l0 295c0 0 0 0-1 1z m-221-282l-8 16c-3 6-5 11-8 16l0 0c-2-5-4-10-7-16l-7-16l-22 0l25 44l-25 44l23 0l8-16c2-6 4-10 7-15l0 0c2 6 4 10 6 15l7 16l23 0l-25-43l26-45z m109 0l-1 34c-1 10-1 23-1 36l0 0c-3-11-7-24-10-34l-11-34l-15 0l-10 33c-2 11-5 23-8 35l0 0c0-12-1-26-1-37l-2-33l-18 0l5 88l27 0l8-29c3-11 6-22 8-32l0 0c3 10 6 22 8 32l10 29l26 0l4-88z m89 0l-54 0l0 88l20 0l0-71l34 0z m8 107l-266 0l0 257l187 0l0-82c0-5 3-8 8-8l71 0l0-167z m-223 88l61-29l0 14l-46 20l0 0l46 21l0 13l-61-28z m71-34l13 0l27 93l-13 0z m48 60l47-21l0 0l-47-20l0-14l61 28l0 12l-61 28z"/>
<glyph unicode="" d="M404 363c0 2 0 3-1 5l-79 90c0 0 0 0 0 0c-1 1-1 1-2 1c0 1 0 1-1 1c0 0-1 0-1 0c0 0 0 1-1 1c0 0-1 0-1 0l-195 0c-8 0-16-7-16-16l0-378c0-9 8-16 16-16l266 0c8 0 16 7 16 16l0 295c0 0 0 0-1 1z m-217-254c0-28-13-38-34-38c-5 0-12 1-16 3l2 17c3-1 7-1 11-1c10 0 16 4 16 19l0 61l22 0l0-61z m80 9c-8-7-19-11-32-11c-3 0-5 1-7 1l0-35l-22 0l0 96c7 1 16 2 30 2c13 0 23-2 29-8c7-5 11-13 11-22c0-10-3-18-9-23z m104-41c-7-2-19-5-32-5c-18 0-31 4-40 13c-9 9-14 21-14 36c1 32 24 50 56 50c13 0 22-2 27-4l-5-18c-5 2-12 4-22 4c-19 0-33-10-33-31c0-20 13-32 31-32c5 0 9 0 11 1l0 21l-15 0l0 17l36 0z m-248 111l0 257l187 0l0-82c0-5 3-8 8-8l71 0l0-167l-266 0z m114-33c-5 0-8-1-9-1l0-29c2-1 4-1 7-1c12 0 19 6 19 16c0 9-6 15-17 15z m-3 125c-32 32-63-92-63-92l107 0c0 0-12 60-44 92z m78-33c-23-6-34-59-34-59l77 0c-11 26-24 64-43 59z m-141 61c11 0 20 9 20 20c0 11-9 20-20 20c-11 0-20-9-20-20c0-11 9-20 20-20z m121-12c4 0 7 0 11 1c4-2 8-3 14-3c13 0 23 6 23 14c0 8-10 15-23 15c-5 0-10-1-14-3c-1 2-3 3-6 3l-3 0c-5 0-8-4-9-8c-10-1-18-5-18-9c0-6 11-10 25-10z"/>
<glyph unicode="" d="M404 363c0 2 0 3-1 5l-79 90c0 0 0 0 0 0c-1 1-1 1-2 1c0 1 0 1-1 1c0 0-1 0-1 0c0 0 0 1-1 1c0 0-1 0-1 0l-195 0c-8 0-16-7-16-16l0-378c0-9 8-16 16-16l266 0c8 0 16 7 16 16l0 295c0 0 0 0-1 1z m-170-284c-7-2-20-6-33-6c-17 0-30 5-39 14c-9 8-14 21-14 35c0 32 24 51 56 51c12 0 22-3 27-5l-5-18c-5 3-12 5-23 5c-18 0-32-11-32-32c0-20 13-32 31-32c5 0 9 1 11 2l0 20l-15 0l0 17l36 0z m39-5l-22 0l0 98l22 0z m79 80l-38 0l0-23l35 0l0-17l-35 0l0-40l-22 0l0 98l60 0z m-229 34l0 257l187 0l0-82c0-5 3-8 8-8l71 0l0-167z m202 54l-42 50l23 0l-38 45l24 0l-32 38l15 0l-24 29l-23-29l15 0l-28-38l23 0l-35-45l22 0l-38-50l64 0l0-59l10 0l0 59z"/>
<glyph unicode="" d="M404 363c0 2 0 3-1 5l-79 90c0 0 0 0 0 0c-1 1-1 1-2 1c0 1 0 1-1 1c0 0-1 0-1 0c0 0 0 1-1 1c0 0-1 0-1 0l-195 0c-8 0-16-7-16-16l0-378c0-9 8-16 16-16l266 0c8 0 16 7 16 16l0 295c0 0 0 0-1 1z m-205-209l-26 0l0-79l-23 0l0 79l-26 0l0 18l75 0l0-18z m34-79l-22 0l0 97l22 0z m79 79l-38 0l0-22l35 0l0-18l-35 0l0-39l-22 0l0 97l60 0z m76 0l-38 0l0-22l35 0l0-18l-35 0l0-39l-22 0l0 97l60 0z m-265 34l0 257l187 0l0-82c0-5 3-8 8-8l71 0l0-167z m215 152l-83 0l-6 12c-1 1-3 3-6 3l-36 0c-2 0-4-1-5-3l-6-12l-22 0c-8 0-16-8-16-16l0-97c0-9 8-16 16-16l164 0c8 0 16 7 16 16l0 97c0 8-8 16-16 16z m-58-106l-24 0c-4 8-8 20-14 18c-7-1-10-16-11-18l0 0c0 2-4 19-14 28c-10 9-19-25-20-28l-21 0l0 81l104 0z m37 12c-16 0-29 13-29 29c0 16 13 30 29 30c16 0 29-14 29-30c0-16-13-29-29-29z m0 55c-14 0-26-11-26-26c0-14 12-25 26-25c14 0 26 11 26 25c0 15-12 26-26 26z m-15-34l-8 8l8 9z m15-14l-8 8l16 0z m-8 36l8 9l8-9z m21-22l0 17l9-9z m-100 19c2 0 4 1 6 1c2-1 4-1 7-1c7 0 13 3 13 7c0 4-6 7-13 7c-3 0-5-1-7-2c-1 1-2 2-3 2l-2 0c-3 0-5-2-5-4c-6-1-10-2-10-5c0-2 6-5 14-5z m-22 8c0-3-2-6-6-6c-3 0-5 3-5 6c0 3 2 6 5 6c4 0 6-3 6-6z"/>
<glyph unicode="" d="M164 153c-4 0-7-1-8-1l0-27c1-1 4-1 7-1c11 0 17 6 17 15c0 9-5 14-16 14z m240 210c0 2 0 3-1 5l-79 90c0 0 0 0 0 0c-1 1-1 1-2 1c0 1 0 1-1 1c0 0-1 0-1 0c0 0 0 1-1 1c0 0-1 0-1 0l-195 0c-8 0-16-7-16-16l0-378c0-9 8-16 16-16l266 0c8 0 16 7 16 16l0 295c0 0 0 0-1 1z m-211-245c-8-7-18-10-30-10c-3 0-5 1-7 1l0-33l-21 0l0 91c6 1 15 2 28 2c13 0 22-3 28-8c6-4 10-12 10-21c0-9-3-17-8-22z m97-42l-21 0l-20 35c-6 10-12 22-16 33l0 0c0-12 0-25 0-40l0-28l-19 0l0 92l25 0l19-34c5-10 11-21 15-31l0 0c-1 12-2 24-2 38l0 27l19 0l0-92z m95 4c-6-2-18-5-31-5c-16 0-28 4-37 12c-8 8-13 20-13 34c0 30 23 48 53 48c12 0 21-2 25-5l-4-16c-5 2-12 4-22 4c-17 0-30-10-30-30c0-19 12-30 29-30c5 0 8 0 10 1l0 19l-14 0l0 17l34 0z m-262 108l0 257l187 0l0-58l5 0l0-32l31 0l0 0l43 0l0-167l-266 0z m65 72l31 0l0 32l-31 0l0 32l31 0l0 31l-31 0l0 32l-32 0l0-32l32 0l0-31l-32 0l0-32l32 0l0-32l-31 0l0-31l31 0l0-32l32 0l0 32l-32 0z m64 0l31 0l0 32l-32 0l0 32l32 0l0 31l-32 0l0 32l-31 0l0-32l31 0l0-31l-31 0l0-32l31 0l0-32l-31 0l0-31l31 0l0-32l32 0l0 32l-31 0z m31 95l31 0c-3 2-4 4-4 8l0 24l-27 0z m31 0l0-31l-31 0l0-32l31 0l0-32l-31 0l0-31l31 0l0-32l32 0l0 32l-31 0l0 31l31 0l0 32l-31 0l0 32l31 0l0 31l-28 0c-2 0-3 0-4 0z"/>
<glyph unicode="" d="M404 363c0 2 0 3-1 5l-79 90c0 0 0 0 0 0c-1 1-1 1-2 1c0 1 0 1-1 1c0 0-1 0-1 0c0 0 0 1-1 1c0 0-1 0-1 0l-195 0c-8 0-16-7-16-16l0-378c0-9 8-16 16-16l266 0c8 0 16 7 16 16l0 295c0 0 0 0-1 1z m-194-285l-2 35c0 11 0 24 0 38l-1 0c-3-12-7-25-10-36l-11-36l-16 0l-10 36c-3 11-6 24-9 36l0 0c0-13-1-27-1-38l-2-35l-19 0l6 92l27 0l9-31c3-11 6-22 8-33l0 0c3 11 6 23 9 33l10 31l27 0l5-92z m93 42c-7-7-17-10-30-10c-2 0-5 0-7 1l0-33l-20 0l0 90c6 2 15 2 28 2c13 0 22-2 28-7c6-5 10-12 10-21c0-9-3-17-9-22z m46-43c-11 0-21 3-26 7l4 15c4-2 12-5 21-5c11 0 16 5 16 12c0 9-8 13-18 13l-8 0l0 14l8 0c7 1 16 3 16 11c0 5-5 9-13 9c-8 0-15-3-19-5l-4 15c5 3 16 7 27 7c19 0 30-10 30-23c0-9-5-17-16-20l0-1c10-2 19-10 19-21c0-16-14-28-37-28z m-226 111l0 257l187 0l0-82c0-5 3-8 8-8l71 0l0-167l-266 0z m152-33c-4 0-7-1-9-1l0-27c2-1 4-1 7-1c11 0 18 6 18 15c0 9-6 14-16 14z m-52 135c0 5-4 8-9 8l-14 0c-4 0-8-3-8-8l0-35c0-4 4-8 8-8l14 0c5 0 9 4 9 8l0-8l80-35l0 122l-80-35z"/>
<glyph unicode="" d="M404 363c0 2 0 3-1 5l-79 90c0 0 0 0 0 0c-1 1-1 1-2 1c0 1 0 1-1 1c0 0-1 0-1 0c0 0 0 1-1 1c0 0-1 0-1 0l-195 0c-8 0-16-7-16-16l0-378c0-9 8-16 16-16l266 0c8 0 16 7 16 16l0 295c0 0 0 0-1 1z m-194-285l-2 35c0 11 0 24 0 38l-1 0c-3-12-7-25-10-36l-11-36l-16 0l-10 36c-3 11-6 24-9 36l0 0c0-13-1-27-1-38l-2-35l-19 0l6 92l27 0l9-31c3-11 6-22 8-33l0 0c3 11 6 23 9 33l10 31l27 0l5-92z m93 42c-7-7-17-10-30-10c-2 0-5 0-7 1l0-33l-20 0l0 90c6 2 15 2 28 2c13 0 22-2 28-7c6-5 10-12 10-21c0-9-3-17-9-22z m46-43c-11 0-21 3-26 7l4 15c4-2 12-5 21-5c11 0 16 5 16 12c0 9-8 13-18 13l-8 0l0 14l8 0c7 1 16 3 16 11c0 5-5 9-13 9c-8 0-15-3-19-5l-4 15c5 3 16 7 27 7c19 0 30-10 30-23c0-9-5-17-16-20l0-1c10-2 19-10 19-21c0-16-14-28-37-28z m-226 111l0 257l187 0l0-82c0-5 3-8 8-8l71 0l0-167l-266 0z m152-33c-4 0-7-1-9-1l0-27c2-1 4-1 7-1c11 0 18 6 18 15c0 9-6 14-16 14z m-107 192l34 0l0-10l-34 0z m0-16l34 0l0-10l-34 0z m0-16l34 0l0-10l-34 0z m0-16l34 0l0-10l-34 0z m0-15l34 0l0-10l-34 0z m0-16l34 0l0-10l-34 0z m0-16l34 0l0-10l-34 0z m0-16l34 0l0-10l-34 0z m50 79l34 0l0-10l-34 0z m0-16l34 0l0-10l-34 0z m0-15l34 0l0-10l-34 0z m0-16l34 0l0-10l-34 0z m0-16l34 0l0-10l-34 0z m0-16l34 0l0-10l-34 0z m53 111l34 0l0-10l-34 0z m0-16l34 0l0-10l-34 0z m0-16l34 0l0-10l-34 0z m0-16l34 0l0-10l-34 0z m0-15l34 0l0-10l-34 0z m0-16l34 0l0-10l-34 0z m0-16l34 0l0-10l-34 0z m0-16l34 0l0-10l-34 0z m50 32l35 0l0-10l-35 0z m0-16l35 0l0-10l-35 0z m0-16l35 0l0-10l-35 0z"/>
<glyph unicode="" d="M404 363c0 2 0 3-1 5l-79 90c0 0 0 0 0 0c-1 1-1 1-2 1c0 1 0 1-1 1c0 0-1 0-1 0c0 0 0 1-1 1c0 0-1 0-1 0l-195 0c-8 0-16-7-16-16l0-378c0-9 8-16 16-16l266 0c8 0 16 7 16 16l0 295c0 0 0 0-1 1z m-194-285l-2 35c0 11 0 24 0 38l-1 0c-3-12-7-25-10-36l-11-36l-16 0l-10 36c-3 11-6 24-9 36l0 0c0-13-1-27-1-38l-2-35l-19 0l6 92l27 0l9-31c3-11 6-22 8-33l0 0c3 11 6 23 9 33l10 31l27 0l5-92z m93 42c-7-7-17-10-30-10c-2 0-5 0-7 1l0-33l-20 0l0 90c6 2 15 2 28 2c13 0 22-2 28-7c6-5 10-12 10-21c0-9-3-17-9-22z m46-43c-11 0-21 3-26 7l4 15c4-2 12-5 21-5c11 0 16 5 16 12c0 9-8 13-18 13l-8 0l0 14l8 0c7 1 16 3 16 11c0 5-5 9-13 9c-8 0-15-3-19-5l-4 15c5 3 16 7 27 7c19 0 30-10 30-23c0-9-5-17-16-20l0-1c10-2 19-10 19-21c0-16-14-28-37-28z m-226 111l0 257l187 0l0-82c0-5 3-8 8-8l71 0l0-167l-266 0z m152-33c-4 0-7-1-9-1l0-27c2-1 4-1 7-1c11 0 18 6 18 15c0 9-6 14-16 14z m-45 96c-4 2-9 2-13 1c-11-3-18-12-16-20c1-8 12-13 23-10c9 2 16 9 16 17l0 0l0 76l56 11l0-62c-4 1-9 1-14 0c-11-2-18-11-16-20c2-8 13-13 24-10c9 3 16 9 16 18l0 102l-76-12z"/>
<glyph unicode="" d="M194 153l-1 0c-1-6-3-14-4-19l-6-21l22 0l-6 21c-2 6-4 13-5 19z m210 210c0 2 0 3-1 5l-79 90c0 0 0 0 0 0c-1 1-1 1-2 1c0 1 0 1-1 1c0 0-1 0-1 0c0 0 0 1-1 1c0 0-1 0-1 0l-195 0c-8 0-16-7-16-16l0-378c0-9 8-16 16-16l266 0c8 0 16 7 16 16l0 295c0 0 0 0-1 1z m-189-291l-7 25l-28 0l-7-25l-23 0l30 97l29 0l30-97z m77 0l-26 0l-31 97l24 0l12-41c4-12 7-23 9-35l0 0c3 12 6 23 9 34l13 42l23 0z m66 0l-23 0l0 97l23 0z m-235 116l0 257l187 0l0-82c0-5 3-8 8-8l71 0l0-167l-266 0z m57 201l0-166l148 0l0 166z m122-13l0-64l-98 0l0 64z m-116-13l13 0l0-15l-13 0z m0-33l13 0l0-14l-13 0z m13-78l-13 0l0 14l13 0z m0 32l-13 0l0 15l13 0z m5-49l0 66l98 0l0-66z m118 17l-14 0l0 14l14 0z m0 32l-14 0l0 15l14 0z m0 32l-14 0l0 14l14 0z m0 32l-14 0l0 15l14 0z"/>
<glyph unicode="" d="M350 134l-12-19l0 0l20 0l0 19c0 5 1 11 1 17l-1 0c-3-6-5-11-8-17z m54 229c0 2 0 3-1 5l-79 90c0 0 0 0 0 0c-1 1-1 1-2 1c0 1 0 1-1 1c0 0-1 0-1 0c0 0 0 1-1 1c0 0-1 0-1 0l-195 0c-8 0-16-7-16-16l0-378c0-9 8-16 16-16l266 0c8 0 16 7 16 16l0 295c0 0 0 0-1 1z m-194-285l-2 35c0 11 0 24 0 38l-1 0c-3-12-7-25-10-36l-11-36l-16 0l-10 36c-3 11-6 24-9 36l0 0c0-13-1-27-1-38l-2-35l-19 0l6 92l27 0l9-31c3-11 6-22 8-33l0 0c3 11 6 23 9 33l10 31l27 0l5-92z m93 42c-7-7-17-10-30-10c-2 0-5 0-7 1l0-33l-20 0l0 90c6 2 15 2 28 2c13 0 22-2 28-7c6-5 10-12 10-21c0-9-3-17-9-22z m85-21l-10 0l0-21l-20 0l0 21l-39 0l0 14l34 53l25 0l0-51l10 0z m-265 89l0 257l187 0l0-82c0-5 3-8 8-8l71 0l0-167l-266 0z m152-33c-4 0-7-1-9-1l0-27c2-1 4-1 7-1c11 0 18 6 18 15c0 9-6 14-16 14z m-83 100l113 0l0 83l-113 0z m40 66c0 1 1 1 1 1c0 1 1 1 1 0l39-24c0-1 0-1 0-1c0-1 0-1 0-1l-39-25c0 0 0 0-1 0l0 0c0 0-1 1-1 1z m-40-67l0 1l-4 0l0-20l121 0l0 20l-4 0l0-1z m115-1l0-15l-117 0l0 15z m-119 85l4 0l0 1l113 0l0-1l4 0l0 20l-121 0z m2 18l117 0l0-15l-117 0z m5-4l17 0l0-7l-17 0z m22 0l17 0l0-7l-17 0z m22 0l17 0l0-7l-17 0z m22 0l17 0l0-7l-17 0z m23 0l17 0l0-7l-17 0z m-89-103l17 0l0-7l-17 0z m22 0l17 0l0-7l-17 0z m22 0l17 0l0-7l-17 0z m22 0l17 0l0-7l-17 0z m23 0l17 0l0-7l-17 0z"/>
<glyph unicode="" d="M250 152c-5 0-8 0-10 0l0-64c2-1 5-1 8-1c20 0 33 11 33 34c0 21-12 31-31 31z m-85 1c-5 0-8-1-9-1l0-29c2 0 4-1 7-1c12 0 19 6 19 16c0 9-6 15-17 15z m239 210c0 2 0 3-1 5l-79 90c0 0 0 0 0 0c-1 1-1 1-2 1c0 1 0 1-1 1c0 0-1 0-1 0c0 0 0 1-1 1c0 0-1 0-1 0l-195 0c-8 0-16-7-16-16l0-378c0-9 8-16 16-16l266 0c8 0 16 7 16 16l0 295c0 0 0 0-1 1z m-209-247c-8-7-19-10-32-10c-3 0-5 0-7 0l0-35l-22 0l0 96c7 1 16 2 30 2c13 0 23-2 29-7c7-5 11-14 11-23c0-10-3-18-9-23z m93-33c-10-9-26-13-45-13c-12 0-20 1-25 2l0 95c8 2 19 2 30 2c18 0 30-3 40-10c10-8 16-20 16-37c0-18-7-31-16-39z m90 68l-37 0l0-23l35 0l0-18l-35 0l0-39l-22 0l0 98l59 0z m-255 37l0 257l187 0l0-82c0-5 3-8 8-8l71 0l0-167l-266 0z m215 100c0 0-11 1-29 1c-5 0-11 0-16 0c-34 26-62 51-78 66c1 1 1 3 1 4c2 21 0 35-7 42c-4 4-10 6-16 4c-4-1-11-5-14-13c-2-8 2-19 13-31c0 0 4-4 10-10c-4-21-15-66-21-87c-13-7-24-16-32-25l-1-1l0-1c-1-1-5-11-2-18c2-4 4-6 8-8l1 0c0 0 1 0 2 0c7 0 23 3 32 36l2 8c31 15 70 20 98 22c15-11 29-21 43-30l0 0c1 0 7-3 14-3c10 0 18 6 21 17l0 1c1 6-1 12-5 16c-8 9-22 10-24 10z m-181-65c0 0 0 0 0 0c0 2 0 6 2 9c5 5 11 10 18 15c-7-22-17-24-20-24z m44 147c-11 11-11 17-10 19c1 3 5 4 5 4c2 1 3 1 5 0c2-3 4-12 3-27c-2 2-3 4-3 4z m-6-100l0 1l0 0c6 21 13 51 18 70l0 0l0 0c14-13 35-33 61-53l0 0l0 0c-24-2-53-7-79-18z m160-6c-2-7-6-8-9-8c-4 0-7 1-8 2c-10 6-19 12-29 19c0 0 0 0 0 0c17 0 28-1 29-1c2 0 11-1 15-6c2-2 2-4 2-6z"/>
<glyph unicode="" d="M182 151c-4 0-7 0-8-1l0-26c2 0 4 0 6 0c11 0 18 5 18 14c0 8-6 13-16 13z m76 0c-4 0-7 0-8-1l0-26c2 0 4 0 7 0c10 0 17 5 17 14c0 8-6 13-16 13z m146 212c0 2 0 3-1 5l-79 90c0 0 0 0 0 0c-1 1-1 1-2 1c0 1 0 1-1 1c0 0-1 0-1 0c0 0 0 1-1 1c0 0-1 0-1 0l-195 0c-8 0-16-7-16-16l0-378c0-9 8-16 16-16l266 0c8 0 16 7 16 16l0 295c0 0 0 0-1 1z m-195-245c-6-7-17-10-28-10c-3 0-5 1-7 1l0-32l-20 0l0 87c6 1 15 2 27 2c12 0 21-2 27-7c6-4 9-12 9-20c0-9-2-16-8-21z m77 0c-7-7-17-10-29-10c-3 0-5 1-7 1l0-32l-20 0l0 87c6 1 15 2 27 2c13 0 21-2 27-7c6-4 10-12 10-20c0-9-3-16-8-21z m42-42c-10 0-20 3-25 5l4 17c5-3 14-6 22-6c9 0 14 4 14 10c0 5-4 9-14 12c-15 5-25 14-25 26c0 16 13 27 34 27c10 0 17-2 22-4l-4-17c-4 2-10 5-19 5c-8 0-13-4-13-9c0-6 5-8 17-12c15-6 23-14 23-27c0-15-12-27-36-27z m-205 112l0 257l187 0l0-82c0-5 3-8 8-8l71 0l0-167z m108 196c-39-2-69-34-69-73c0-9 2-18 5-26l64 28z m65-116l-61 38l-65-28c12-24 37-41 66-41c24 0 46 13 60 31z m15 44c0 39-32 72-71 73l0-70l61-39c6 11 10 23 10 36z m49 2c-1 2-4 1-5-1c0 0-1 0-1 0c-1 0-2 0-3-1l-6-8c-1 0-2-1-3-2l-23-31c-1-1-2-3-2-5l-32-44c-2-2-9-15-6-17c3-2 14 7 16 10l33 42c2 1 4 2 5 4l23 30c1 1 1 2 2 3l5 7c1 2 1 3 1 4c0 1 0 1 0 1c2 2 1 4 0 6z"/>
<glyph unicode="" d="M404 363c0 2 0 3-1 5l-79 90c0 0 0 0 0 0c-1 1-1 1-2 1c0 1 0 1-1 1c0 0-1 0-1 0c0 0 0 1-1 1c0 0-1 0-1 0l-195 0c-8 0-16-7-16-16l0-378c0-9 8-16 16-16l266 0c8 0 16 7 16 16l0 295c0 0 0 0-1 1z m-220-247c-7-7-18-10-30-10c-3 0-5 0-7 0l0-33l-21 0l0 92c6 1 16 2 28 2c13 0 23-3 29-8c6-4 10-12 10-21c0-9-3-17-9-22z m98 0c-7-7-18-10-30-10c-3 0-6 0-8 0l0-33l-20 0l0 92c6 1 15 2 28 2c13 0 22-3 28-8c6-4 10-12 10-21c0-9-3-17-8-22z m106 33l-26 0l0-76l-21 0l0 76l-25 0l0 17l72 0z m-265 39l0 257l187 0l0-82c0-5 3-8 8-8l71 0l0-167z m33-37c-5 0-8-1-9-1l0-28c2 0 4 0 7 0c11 0 18 6 18 15c0 9-6 14-16 14z m97 0c-4 0-7-1-9-1l0-28c2 0 4 0 7 0c12 0 19 6 19 15c0 9-6 14-17 14z m-50 221c-38-3-68-35-68-74c0-9 1-18 4-26l64 28l0 72z m-60-107c12-24 37-40 65-40c25 0 47 12 60 31l-60 38z m70 108l0-71l61-39c6 11 9 23 9 36c0 40-31 72-70 74z m84-43l80 0l0-12l-80 0z m0-31l80 0l0-12l-80 0z m0-30l80 0l0-12l-80 0z"/>
<glyph unicode="" d="M404 363c0 2 0 3-1 5l-79 90c0 0 0 0 0 0c-1 1-1 1-2 1c0 1 0 1-1 1c0 0-1 0-1 0c0 0 0 1-1 1c0 0-1 0-1 0l-195 0c-8 0-16-7-16-16l0-378c0-9 8-16 16-16l266 0c8 0 16 7 16 16l0 295c0 0 0 0-1 1z m-223-247c-5-5-14-7-23-7c-2 0-4 0-6 0l0-26l-16 0l0 72c5 1 12 1 22 1c10 0 17-2 22-6c5-3 8-9 8-16c0-7-2-13-7-18z m63 0c-6-5-14-7-24-7c-2 0-4 0-5 0l0-26l-16 0l0 72c5 1 12 1 22 1c10 0 17-2 22-6c4-3 8-9 8-16c0-7-3-13-7-18z m67 26l-20 0l0-59l-16 0l0 59l-19 0l0 14l55 0z m49-59l-6 13c-3 5-5 9-7 13l0 0c-2-4-3-8-6-13l-6-13l-18 0l21 37l-21 36l19 0l6-13c3-5 4-8 6-13l0 0c2 5 3 8 5 13l6 13l19 0l-20-36l21-37z m-237 105l0 257l187 0l0-82c0-5 3-8 8-8l71 0l0-167z m36-44c-3 0-6 0-7-1l0-21c2 0 3-1 6-1c8 0 14 5 14 12c0 7-5 11-13 11z m63 0c-4 0-6 0-7-1l0-21c1 0 3-1 5-1c9 0 14 5 14 12c0 7-4 11-12 11z m-19 228c-38-3-68-35-68-74c0-9 1-18 4-26l64 28l0 72z m-60-107c12-24 37-40 65-40c25 0 47 12 60 31l-60 38z m70 108l0-71l61-39c6 11 9 23 9 36c0 40-31 72-70 74z m84-43l80 0l0-12l-80 0z m0-31l80 0l0-12l-80 0z m0-30l80 0l0-12l-80 0z"/>
<glyph unicode="" d="M404 363c0 2 0 3-1 5l-79 90c0 0 0 0 0 0c-1 1-1 1-2 1c0 1 0 1-1 1c0 0-1 0-1 0c0 0 0 1-1 1c0 0-1 0-1 0l-195 0c-8 0-16-7-16-16l0-378c0-9 8-16 16-16l266 0c8 0 16 7 16 16l0 295c0 0 0 0-1 1z m-196-213l-27 0l0-79l-22 0l0 79l-26 0l0 18l75 0z m65-79l-8 17c-4 7-6 12-9 18l0 0c-2-6-5-11-8-18l-8-17l-25 0l28 49l-27 48l25 0l9-18c3-6 5-10 7-16l0 0c3 6 5 11 7 16l8 18l25 0l-27-48l29-49z m106 79l-27 0l0-79l-22 0l0 79l-26 0l0 18l75 0z m-256 38l0 257l187 0l0-82c0-5 3-8 8-8l71 0l0-167l-266 0z m58 163l89 0c3 0 5 2 5 5c0 3-2 5-5 5l-89 0c-3 0-5-2-5-5c0-3 2-5 5-5z m146-33l-146 0c-3 0-6-2-6-5c0-3 3-5 6-5l146 0c3 0 5 2 5 5c0 3-2 5-5 5z m0-42l-146 0c-3 0-6-2-6-5c0-3 3-6 6-6l146 0c3 0 5 3 5 6c0 3-2 5-5 5z m0-44l-146 0c-3 0-6-2-6-5c0-3 3-5 6-5l146 0c3 0 5 2 5 5c0 3-2 5-5 5z"/>
<glyph unicode="" d="M404 363c0 2 0 3-1 5l-79 90c0 0 0 0 0 0c-1 1-1 1-2 1c0 1 0 1-1 1c0 0-1 0-1 0c0 0 0 1-1 1c0 0-1 0-1 0l-195 0c-8 0-16-7-16-16l0-378c0-9 8-16 16-16l266 0c8 0 16 7 16 16l0 295c0 0 0 0-1 1z m-172-292l-75 0l0 12l46 67l0 1l-42 0l0 18l71 0l0-13l-46-66l0 0l46 0l0-19z m36 0l-22 0l0 98l22 0z m80 45c-7-7-18-10-31-10c-3 0-6 0-8 0l0-35l-22 0l0 97c7 1 17 2 30 2c14 0 23-3 30-8c6-5 10-13 10-23c0-9-3-17-9-23z m-225 72l0 257l97 0l0 2l24 0l0-2l66 0l0-82c0-5 3-8 8-8l71 0l0-167l-266 0z m195-35c-4 0-7 0-9-1l0-29c2 0 4 0 8 0c11 0 19 6 19 16c0 9-7 14-18 14z m-74 278l24 0l0-10l-24 0z m-24 14l24 0l0-8l-24 0z m0-29l24 0l0-10l-24 0z m24-16l24 0l0-10l-24 0z m0-32l24 0l0-10l-24 0z m-24 16l24 0l0-10l-24 0z m24-34c-17 0-26-14-26-32l-5-52c0-17 14-31 31-31c17 0 31 14 31 31l-6 52c0 18-8 32-25 32z m10-101l-20 0l0 43l20 0z"/>
<glyph unicode="" d="M414 314l-9 0l0 48c0 0 0 0-1 1c0 2 0 3-1 5l-79 90c0 0 0 0 0 0c-1 1-1 1-2 1c0 1 0 1-1 1c0 0-1 0-1 0c0 0 0 1-1 1c0 0-1 0-1 0l-195 0c-8 0-16-7-16-16l0-131l-9 0c-13 0-23-10-23-23l0-119c0-13 10-23 23-23l9 0l0-82c0-9 8-16 16-16l266 0c8 0 16 7 16 16l0 82l9 0c13 0 23 10 23 23l0 119c0 13-10 23-23 23z m-291 131l187 0l0-82c0-5 3-8 8-8l71 0l0-41l-266 0z m121-218c-20 7-33 18-33 35c0 21 18 36 46 36c13 0 23-2 30-6l-6-22c-4 3-13 6-25 6c-11 0-17-5-17-11c0-8 7-11 22-17c21-8 31-19 31-36c0-20-15-37-48-37c-14 0-27 3-34 7l5 22c8-3 19-7 30-7c13 0 20 5 20 13c0 7-6 12-21 17z m-141 8c0 41 29 63 66 63c14 0 24-2 29-5l-5-22c-6 3-14 5-23 5c-22 0-38-13-38-40c0-24 14-39 38-39c8 0 17 2 23 4l4-21c-5-3-16-5-31-5c-42 0-63 26-63 60z m286-163l-266 0l0 77l266 0l0-77z m-18 105l-32 0l-39 119l30 0l15-50c4-15 8-28 10-43l1 0c3 14 7 28 11 42l15 51l29 0z"/>
<glyph unicode="" d="M412 314l-10 0l0 48c0 0 0 0 0 1c0 2 0 3-2 5l-79 90c0 0 0 0 0 0c0 1-1 1-1 1c0 1-1 1-1 1c0 0-1 0-1 0c0 0-1 1-1 1c0 0-1 0-2 0l-194 0c-9 0-16-7-16-16l0-131l-10 0c-12 0-23-10-23-23l0-119c0-13 11-23 23-23l10 0l0-82c0-9 7-16 16-16l265 0c9 0 16 7 16 16l0 82l10 0c13 0 23 10 23 23l0 119c0 13-10 23-23 23z m-291 131l186 0l0-82c0-5 4-8 8-8l71 0l0-41l-265 0z m193-207c0-36-22-58-55-58c-33 0-52 24-52 56c0 34 21 58 54 58c34 1 53-25 53-56z m-217-56l0 109c9 2 21 3 34 3c21 0 35-4 46-12c11-9 19-23 19-42c0-22-8-36-19-45c-12-10-29-15-51-15c-13 0-23 1-29 2z m289-110l-265 0l0 77l265 0l0-77z m2 128c7 0 16 2 21 4l3-20c-4-2-15-4-28-4c-39 0-59 24-59 55c0 38 28 60 61 60c13 0 23-3 28-5l-5-20c-6 2-13 4-22 4c-20 0-35-12-35-37c0-22 13-37 36-37z m-219 39c0 23-14 35-35 35c-6 0-9 0-12-1l0-73c3 0 6 0 9 0c23 0 38 12 38 39z m65-2c0-22 10-38 27-38c17 0 26 17 26 38c0 20-9 37-26 37c-17 0-27-16-27-37z"/>
<glyph unicode="" d="M412 314l-10 0l0 48c0 0 0 0 0 1c0 2 0 3-2 5l-79 90c0 0 0 0 0 0c0 1-1 1-1 1c0 1-1 1-1 1c0 0-1 0-1 0c0 0-1 1-1 1c0 0-1 0-2 0l-194 0c-9 0-16-7-16-16l0-131l-10 0c-12 0-23-10-23-23l0-119c0-13 11-23 23-23l10 0l0-82c0-9 7-16 16-16l265 0c9 0 16 7 16 16l0 82l10 0c13 0 23 10 23 23l0 119c0 13-10 23-23 23z m-291 131l186 0l0-82c0-5 4-8 8-8l71 0l0-41l-265 0z m203-235c5 0 12 1 16 3l3-15c-4-2-12-4-22-4c-30 0-45 18-45 43c0 29 21 45 47 45c10 0 17-2 21-3l-4-16c-4 2-10 3-17 3c-15 0-27-9-27-28c0-17 10-28 28-28z m-57 29c0-28-17-45-42-45c-26 0-41 19-41 43c0 26 17 45 42 45c27 0 41-19 41-43z m-167-44l0 85c7 1 16 2 26 2c16 0 27-3 35-10c9-6 15-17 15-32c0-16-6-28-15-35c-9-7-23-11-39-11c-10 0-18 1-22 1z m286-123l-265 0l0 77l265 0l0-77z m15 123l-8 16c-3 6-5 10-7 15l-1 0c-1-5-4-9-6-15l-7-16l-23 0l25 44l-24 42l23 0l7-16c3-5 5-9 7-14l0 0c2 6 4 9 6 14l7 16l22 0l-24-42l26-44z m-246 44c0 18-10 28-27 28c-4 0-7-1-9-1l0-56c2-1 4-1 7-1c17 0 29 10 29 30z m50-1c0-17 8-29 21-29c13 0 20 13 20 29c0 16-7 29-20 29c-14 0-21-13-21-29z"/>
<glyph unicode="" d="M412 314l-10 0l0 48c0 0 0 0 0 1c0 2 0 3-2 5l-79 90c0 0 0 0 0 0c0 1-1 1-1 1c0 1-1 1-1 1c0 0-1 0-1 0c0 0-1 1-1 1c0 0-1 0-2 0l-194 0c-9 0-16-7-16-16l0-131l-10 0c-12 0-23-10-23-23l0-119c0-13 11-23 23-23l10 0l0-82c0-9 7-16 16-16l265 0c9 0 16 7 16 16l0 82l10 0c13 0 23 10 23 23l0 119c0 13-10 23-23 23z m-291 131l186 0l0-82c0-5 4-8 8-8l71 0l0-41l-265 0z m167-246l0-23l-75 0l0 120l28 0l0-97z m-168-23l0 120l73 0l0-22l-46 0l0-27l43 0l0-22l-43 0l0-49z m266-104l-265 0l0 77l265 0l0-77z m-9 104l-9 31l-35 0l-8-31l-28 0l36 120l36 0l37-120z m-27 104l0 0c-2-7-4-16-6-23l-7-25l27 0l-8 25c-2 7-4 16-6 23z"/>
<glyph unicode="" d="M255 242c-1 5-3 11-4 16l0 0c-1-5-2-11-4-16l-4-17l17 0z m157 72l-10 0l0 48c0 0 0 0 0 1c0 2 0 3-2 5l-79 90c0 0 0 0 0 0c0 1-1 1-1 1c0 1-1 1-1 1c0 0-1 0-1 0c0 0-1 1-1 1c0 0-1 0-2 0l-194 0c-9 0-16-7-16-16l0-131l-10 0c-12 0-23-10-23-23l0-119c0-13 11-23 23-23l10 0l0-82c0-9 7-16 16-16l265 0c9 0 16 7 16 16l0 82l10 0c13 0 23 10 23 23l0 119c0 13-10 23-23 23z m-291 131l186 0l0-82c0-5 4-8 8-8l71 0l0-41l-265 0z m194-221c-12 5-21 13-21 24c0 14 11 25 29 25c9 0 15-2 19-4l-3-15c-4 2-9 4-16 4c-8 0-11-4-11-8c0-5 4-7 14-12c13-5 19-12 19-24c0-14-9-25-30-25c-9 0-17 2-22 5l4 15c5-3 12-5 19-5c8 0 12 3 12 9c0 5-4 8-13 11z m-29-34l-18 0l-6 21l-22 0l-5-21l-18 0l23 82l23 0z m-74 15l0-15l-47 0l0 82l17 0l0-67z m-106-15l0 82l46 0l0-15l-29 0l0-19l27 0l0-15l-27 0l0-33l-17 0z m280-118l-265 0l0 77l265 0l0-77z m33 118l-17 0l0 34l-28 0l0-34l-17 0l0 82l17 0l0-32l28 0l0 32l17 0z"/>
<glyph unicode="" d="M414 314l-9 0l0 48c0 0 0 0-1 1c0 2 0 3-1 5l-79 90c0 0 0 0 0 0c-1 1-1 1-2 1c0 1 0 1-1 1c0 0-1 0-1 0c0 0 0 1-1 1c0 0-1 0-1 0l-195 0c-8 0-16-7-16-16l0-131l-9 0c-13 0-23-10-23-23l0-119c0-13 10-23 23-23l9 0l0-82c0-9 8-16 16-16l266 0c8 0 16 7 16 16l0 82l9 0c13 0 23 10 23 23l0 119c0 13-10 23-23 23z m-291 131l187 0l0-82c0-5 3-8 8-8l71 0l0-41l-266 0z m212-154l-29-112l-27 0l-10 48c-2 12-4 22-5 35l0 0c-2-13-4-23-7-35l-11-48l-27 0l-27 112l27 0l9-46c2-13 4-28 6-39l1 0c1 12 4 26 7 39l9 46l27 0l9-47c3-13 5-25 6-37l1 0c1 12 4 25 6 38l9 46l26 0z m-228-107l5 21c7-3 17-7 28-7c12 0 18 5 18 13c0 7-6 11-19 15c-19 7-31 17-31 33c0 19 16 34 42 34c13 0 22-3 29-6l-6-20c-4 2-12 5-23 5c-11 0-16-5-16-10c0-8 6-11 20-16c20-8 30-18 30-34c0-18-15-34-46-34c-12 0-25 3-31 6z m282-112l-266 0l0 77l266 0l0-77z m27 198l-43 0l0-25l41 0l0-21l-41 0l0-45l-25 0l0 112l68 0z"/>
<glyph unicode="" d="M407 407c-13 13-28 20-47 20l-208 0c-19 0-34-7-47-20c-13-13-20-28-20-47l0-208c0-18 7-34 20-47c13-13 28-20 47-20l208 0c19 0 34 7 47 20c13 13 20 29 20 47l0 208c0 19-7 34-20 47z m-18-255c0-8-3-15-9-20c-5-6-12-9-20-9l-208 0c-8 0-15 3-20 9c-6 5-9 12-9 20l0 208c0 8 3 15 9 20c5 6 12 9 20 9l208 0c8 0 15-3 20-9c6-5 9-12 9-20l0-208z m-114 85l66 0c3 0 5 1 7 3c2 1 3 4 3 6l0 19c0 3-1 6-3 7c-2 2-4 3-7 3l-66 0m5 0l-109 0c-3 0-5-1-7-3c-2-1-3-4-3-7l0-18c0-3 1-6 3-7c2-2 4-3 7-3l109 0"/>
<glyph unicode="" d="M414 314l-9 0l0 48c0 0 0 0-1 1c0 2 0 3-1 5l-79 90c0 0 0 0 0 0c-1 1-1 1-2 1c0 1 0 1-1 1c0 0-1 0-1 0c0 0 0 1-1 1c0 0-1 0-1 0l-195 0c-8 0-16-7-16-16l0-131l-9 0c-13 0-23-10-23-23l0-119c0-13 10-23 23-23l9 0l0-82c0-9 8-16 16-16l266 0c8 0 16 7 16 16l0 82l9 0c13 0 23 10 23 23l0 119c0 13-10 23-23 23z m-291 131l187 0l0-82c0-5 3-8 8-8l71 0l0-41l-266 0z m230-255l-19 0l-1 35c-1 11-1 24-1 37l0 0c-3-12-7-25-10-35l-11-35l-15 0l-10 35c-3 10-6 23-8 35l0 0c-1-12-1-26-2-38l-1-34l-19 0l6 90l27 0l8-30c3-10 6-21 8-32l0 0c2 10 5 22 8 32l10 30l26 0z m-172 73l0 17l67 0l0-17l-24 0l0-73l-19 0l0 73l-24 0z m-63-35l0-38l-20 0l0 90l20 0l0-34l32 0l0 34l20 0l0-90l-20 0l0 38z m271-156l-266 0l0 77l266 0l0-77z m35 118l-55 0l0 90l20 0l0-73l35 0z"/>
<glyph unicode="" d="M414 314l-9 0l0 48c0 0 0 0-1 1c0 2 0 3-1 5l-79 90c0 0 0 0 0 0c-1 1-1 1-2 1c0 1 0 1-1 1c0 0-1 0-1 0c0 0 0 1-1 1c0 0-1 0-1 0l-195 0c-8 0-16-7-16-16l0-131l-9 0c-13 0-23-10-23-23l0-119c0-13 10-23 23-23l9 0l0-82c0-9 8-16 16-16l266 0c8 0 16 7 16 16l0 82l9 0c13 0 23 10 23 23l0 119c0 13-10 23-23 23z m-291 131l187 0l0-82c0-5 3-8 8-8l71 0l0-41l-266 0z m82-184l0 20l77 0l0-20l-27 0l0-83l-23 0l0 83z m-104-83l0 102l23 0l0-39l37 0l0 39l23 0l0-102l-23 0l0 43l-37 0l0-43z m288-106l-266 0l0 77l266 0l0-77z m0 106l-1 39c-1 13-1 27-1 42l-1 0c-3-13-7-27-11-39l-12-40l-17 0l-11 39c-3 12-7 27-9 40l0 0c-1-13-1-29-2-42l-2-39l-21 0l7 102l30 0l9-34c3-12 7-24 9-36l0 0c3 12 6 25 10 36l10 34l30 0l5-102z"/>
<glyph unicode="" d="M414 314l-9 0l0 48c0 0 0 0-1 1c0 2 0 3-1 5l-79 90c0 0 0 0 0 0c-1 1-1 1-2 1c0 1 0 1-1 1c0 0-1 0-1 0c0 0 0 1-1 1c0 0-1 0-1 0l-195 0c-8 0-16-7-16-16l0-131l-9 0c-13 0-23-10-23-23l0-119c0-13 10-23 23-23l9 0l0-82c0-9 8-16 16-16l266 0c8 0 16 7 16 16l0 82l9 0c13 0 23 10 23 23l0 119c0 13-10 23-23 23z m-291 131l187 0l0-82c0-5 3-8 8-8l71 0l0-41l-266 0z m181-248l0-23l-77 0l0 123l28 0l0-100l49 0z m-198-23l36 62l-34 61l32 0l10-23c4-7 7-13 10-20l0 0c3 8 5 13 8 20l11 23l31 0l-34-60l36-63l-32 0l-11 22c-5 9-7 15-11 22l0 0c-3-7-6-13-10-22l-10-22z m283-102l-266 0l0 77l266 0l0-77z m-39 100c-14 0-28 4-35 8l6 23c7-4 19-8 31-8c13 0 19 5 19 13c0 8-6 12-20 18c-21 7-34 18-34 36c0 21 17 37 46 37c14 0 24-3 32-6l-6-23c-5 3-14 6-26 6c-12 0-18-6-18-12c0-8 7-11 23-17c21-8 32-19 32-37c0-20-16-38-50-38z"/>
<glyph unicode="" d="M414 314l-9 0l0 48c0 0 0 0-1 1c0 2 0 3-1 5l-79 90c0 0 0 0 0 0c-1 1-1 1-2 1c0 1 0 1-1 1c0 0-1 0-1 0c0 0 0 1-1 1c0 0-1 0-1 0l-195 0c-8 0-16-7-16-16l0-131l-9 0c-13 0-23-10-23-23l0-119c0-13 10-23 23-23l9 0l0-82c0-9 8-16 16-16l266 0c8 0 16 7 16 16l0 82l9 0c13 0 23 10 23 23l0 119c0 13-10 23-23 23z m-291 131l187 0l0-82c0-5 3-8 8-8l71 0l0-41l-266 0z m163-219c-16 5-26 14-26 28c0 16 14 28 36 28c11 0 19-2 24-4l-4-18c-4 2-11 5-20 5c-10 0-14-4-14-9c0-6 5-9 17-14c17-6 25-15 25-28c0-16-12-30-38-30c-11 0-22 3-27 6l4 18c6-3 15-6 24-6c10 0 15 4 15 10c0 6-4 10-16 14z m-36-22l0-18l-59 0l0 95l21 0l0-77z m-128-18l-25 0l28 48l-27 47l25 0l8-17c3-6 5-11 7-16l0 0c3 6 5 10 7 16l8 17l25 0l-27-47l28-48l-25 0l-8 17c-4 7-6 12-9 17l0 0c-2-5-5-10-8-17z m267-114l-266 0l0 77l266 0l0-77z m0 114l-9 17c-3 7-6 12-8 17l-1 0c-2-5-4-10-7-17l-8-17l-24 0l27 48l-26 47l24 0l9-17c2-6 4-11 7-16l0 0c2 6 4 10 6 16l9 17l24 0l-27-47l28-48l-24 0z"/>
<glyph unicode="" d="M304 263c-5 0-8-1-9-1l0-26l8 0c10 0 17 6 17 14c0 8-6 13-16 13z m-85-37l-7 0l0-26c2-1 4-1 8-1c9 0 18 4 18 14c0 9-9 13-19 13z m17 27c0 7-6 11-15 11c-5 0-8-1-9-1l0-22l7 0c11 0 17 5 17 12z m178 62l-10 0l0 47c0 1 0 1 0 1c0 2-1 4-2 6l-79 90c0 0 0 0 0 0c0 0-1 1-2 1c0 0 0 0 0 0c-1 1-1 1-2 1c0 0 0 0 0 0c-1 0-1 0-2 0l-194 0c-9 0-16-7-16-16l0-130l-10 0c-13 0-23-10-23-23l0-119c0-13 10-23 23-23l10 0l0-82c0-9 7-16 16-16l265 0c9 0 16 7 16 16l0 82l10 0c13 0 23 10 23 23l0 119c0 13-10 23-23 23z m-291 130l186 0l0-82c0-4 4-8 8-8l71 0l0-40l-265 0z m193-239c-2 12-6 15-15 15l-6 0l0-37l-21 0l0 92c7 1 17 2 28 2c14 0 23-2 30-7c6-4 9-11 9-20c0-11-9-20-17-22l0-1c7-3 10-9 13-17c2-11 5-23 7-27l-21 0l0 0c-2 3-4 11-7 22z m-56 6c0-8-4-15-9-20c-7-5-19-8-37-8c-11 0-19 0-23 1l0 92c5 2 16 2 27 2c13 0 21-1 28-5c6-4 11-10 11-19c0-8-5-16-15-20l0 0c10-3 18-11 18-23z m-142-28l-24 0l27 48l-26 46l24 0l9-17c2-6 4-10 7-15l0 0c2 6 4 10 6 15l8 17l25 0l-27-46l28-48l-25 0l-8 17c-4 7-6 12-8 17l-1 0c-2-5-4-10-7-17z m270-112l-265 0l0 78l265 0z m32 112l-59 0l0 93l21 0l0-76l38 0z"/>
<glyph unicode="" d="M414 314l-9 0l0 48c0 0 0 0-1 1c0 2 0 3-1 5l-79 90c0 0 0 0 0 0c-1 1-1 1-2 1c0 1 0 1-1 1c0 0-1 0-1 0c0 0 0 1-1 1c0 0-1 0-1 0l-195 0c-8 0-16-7-16-16l0-131l-9 0c-13 0-23-10-23-23l0-119c0-13 10-23 23-23l9 0l0-82c0-9 8-16 16-16l266 0c8 0 16 7 16 16l0 82l9 0c13 0 23 10 23 23l0 119c0 13-10 23-23 23z m-291 131l187 0l0-82c0-5 3-8 8-8l71 0l0-41l-266 0z m203-263l-24 0l-1 42c-1 13-1 28-1 44l-1 0c-3-14-8-29-12-42l-13-42l-19 0l-12 42c-3 12-7 28-9 42l-1 0c0-15-1-31-2-45l-1-41l-23 0l7 108l32 0l11-36c3-12 7-26 9-38l0 0c4 12 7 26 11 38l11 36l32 0z m-223 0l31 55l-30 53l28 0l10-20c3-6 5-11 8-17l0 0c3 6 5 11 8 17l9 20l28 0l-31-53l32-55l-28 0l-10 20c-4 7-6 13-9 19l-1 0c-2-6-5-12-8-19l-9-20z m286-110l-266 0l0 77l266 0l0-77z m23 110l-67 0l0 108l24 0l0-87l43 0l0-21z"/>
<glyph unicode="" d="M245 275c-5 0-9-1-11-1l0-36c3 0 5-1 9-1c15 0 24 8 24 20c0 11-8 18-22 18z m176 39l-10 0l0 48c0 0 0 0 0 1c0 2-1 3-2 5l-79 90c0 0 0 0 0 0c-1 1-1 1-2 1c0 1 0 1 0 1c-1 0-1 0-2 0c0 0 0 1 0 1c-1 0-1 0-2 0l-194 0c-9 0-16-7-16-16l0-131l-10 0c-13 0-23-10-23-23l0-119c0-13 10-23 23-23l10 0l0-82c0-9 7-16 16-16l265 0c9 0 16 7 16 16l0 82l10 0c12 0 23 10 23 23l0 119c0 13-11 23-23 23z m-291 131l186 0l0-82c0-5 4-8 8-8l71 0l0-41l-265 0z m163-187c0-12-3-22-11-29c-9-9-22-13-39-13c-3 0-6 1-9 1l0-43l-27 0l0 118c9 2 20 3 37 3c17 0 29-3 37-10c7-6 12-16 12-27z m-171-83l3 22c4-1 9-2 14-2c12 0 19 5 19 24l0 75l27 0l0-76c0-34-17-46-43-46c-6 0-14 1-20 3z m273-103l-265 0l0 77l265 0l0-77z m16 108c-8-3-24-7-40-7c-22 0-38 5-49 16c-11 10-17 26-17 44c0 40 29 62 69 62c15 0 27-3 33-6l-6-21c-6 3-14 5-28 5c-22 0-39-13-39-39c0-25 15-39 37-39c7 0 12 0 14 2l0 25l-19 0l0 21l45 0z"/>
<glyph unicode="" d="M414 314l-9 0l0 48c0 0 0 0-1 1c0 2 0 3-1 5l-79 90c0 0 0 0 0 0c-1 1-1 1-2 1c0 1 0 1-1 1c0 0-1 0-1 0c0 0 0 1-1 1c0 0-1 0-1 0l-195 0c-8 0-16-7-16-16l0-131l-9 0c-13 0-23-10-23-23l0-119c0-13 10-23 23-23l9 0l0-82c0-9 8-16 16-16l266 0c8 0 16 7 16 16l0 82l9 0c13 0 23 10 23 23l0 119c0 13-10 23-23 23z m-25-242l-266 0l0 77l266 0l0-77z m-194 119c7 0 12 1 14 2l0 25l-19 0l0 21l45 0l0-63c-9-3-24-7-40-7c-22 0-38 5-49 16c-11 10-17 26-17 44c0 40 29 62 69 62c15 0 27-3 33-5l-6-22c-6 3-15 5-28 5c-22 0-39-13-39-39c0-25 15-39 37-39z m61-21l0 120l27 0l0-120z m121 71l0-23l-43 0l0-48l-27 0l0 120l73 0l0-22l-46 0l0-27z m12 73l-266 0l0 131l187 0l0-82c0-5 3-8 8-8l71 0l0-41z"/>
<glyph unicode="" d="M414 314l-9 0l0 48c0 0 0 0-1 1c0 2 0 3-1 5l-79 90c0 0 0 0 0 0c-1 1-1 1-2 1c0 1 0 1-1 1c0 0-1 0-1 0c0 0 0 1-1 1c0 0-1 0-1 0l-195 0c-8 0-16-7-16-16l0-131l-9 0c-13 0-23-10-23-23l0-119c0-13 10-23 23-23l9 0l0-82c0-9 8-16 16-16l266 0c8 0 16 7 16 16l0 82l9 0c13 0 23 10 23 23l0 119c0 13-10 23-23 23z m-291 131l187 0l0-82c0-5 3-8 8-8l71 0l0-41l-266 0z m199-200l0-22l-43 0l0-49l-28 0l0 120l74 0l0-22l-46 0l0-27z m-94 49l0-120l-27 0l0 120z m-134-22l0 22l92 0l0-22l-33 0l0-98l-27 0l0 98z m295-200l-266 0l0 77l266 0l0-77z m29 200l-46 0l0-27l43 0l0-22l-43 0l0-49l-27 0l0 120l73 0z"/>
<glyph unicode="" d="M158 255c0 10-7 17-20 17c-5 0-9-1-10-1l0-34c2 0 4 0 8 0c14 0 22 6 22 18z m254 59l-10 0l0 48c0 0 0 0 0 1c0 2 0 3-2 5l-79 90c0 0 0 0 0 0c0 1-1 1-1 1c0 1-1 1-1 1c0 0-1 0-1 0c0 0-1 1-1 1c0 0-1 0-2 0l-194 0c-9 0-16-7-16-16l0-131l-10 0c-12 0-23-10-23-23l0-119c0-13 11-23 23-23l10 0l0-82c0-9 7-16 16-16l265 0c9 0 16 7 16 16l0 82l10 0c13 0 23 10 23 23l0 119c0 13-10 23-23 23z m-291 131l186 0l0-82c0-5 4-8 8-8l71 0l0-41l-265 0z m102-234l0-34l-23 0l0 113l30 0l23-41c7-12 14-26 19-39l0 0c-2 15-2 30-2 47l0 33l23 0l0-113l-26 0l-25 44c-6 12-14 26-19 40l-1-1c1-15 1-30 1-49z m-121-34l0 112c8 1 19 2 35 2c16 0 27-3 34-9c8-6 12-15 12-26c0-11-3-21-10-27c-9-8-22-12-37-12c-3 0-6 0-8 0l0-40l-26 0z m284-105l-265 0l0 77l265 0l0-77z m24 110c-8-3-23-6-38-6c-20 0-35 5-46 15c-10 10-16 25-16 41c1 38 28 59 65 59c15 0 26-3 31-5l-5-21c-6 3-14 5-26 5c-22 0-38-12-38-36c0-24 15-38 36-38c6 0 10 1 13 2l0 24l-18 0l0 20l42 0l0-60z"/>
<glyph unicode="" d="M414 314l-9 0l0 48c0 0 0 0-1 1c0 2 0 3-1 5l-79 90c0 0 0 0 0 0c-1 1-1 1-2 1c0 1 0 1-1 1c0 0-1 0-1 0c0 0 0 1-1 1c0 0-1 0-1 0l-195 0c-8 0-16-7-16-16l0-131l-9 0c-13 0-23-10-23-23l0-119c0-13 10-23 23-23l9 0l0-82c0-9 8-16 16-16l266 0c8 0 16 7 16 16l0 82l9 0c13 0 23 10 23 23l0 119c0 13-10 23-23 23z m-291 131l187 0l0-82c0-5 3-8 8-8l71 0l0-41l-266 0z m80-152l31 0l10-22c4-8 7-13 9-20l1 0c3 8 5 13 8 20l10 22l31 0l-34-59l36-61l-31 0l-11 21c-5 9-8 15-11 22l0 0c-3-7-6-13-10-22l-10-21l-31 0l35 60z m-102-23l0 23l92 0l0-23l-33 0l0-97l-27 0l0 97z m288-198l-266 0l0 77l266 0l0-77z m15 198l-33 0l0-97l-27 0l0 97l-33 0l0 23l93 0l0-23z"/>
<glyph unicode="" d="M215 265c-4 0-7-1-8-1l0-26c2-1 4-1 7-1c10 0 17 6 17 15c0 8-6 13-16 13z m197 49l-10 0l0 48c0 0 0 0 0 1c0 2 0 3-2 5l-79 90c0 0 0 0 0 0c0 1-1 1-1 1c0 1-1 1-1 1c0 0-1 0-1 0c0 0-1 1-1 1c0 0-1 0-2 0l-194 0c-9 0-16-7-16-16l0-131l-10 0c-12 0-23-10-23-23l0-119c0-13 11-23 23-23l10 0l0-82c0-9 7-16 16-16l265 0c9 0 16 7 16 16l0 82l10 0c13 0 23 10 23 23l0 119c0 13-10 23-23 23z m-291 131l186 0l0-82c0-5 4-8 8-8l71 0l0-41l-265 0z m136-183l0 17l69 0l0-17l-25 0l0-72l-20 0l0 72z m-6-10c0-9-3-16-8-21c-7-6-17-9-29-9c-3 0-5 0-7 0l0-32l-20 0l0 88c6 1 15 2 27 2c13 0 22-2 28-7c5-5 9-12 9-21z m-141-62l0 88c6 1 15 2 27 2c13 0 22-2 28-7c5-5 9-12 9-21c0-8-3-16-8-21c-7-6-17-9-29-9c-3 0-5 0-7 0l0-32z m276-118l-265 0l0 77l265 0l0-77z m0 118l-8 16c-3 6-6 11-8 16l0 0c-2-5-4-10-7-16l-8-16l-23 0l26 45l-25 44l23 0l8-16c3-5 5-10 7-15l0 0c2 6 4 10 6 15l8 16l23 0l-25-43l26-46l-23 0z m-232 62c0 8-6 13-16 13c-4 0-7-1-8-1l0-26c2-1 4-1 7-1c10 0 17 6 17 15z"/>
<glyph unicode="" d="M258 273c-6 0-9 0-11-1l0-35c2-1 5-1 9-1c14 0 23 7 23 20c0 11-8 17-21 17z m-82-17c0 11-8 17-22 17c-5 0-9 0-11-1l0-35c3-1 5-1 9-1c15 0 24 7 24 20z m236 58l-10 0l0 48c0 0 0 0 0 1c0 2 0 3-2 5l-79 90c0 0 0 0 0 0c0 1-1 1-1 1c0 1-1 1-1 1c0 0-1 0-1 0c0 0-1 1-1 1c0 0-1 0-2 0l-194 0c-9 0-16-7-16-16l0-131l-10 0c-12 0-23-10-23-23l0-119c0-13 11-23 23-23l10 0l0-82c0-9 7-16 16-16l265 0c9 0 16 7 16 16l0 82l10 0c13 0 23 10 23 23l0 119c0 13-10 23-23 23z m-291 131l186 0l0-82c0-5 4-8 8-8l71 0l0-41l-265 0z m185-189c0-11-4-21-11-28c-9-9-23-13-39-13c-4 0-7 0-9 1l0-43l-27 0l0 118c8 2 20 3 36 3c17 0 29-4 37-10c8-6 13-16 13-28z m-190-83l0 118c9 2 21 3 37 3c17 0 29-4 37-10c7-6 12-16 12-28c0-11-3-21-11-28c-9-9-23-13-39-13c-3 0-6 0-9 1l0-43z m270-101l-265 0l0 77l265 0l0-77z m20 198l-32 0l0-97l-28 0l0 97l-32 0l0 23l92 0l0-23z"/>
<glyph unicode="" d="M412 314l-10 0l0 48c0 0 0 0 0 1c0 2 0 3-2 5l-79 90c0 0 0 0 0 0c0 1-1 1-1 1c0 1-1 1-1 1c0 0-1 0-1 0c0 0-1 1-1 1c0 0-1 0-2 0l-194 0c-9 0-16-7-16-16l0-131l-10 0c-12 0-23-10-23-23l0-119c0-13 11-23 23-23l10 0l0-82c0-9 7-16 16-16l265 0c9 0 16 7 16 16l0 82l10 0c13 0 23 10 23 23l0 119c0 13-10 23-23 23z m-26-242l-265 0l0 77l265 0l0-77z m-259 110l0 107c7 2 18 2 33 2c15 0 26-2 33-8c7-6 12-15 12-25c0-11-4-20-10-26c-9-8-21-12-36-12c-3 0-6 0-8 1l0-39l-24 0z m93 0l0 107c8 2 19 2 34 2c15 0 26-2 33-8c7-6 12-15 12-25c0-11-4-20-10-26c-9-8-21-12-36-12c-3 0-6 0-8 1l0-39l-25 0z m121 46c-18 6-29 16-29 32c0 18 15 32 41 32c12 0 21-2 28-5l-6-20c-4 2-12 5-23 5c-10 0-16-5-16-10c0-7 7-10 21-16c19-7 28-17 28-32c0-18-14-34-44-34c-12 0-25 3-31 7l5 20c7-3 17-7 27-7c12 0 18 5 18 12c0 7-6 11-19 16z m45 86l-265 0l0 131l186 0l0-82c0-5 4-8 8-8l71 0z m-206-57c0 10-7 16-19 16c-5 0-8-1-10-1l0-32c2-1 5-1 8-1c13 0 21 7 21 18z m94 0c0 10-7 16-19 16c-5 0-8-1-10-1l0-32c2-1 4-1 8-1c13 0 21 7 21 18z"/>
<glyph unicode="" d="M168 251c0 11-7 18-21 18c-5 0-9-1-11-2l0-35c2 0 5-1 9-1c14 0 23 8 23 20z m84 17c-6 0-10 0-12-1l0-78c2-1 6-1 9-1c25 0 41 13 41 42c0 25-15 38-38 38z m160 46l-10 0l0 48c0 0 0 0 0 1c0 2 0 3-2 5l-79 90c0 0 0 0 0 0c0 1-1 1-1 1c0 1-1 1-1 1c0 0-1 0-1 0c0 0-1 1-1 1c0 0-1 0-2 0l-194 0c-9 0-16-7-16-16l0-131l-10 0c-12 0-23-10-23-23l0-119c0-13 11-23 23-23l10 0l0-82c0-9 7-16 16-16l265 0c9 0 16 7 16 16l0 82l10 0c13 0 23 10 23 23l0 119c0 13-10 23-23 23z m-291 131l186 0l0-82c0-5 4-8 8-8l71 0l0-41l-265 0z m198-214c0-23-9-39-20-49c-13-10-32-15-56-15c-14 0-24 1-31 2l0 117c10 2 23 3 37 3c23 0 38-4 49-13c13-9 21-24 21-45z m-210-63l0 119c8 1 20 2 37 2c16 0 28-3 36-10c8-6 13-16 13-27c0-12-4-22-11-29c-9-9-23-12-39-12c-3 0-7 0-9 0l0-43z m277-96l-265 0l0 77l265 0l0-77z m24 194l-46 0l0-28l43 0l0-22l-43 0l0-48l-28 0l0 120l74 0z"/>
<glyph unicode="" d="M363 245l-15-24l0 0l24 0l0 24c0 6 1 13 1 20l0 0c-4-7-7-13-10-20z m49 69l-10 0l0 48c0 0 0 0 0 1c0 2 0 3-2 5l-79 90c0 0 0 0 0 0c0 1-1 1-1 1c0 1-1 1-1 1c0 0-1 0-1 0c0 0-1 1-1 1c0 0-1 0-2 0l-194 0c-9 0-16-7-16-16l0-131l-10 0c-12 0-23-10-23-23l0-119c0-13 11-23 23-23l10 0l0-82c0-9 7-16 16-16l265 0c9 0 16 7 16 16l0 82l10 0c13 0 23 10 23 23l0 119c0 13-10 23-23 23z m-291 131l186 0l0-82c0-5 4-8 8-8l71 0l0-41l-265 0z m194-191c0-11-4-20-10-27c-9-8-22-12-37-12c-3 0-6 1-9 1l0-40l-25 0l0 111c8 1 19 2 35 2c15 0 27-3 34-9c7-5 12-15 12-26z m-197 11l0 0c-1-15-2-32-2-47l-2-42l-24 0l7 112l34 0l11-37c4-13 7-27 10-41l0 0c3 14 7 28 11 41l12 37l33 0l7-112l-25 0l-2 43c-1 13-1 30-1 46l-1 0c-3-14-8-30-12-44l-14-44l-20 0l-12 44c-4 13-7 29-10 44z m268-193l-265 0l0 77l265 0l0-77z m24 130l-13 0l0-26l-25 0l0 26l-48 0l0 16l41 66l32 0l0-63l13 0z m-140 68c-5 0-9 0-11-1l0-33c3-1 5-1 9-1c14 0 22 7 22 18c0 11-7 17-20 17z"/>
<glyph unicode="" d="M414 314l-9 0l0 48c0 0 0 0-1 1c0 2 0 3-1 5l-79 90c0 0 0 0 0 0c-1 1-1 1-2 1c0 1 0 1-1 1c0 0-1 0-1 0c0 0 0 1-1 1c0 0-1 0-1 0l-195 0c-8 0-16-7-16-16l0-131l-9 0c-13 0-23-10-23-23l0-119c0-13 10-23 23-23l9 0l0-82c0-9 8-16 16-16l266 0c8 0 16 7 16 16l0 82l9 0c13 0 23 10 23 23l0 119c0 13-10 23-23 23z m-291 131l187 0l0-82c0-5 3-8 8-8l71 0l0-41l-266 0z m153-151l0-120l-28 0l0 120z m-150-23l0 23l87 0l0-16l-55-81l0-1l56 0l0-22l-93 0l0 14l57 83l0 0z m263-199l-266 0l0 77l266 0l0-77z m2 157c-9-9-23-13-39-13c-3 0-6 0-9 1l0-43l-27 0l0 118c9 2 20 3 37 3c17 0 29-4 37-10c7-6 12-16 12-28c0-11-4-21-11-28z m-39 45c-5 0-9 0-11-1l0-35c2-1 5-1 9-1c14 0 23 7 23 20c0 11-7 17-21 17z"/>
<glyph unicode="" d="M180 257c-2 7-4 16-6 23l0 0c-2-7-4-16-6-23l-7-25l27 0z m232 57l-10 0l0 48c0 0 0 0 0 1c0 2 0 3-2 5l-79 90c0 0 0 0 0 0c0 1-1 1-1 1c0 1-1 1-1 1c0 0-1 0-1 0c0 0-1 1-1 1c0 0-1 0-2 0l-194 0c-9 0-16-7-16-16l0-131l-10 0c-12 0-23-10-23-23l0-119c0-13 11-23 23-23l10 0l0-82c0-9 7-16 16-16l265 0c9 0 16 7 16 16l0 82l10 0c13 0 23 10 23 23l0 119c0 13-10 23-23 23z m-291-140l36 120l36 0l37-120l-29 0l-9 31l-35 0l-8-31z m105 120l29 0l15-51c4-14 8-28 11-43l0 0c3 14 7 29 11 42l15 52l29 0l-40-120l-32 0z m160-222l-265 0l0 77l265 0l0-77z m-37 102l0 120l27 0l0-120z m37 140l-265 0l0 131l186 0l0-82c0-5 4-8 8-8l71 0z"/>
<glyph unicode="" d="M413 314l-10 0l0 48c0 0 0 0 0 1c0 2 0 3-2 5l-79 90c0 0 0 0 0 0c0 1-1 1-1 1c-1 1-1 1-1 1c0 0-1 0-1 0c-1 0-1 1-1 1c0 0-1 0-2 0l-194 0c-9 0-16-7-16-16l0-131l-10 0c-12 0-23-10-23-23l0-119c0-13 11-23 23-23l10 0l0-82c0-9 7-16 16-16l265 0c9 0 16 7 16 16l0 82l10 0c13 0 23 10 23 23l0 119c0 13-10 23-23 23z m-291 131l186 0l0-82c0-5 4-8 8-8l71 0l0-41l-265 0z m209-189c0-10-3-20-10-26c-8-8-21-11-35-11c-3 0-6 0-9 0l0-39l-24 0l0 108c8 1 18 2 33 2c16 0 26-3 34-9c7-5 11-14 11-25z m-218-76l7 109l33 0l11-36c3-13 7-26 9-39l1 0c3 13 7 27 10 39l12 36l32 0l6-109l-24 0l-2 42c0 13-1 29-1 45l0 0c-4-14-8-30-12-42l-14-43l-19 0l-12 42c-3 13-7 29-10 43l0 0c0-15-1-32-2-45l-2-42z m274-108l-265 0l0 77l265 0l0-77z m-13 106c-14 0-25 4-31 8l5 18c4-2 14-6 24-6c13 0 19 6 19 14c0 10-10 15-21 15l-10 0l0 18l10 0c8 0 19 3 19 12c0 6-6 11-16 11c-9 0-18-4-22-6l-5 17c6 4 19 8 33 8c22 0 35-12 35-26c0-11-7-20-20-24l0-1c13-2 23-12 23-25c0-19-16-33-43-33z m-86 95c-5 0-9-1-11-1l0-32c3-1 5-1 9-1c13 0 21 7 21 18c0 10-7 16-19 16z"/>
<glyph unicode="" d="M244 407c-79-6-142-71-142-152c0-19 4-37 10-53l132 58z m-125-220c25-50 76-84 136-84c51 0 96 26 124 64l-125 79z m145 222l0-146l126-80c13 22 20 47 20 74c0 82-65 149-146 152z"/>
<glyph unicode="" d="M349 162l-93 0c-13 0-24 5-33 14c-9 9-13 20-13 33l0 33l132 0c12 0 22 4 31 12c8 9 12 19 12 31c0 12-4 22-12 31c-9 8-19 13-31 13l-132 0l0 68c0 13-5 24-14 33c-9 9-20 14-33 14c-13 0-24-5-33-14c-9-9-14-20-14-33l0-188c0-39 14-72 41-100c28-27 61-41 99-41l93 0c13 0 24 5 33 14c9 9 14 20 14 33c0 13-5 24-14 33c-9 10-20 14-33 14z"/>
<glyph unicode="" d="M331 242c15 0 28 5 39 15l0 0c11 10 17 22 17 37c0 14-6 26-17 36c-11 10-24 15-39 15c-4 0-7 0-10 0l-95 0l-1 47c0 0 0 5 0 6c0 12-6 23-16 31c-10 10-23 15-38 15c-15 0-28-5-38-14c0-1-1-1-1-1c-9-8-14-18-15-29c0-1-1-2-1-3l0-224c1-16 4-31 11-43c0-1 1-2 2-3c1-1 5-7 12-17c1 0 1 0 1 0c6-8 14-15 23-20c0 0 0 0 0 0c19-10 40-17 62-20c1 0 1 0 1 0c0 0 1 0 1 0c16-1 50-2 100-2c2 0 3 1 4 1c14 1 26 6 36 15l1 0c11 10 16 22 16 36c0 14-5 26-16 37c-11 9-23 14-38 15c-1 0-1 0-2 0c-21 1-37 1-48 1l-31 0c-1 0-1 0-2 0c0 0-1 1-2 1c0 1-1 1-2 1c-2 1-5 3-6 4c-1 1-1 1-2 1c-4 4-6 10-6 15l0 46z m-10 81c1 0 5 0 5 0c3 0 4 0 6 0c9 0 16-2 22-8c7-6 10-13 10-21c0-8-3-16-10-21l0 0c-7-6-14-9-22-9c-2 0-5 0-6 0c0 1-1 1-2 1l-108-1c-2 0-5-1-6-2l0 0c-2-2-2-4-2-6l0-61c0-12 5-22 14-31c0 0 1 0 1 0c5-5 9-7 14-9c0-1 0-1 1-1c1 0 2 0 3-1c2-1 3-1 5-2l37 0c10 0 25 0 45-1c1 0 2 0 2 0c1 0 1 0 1 0c9 0 16-3 23-9c6-6 10-13 10-21c0-8-4-15-10-20l0 0c-7-6-14-9-23-9c0 0 0 0-1 0c0 0-1 0-2-1c-48 0-80 1-96 2c-19 3-37 9-54 17l1 0c-7 4-12 9-17 14c-6 9-11 14-12 16c-5 10-8 22-8 35l0 221c0 0 0 1 0 1c0 7 3 12 8 18l0 0l0 0c6 5 13 8 22 8c9 0 16-3 22-8c5-5 8-11 9-18l0-66c0-1 2-3 3-5c2-1 3-2 5-2z"/>
<glyph unicode="" d="M158 428l196 0l0-49l-196 0z m270-74l-344 0c-13 0-24-11-24-24l0-123c0-14 11-25 24-25l74 0l0-98l196 0l0 98l74 0c13 0 24 11 24 25l0 123c0 13-11 24-24 24z m-98-245l-148 0l0 122l148 0z m103 208c0-9-8-17-18-17c-9 0-17 8-17 17c0 10 8 18 17 18c10 0 18-8 18-18z"/>
<glyph unicode="" d="M383 355l0 80l-244 0l0-80l-79 0l0-184l79 0l0-94l172 0l72 73l0 21l69 0l0 184z m-25 55l0-55l-194 0l0 55z m51-228l-26 0l0 66l-25 0l0-78l-75 0l0-68l-119 0l0 146l-25 0l0-66l-26 0l0 93l296 0l0-93z m32 134l-57 0l0 13l57 0z"/>
<glyph unicode="" d="M244 251l-37-125c-31 21-66 38-139 8l36 124l0 0c73 30 108 14 140-7z m19-12l-36-124c31-21 66-39 139-8l35 120c-74-25-107-10-138 12z m-13 34l36 124c-32 21-67 39-140 8l-36-124c29 12 52 17 71 17c29 0 50-12 69-25z m54 111l-35-125c31-21 69-38 139-7l36 124c-73-30-108-13-140 8z"/>
<glyph unicode="" d="M444 101l0-21l-376 0l0 352l21 0l0-331z m-286 129l53-37l28 27l30-18l46 24l32-32l66 100l-8 6l-60-90l-29 28l-46-25l-32 20l-28-27l-51 36l-58-26l4-9z m-1 83l55-63l28 64l28-43l47 40l32-33l66 100l-8 6l-60-90l-29 31l-46-39l-32 49l-29-66l-50 57l-58-26l4-10z"/>
<glyph unicode="" d="M440 387l-368 0c-2 0-4-2-4-4l0-254c0-2 2-4 4-4l368 0c2 0 4 2 4 4l0 254c0 2-2 4-4 4z m-62-33l-122-89l-122 89z m33-196l-310 0l0 180l153-112c1-1 3-1 4 0l153 112l0-180z"/>
<glyph unicode="" d="M440 308l-3 0l-41 36l-23-23l30-26l-25-20l-122-89l-122 89l-24 19l29 25l0 44l-63-55l-4 0c-2 0-4-2-4-4l0-253c0-2 2-4 4-4l368 0c2 0 4 2 4 4l0 253c0 2-2 4-4 4z m-29-229l-310 0l0 180l153-112c1-1 3-1 4 0l153 112l0-180z m-179 322l-50 0l74 64l75-64l-50 0l-25 21z m-68-131l-17 14l0 108l205 0l0-5c-4-3-10-7-16-13l0 2l-172 0z m205 102l2 2c4 3 9 4 13 2l7 7l10-10l-6-7c2-4 1-10-3-14l-100-100c-3-2-7-4-10-3c-12-8-21-12-24-9c-3 3 1 12 9 23c0 4 1 8 4 11l89 88c-7-3-20-12-44-36c-1-2-4-2-6 0c-1 1-1 4 0 6c39 40 53 42 59 40z"/>
<glyph unicode="" d="M440 414l-338 0c-2 0-4-1-4-3l0-184l30 23l0 120l141-103c1-1 3-1 4 0l141 103l0-166l-123 0c0-1 0-2 0-4l0-26l149 0c2 0 4 2 4 4l0 233c0 2-2 3-4 3z m-169-112l-112 82l224 0z m-120-105l-9-23l9-23l19-48c1-2 0-4-1-5c-1 0-2 0-3 0c0 0-1 0-2 0l-94 73c-1 1-2 2-2 3c0 1 1 2 2 3l94 73c1 1 3 1 5 0c1-1 2-3 1-5z m86 0l-9-23l9-23l19-48c0-2 0-4-2-5c0 0-1 0-2 0c-1 0-2 0-2 0l-95 73c0 1-1 2-1 3c0 1 1 2 1 3l95 73c1 1 3 1 4 0c2-1 2-3 2-5z"/>
<glyph unicode="" d="M400 354c0-13-11-24-24-24l-22 0c-13 0-24 11-24 24l0 22c0 13 11 24 24 24l22 0c13 0 24-11 24-24z m0-218c0-13-12-24-25-24l-237 0c-13 0-26 11-26 24l0 118c0 13 13 24 26 24c0 0 6 0 13 0c1 0 2 0 3 0c5-1 8-5 9-10c0 0 0-1 0-2c-1-1 1-1 1-2c-1-3 0-7 0-10l0 0c0-52 40-94 92-95c-1 0-2 0-2 0c0 0 0 0 1 0c1 0 1 0 2 0c52 0 94 43 94 95c0 3 0 7-1 10c0 1 0 1 0 2c0 1 0 2 0 2c1 5 4 9 9 10c1 0 2 0 2 0l14 0c13 0 25-11 25-24l0-118z m-191 118c0 0 4 47 47 47c44 0 48-47 48-47c0 0 1-47-48-47c-48 0-47 47-47 47z m187 190l-280 0c-27 0-48-21-48-48l0-280c0-27 21-48 48-48l280 0c27 0 48 21 48 48l0 280c0 27-21 48-48 48"/>
<glyph unicode="" d="M256 444c-104 0-188-84-188-188c0-103 84-188 188-188c104 0 188 85 188 188c0 104-84 188-188 188z m0-339c-83 0-150 68-150 151c0 83 67 151 150 151c83 0 150-68 150-151c0-83-67-151-150-151z m0 269c-65 0-118-53-118-118c0-65 53-118 118-118c65 0 118 53 118 118c0 65-53 118-118 118z m9-186c-3-3-6-4-10-4c-4 0-7 1-10 4c-3 2-5 6-5 10c0 4 2 8 5 10c2 3 6 4 10 4c4 0 7-1 10-4c3-2 4-6 4-10c0-4-1-8-4-10z m35 88c-2-4-5-8-8-11c-3-3-8-8-16-15c-2-1-4-3-5-5c-1-1-2-3-3-4c0-1-1-2-1-4c-1-1-1-3-2-6c-1-7-5-10-11-10c-3 0-6 1-8 3c-3 2-4 6-4 10c0 5 1 10 3 14c1 4 3 7 6 10c3 3 7 6 11 11c4 3 7 6 9 8c2 1 3 3 5 6c1 2 1 4 1 7c0 5-1 9-5 13c-4 3-9 5-15 5c-7 0-12-2-15-5c-4-4-6-9-9-16c-2-7-6-11-12-11c-3 0-6 2-9 4c-2 3-3 5-3 8c0 6 1 12 5 18c4 7 10 12 17 16c8 4 16 6 26 6c9 0 18-2 25-5c7-4 12-8 16-14c4-6 6-12 6-19c-1-5-2-10-4-14z"/>
<glyph unicode="" d="M390 444l-268 0c-27 0-50-23-50-50l0-205c0-27 23-49 50-49l29 0c0 0-21-49-31-72c30 29 73 72 73 72l197 0c27 0 50 22 50 49l0 205c0 27-23 50-50 50z m-126-241c-3-3-7-4-11-4c-4 0-8 1-11 4c-3 3-5 7-5 12c0 4 2 8 5 11c3 3 7 4 11 4c4 0 8-1 11-4c3-3 4-7 4-11c0-5-1-9-4-12z m38 113c-2-5-8-12-18-21c-13-12-21-20-24-26c-2-5-4-14-4-27l-7 0c0 10 1 19 2 24c1 6 2 11 4 14c1 4 6 10 13 19c5 7 9 14 11 20c2 7 4 14 4 21c0 10-3 19-9 25c-6 6-13 9-21 9c-7 0-13-1-18-5c-5-4-7-7-7-11c0-2 1-4 5-7c5-4 7-8 7-13c0-4-1-8-4-10c-2-3-6-5-10-5c-5 0-9 2-12 6c-4 4-5 9-5 16c0 10 4 19 14 27c9 8 20 12 34 12c15 0 27-5 36-14c9-9 14-19 14-32c0-8-2-16-5-22z"/>
<glyph unicode="" d="M249 143c20 0 37-16 37-37c0-21-17-38-37-38c-21 0-38 17-38 38c0 21 17 37 38 37z m7 301c66 0 120-43 120-105c0-23-15-60-45-75c-30-16-45-36-45-61l0-30l-75 0l0 23c0 51 45 83 60 98c30 30 30 34 30 45c0 24-20 45-45 45c-25 0-45-21-45-45l0-23l-75 0l0 15c0 62 54 113 120 113z"/>
<glyph unicode="" d="M409 310l-12-195l-195-12c-13 0-24-11-24-24c0-14 11-25 24-25l217 14c7 0 13 3 18 7c4 5 7 11 7 18l14 217c0 13-11 24-25 24c-13 0-24-11-24-24z m-113-119c7 0 13 3 17 8c5 4 8 10 8 17l13 217c0 14-11 25-24 25c-14 0-25-11-25-25l-12-194l-194-12c-14 0-25-11-25-25c0-13 11-24 25-24z"/>
<glyph unicode="" d="M402 258l-146-129l-146 129c-9 10-25 10-34 0c-10-10-10-25-1-35l163-144c5-5 12-7 18-7c6 0 13 2 18 7l163 144c9 10 9 25 0 35c-10 10-26 10-35 0z m-164-4c5-5 12-7 18-7c6 0 13 2 18 7l163 144c9 10 9 25 0 35c-10 9-26 9-35 0l-146-129l-146 129c-9 9-25 9-34 0c-10-10-10-25 0-35z"/>
<glyph unicode="" d="M68 256l188 188l0-94l-94-94l94-94l0-94z m376-188l0 94l-94 94l94 94l0 94l-188-188z"/>
<glyph unicode="" d="M258 110l-129 146l129 146c10 9 10 25 0 34c-10 10-25 10-35 1l-144-163c-5-5-7-12-7-18c0-6 2-13 7-18l144-163c10-9 25-9 35 0c10 10 10 26 0 35z m-4 164c-5-5-7-12-7-18c0-6 2-13 7-18l144-163c10-9 25-9 35 0c9 10 9 26 0 35l-129 146l129 146c9 9 9 25 0 34c-10 10-25 10-35 0z"/>
<glyph unicode="" d="M444 256l-188-188l0 94l94 94l-94 94l0 94z m-376 188l0-94l94-94l-94-94l0-94l188 188z"/>
<glyph unicode="" d="M254 402l129-146l-129-146c-10-9-10-25 0-34c10-10 25-10 35-1l144 163c5 5 7 12 7 18c0 6-2 13-7 18l-144 163c-10 9-25 9-35 0c-10-10-10-26 0-35z m4-164c5 5 7 12 7 18c0 6-2 13-7 18l-144 163c-10 9-25 9-35 0c-9-10-9-26 0-35l129-146l-129-146c-9-9-9-25 0-34c10-10 25-10 35 0z"/>
<glyph unicode="" d="M256 444l188-188l-94 0l-94 94l-94-94l-94 0z m-188-376l94 0l94 94l94-94l94 0l-188 188z"/>
<glyph unicode="" d="M455 455l0-265l-66 66l0 133l-133 0l-66 66z m-398-133l66-66l133 0l0-133l66-66l0 265z"/>
<glyph unicode="" d="M202 409l195-12l12-195c0-13 11-24 24-24c14 0 25 11 25 24l-14 217c0 7-3 13-7 18c-5 4-11 7-18 7l-217 14c-13 0-24-11-24-25c0-13 11-24 24-24z m119-113c0 7-3 13-8 17c-4 5-10 8-17 8l-217 13c-14 0-25-11-25-24c0-14 11-25 25-25l194-12l12-194c0-14 11-25 25-25c13 0 24 11 24 25z"/>
<glyph unicode="" d="M110 254l146 129l146-129c9-10 25-10 34 0c10 10 10 25 1 35l-163 144c-5 5-12 7-18 7c-6 0-13-2-18-7l-163-144c-9-10-9-25 0-35c10-10 26-10 35 0z m164 4c-5 5-12 7-18 7c-6 0-13-2-18-7l-163-144c-9-10-9-25 0-35c10-9 26-9 35 0l146 129l146-129c9-9 25-9 34 0c10 10 10 25 0 35z"/>
<glyph unicode="" d="M256 230l-188 188l0-127l188-197l188 197l0 127z"/>
<glyph unicode="" d="M256 238l-128 128l0-86l128-134l128 134l0 86z"/>
<glyph unicode="" d="M256 119l-137 137l69 0l68-68l68 68l69 0z m137 274l-69 0l-68-69l-68 69l-69 0l137-137z"/>
<glyph unicode="" d="M353 159l-194 0l49 49l96 0l0 96l49 49z m-97 290l-48-48l0-97l-97 0l-48-48l193 0z"/>
<glyph unicode="" d="M332 334l-9-145l-145-9c-10 0-18-8-18-18c0-10 8-18 18-18l162 10c5 0 9 2 13 5c3 4 5 8 5 13l10 162c0 10-8 18-18 18c-10 0-18-8-18-18z m-84-88c5 0 10 2 13 5c3 3 5 8 5 13l10 161c0 10-8 19-18 19c-10 0-18-9-18-19l-9-144l-144-9c-10 0-19-8-19-18c0-10 9-18 19-18z"/>
<glyph unicode="" d="M364 258l-108-96l-108 96c-7 7-19 7-26-1c-7-7-7-18 0-25l121-107c4-4 8-6 13-6c5 0 10 2 13 6l121 107c7 7 7 18 0 26c-7 7-19 7-26 0z m-121-4c3-3 8-5 13-5c5 0 10 2 13 5l121 107c7 8 7 19 0 26c-7 7-19 7-26 0l-108-96l-108 96c-7 7-19 7-26 0c-7-7-7-18 0-26z"/>
<glyph unicode="" d="M119 256l137 137l0-69l-68-68l68-68l0-69z m274-137l0 69l-69 68l69 68l0 69l-137-137z"/>
<glyph unicode="" d="M258 148l-96 108l96 108c7 7 7 19 0 26c-8 7-19 7-26 0l-107-121c-4-3-6-8-6-13c0-5 2-10 6-13l107-121c7-7 18-7 26 0c7 7 7 19 0 26z m-4 121c-3-3-5-8-5-13c0-5 2-10 6-13l106-121c8-7 19-7 26 0c7 7 7 19 0 26l-96 108l96 108c7 7 7 19 0 26c-7 7-18 7-26 0z"/>
<glyph unicode="" d="M393 256l-137-137l0 69l68 68l-68 68l0 69z m-274 137l0-69l69-68l-69-68l0-69l137 137z"/>
<glyph unicode="" d="M254 364l96-108l-96-108c-7-7-7-19 1-26c7-7 18-7 25 0l107 121c4 3 6 8 6 13c0 5-2 10-6 13l-107 121c-7 7-18 7-26 0c-7-7-7-19 0-26z m4-121c3 3 5 8 5 13c0 5-2 10-5 13l-107 121c-8 7-19 7-26 0c-7-7-7-19 0-26l96-108l-96-108c-7-7-7-19 0-26c7-7 18-7 26 0z"/>
<glyph unicode="" d="M256 393l137-137l-69 0l-68 68l-68-68l-69 0z m-137-274l69 0l68 69l68-69l69 0l-137 137z"/>
<glyph unicode="" d="M353 353l0-194l-49 49l0 96l-96 0l-49 49z m-290-97l48-48l97 0l0-97l48-48l0 193z"/>
<glyph unicode="" d="M178 332l145-9l9-145c0-10 8-18 18-18c10 0 18 8 18 18l-10 162c0 5-2 9-5 13c-4 3-8 5-13 5l-162 10c-10 0-18-8-18-18c0-10 8-18 18-18z m88-84c0 5-2 9-5 13c-3 3-8 5-13 5l-161 10c-10 0-19-8-19-18c0-10 9-18 19-18l144-9l9-144c0-10 8-19 18-19c10 0 18 9 18 19z"/>
<glyph unicode="" d="M148 254l108 96l108-96c7-7 19-7 26 0c7 8 7 19 0 26l-121 107c-3 4-8 6-13 6c-5 0-10-2-13-6l-121-107c-7-7-7-18 0-26c7-7 19-7 26 0z m121 4c-3 3-8 5-13 5c-5 0-10-2-13-6l-121-106c-7-8-7-19 0-26c7-7 19-7 26 0l108 96l108-96c7-7 19-7 26 0c7 7 7 18 0 26z"/>
<glyph unicode="" d="M269 243l-193 0l65-65l198-5l-5 198l-65 65z"/>
<glyph unicode="" d="M316 214l0 167c0 11-8 19-18 19c-10 0-18-8-18-19l0-149l-149 0c-11 0-19-8-19-18c0-10 8-18 19-18l167 0c5 0 9 2 13 5c3 4 5 8 5 13z"/>
</font>
</defs>
</svg>
