<?xml version="1.0" standalone="no"?>
<!DOCTYPE svg PUBLIC "-//W3C//DTD SVG 1.1//EN" "http://www.w3.org/Graphics/SVG/1.1/DTD/svg11.dtd" >
<svg xmlns="http://www.w3.org/2000/svg" xmlns:xlink="http://www.w3.org/1999/xlink" version="1.1">
<metadata>
Created by FontForge 20141024 at Wed Jan 28 16:44:10 2015
 By System Administrator
Copyright (c) 2009 by Hannes von Dhren. All rights reserved.
</metadata>
<defs>
<font id="BrandonGrotesque-Regular" horiz-adv-x="482" >
  <font-face 
    font-family="Brandon Grotesque Regular"
    font-weight="390"
    font-stretch="normal"
    units-per-em="1000"
    panose-1="2 11 5 3 2 2 3 6 2 2"
    ascent="700"
    descent="-300"
    x-height="400"
    cap-height="700"
    bbox="-129.414 -373.631 1031 1031.38"
    underline-thickness="50"
    underline-position="-50"
    stemh="67"
    stemv="69"
    unicode-range="U+0020-FB02"
  />
<missing-glyph horiz-adv-x="599" 
d="M50 30v640c0 21 9 30 30 30h439c21 0 30 -9 30 -30v-640c0 -21 -9 -30 -30 -30h-439c-21 0 -30 9 -30 30zM262 314c0 -7 7 -12 14 -12h36c9 0 15 4 15 13v26c0 48 105 63 105 150c0 65 -54 111 -125 111c-87 0 -130 -61 -130 -61c-4 -6 -6 -13 0 -18l22 -22
c6 -4 11 -4 17 0c13 12 36 41 84 41c40 0 61 -25 61 -52c0 -63 -99 -72 -99 -147v-29zM245 156c0 -26 22 -48 48 -48c27 0 49 22 49 48s-22 48 -49 48c-26 0 -48 -22 -48 -48z" />
    <glyph glyph-name="fi" unicode="fi" horiz-adv-x="527" 
d="M103 19v321h-61c-11 0 -19 9 -19 19v22c0 11 8 19 19 19h61v140c0 116 77 170 163 170c68 0 129 -34 147 -47c7 -5 8 -16 4 -23l-16 -27c-6 -10 -15 -7 -26 -1c-13 7 -62 36 -110 36c-46 0 -93 -31 -93 -108v-140h265c10 0 19 -9 19 -19v-362c0 -10 -9 -19 -19 -19h-31
c-10 0 -19 9 -19 19v321h-215v-321c0 -10 -9 -19 -19 -19h-31c-10 0 -19 9 -19 19z" />
    <glyph glyph-name="fl" unicode="fl" horiz-adv-x="530" 
d="M103 19v321h-61c-11 0 -19 9 -19 19v22c0 11 8 19 19 19h61v140c0 116 76 170 162 170c83 0 130 -51 130 -51l8 25c2 7 6 16 19 16h17c10 0 19 -9 19 -19v-662c0 -10 -9 -19 -19 -19h-31c-10 0 -19 9 -19 19v561s-43 63 -119 63c-46 0 -98 -26 -98 -103v-140h116
c11 0 19 -8 19 -19v-22c0 -10 -8 -19 -19 -19h-116v-321c0 -10 -9 -19 -19 -19h-31c-10 0 -19 9 -19 19z" />
    <glyph glyph-name="f_f" unicode="ff" horiz-adv-x="594" 
d="M103 19v321h-61c-11 0 -19 9 -19 19v22c0 11 8 19 19 19h61v113c0 133 87 187 183 187c68 0 110 -26 129 -39c28 33 68 49 115 49c55 0 92 -24 110 -41c7 -6 8 -16 4 -23l-16 -26c-6 -10 -16 -9 -26 -1c-13 10 -43 29 -73 29c-46 0 -83 -31 -83 -108v-140h116
c11 0 19 -8 19 -19v-22c0 -10 -8 -19 -19 -19h-116v-321c0 -10 -9 -19 -19 -19h-31c-10 0 -19 9 -19 19v321h-205v-321c0 -10 -9 -19 -19 -19h-31c-10 0 -19 9 -19 19zM172 400h205v140c0 23 2 43 7 61c-14 15 -56 37 -99 37c-56 0 -113 -31 -113 -125v-113z" />
    <glyph glyph-name="f_f_i" unicode="ffi" horiz-adv-x="801" 
d="M103 19v321h-61c-11 0 -19 9 -19 19v22c0 11 8 19 19 19h61v113c1 131 84 187 183 187c68 0 110 -26 129 -39c28 33 74 49 123 49c68 0 131 -34 149 -47c7 -5 8 -16 4 -23l-16 -27c-6 -10 -15 -7 -26 -1c-13 7 -62 36 -110 36s-93 -33 -93 -109v-139h265
c10 0 19 -9 19 -19v-362c0 -10 -9 -19 -19 -19h-31c-10 0 -19 9 -19 19v321h-215v-321c0 -10 -9 -19 -19 -19h-31c-10 0 -19 9 -19 19v321h-205v-321c0 -10 -9 -19 -19 -19h-31c-10 0 -19 9 -19 19zM172 400h205v140c0 23 2 43 7 61c-14 15 -56 37 -99 37
c-56 0 -113 -31 -113 -125v-113z" />
    <glyph glyph-name="f_f_l" unicode="ffl" horiz-adv-x="804" 
d="M103 19v321h-61c-11 0 -19 9 -19 19v22c0 11 8 19 19 19h61v113c0 133 87 187 183 187c68 0 110 -26 129 -39c28 33 73 49 126 49c81 0 128 -51 128 -51l8 25c2 7 6 16 19 16h17c10 0 19 -9 19 -19v-662c0 -10 -9 -19 -19 -19h-31c-10 0 -19 9 -19 19v561s-43 63 -119 63
c-46 0 -98 -26 -98 -103v-140h116c11 0 19 -8 19 -19v-22c0 -10 -8 -19 -19 -19h-116v-321c0 -10 -9 -19 -19 -19h-31c-10 0 -19 9 -19 19v321h-205v-321c0 -10 -9 -19 -19 -19h-31c-10 0 -19 9 -19 19zM172 400h205v140c0 23 2 43 7 61c-14 15 -56 37 -99 37
c-56 0 -113 -31 -113 -125v-113z" />
    <glyph glyph-name="f_f_h" unicode="ffh" horiz-adv-x="1087" 
d="M103 19v321h-61c-11 0 -19 9 -19 19v22c0 11 8 19 19 19h61v113c0 133 87 187 183 187c68 0 110 -26 129 -39c28 33 73 49 126 49c81 0 128 -51 128 -51l8 25c2 7 6 16 19 16h17c10 0 19 -9 19 -19v-324s53 53 134 53c116 0 155 -76 155 -180v-211c0 -10 -9 -19 -19 -19
h-32c-10 0 -19 9 -19 19v211c0 76 -34 113 -90 113c-75 0 -129 -57 -129 -56v-268c0 -10 -9 -19 -19 -19h-31c-10 0 -19 9 -19 19v561s-43 63 -119 63c-46 0 -98 -26 -98 -103v-140h116c11 0 19 -8 19 -19v-22c0 -10 -8 -19 -19 -19h-116v-321c0 -10 -9 -19 -19 -19h-31
c-10 0 -19 9 -19 19v321h-205v-321c0 -10 -9 -19 -19 -19h-31c-10 0 -19 9 -19 19zM172 400h205v140c0 23 2 43 7 61c-14 15 -56 37 -99 37c-56 0 -113 -31 -113 -125v-113z" />
    <glyph glyph-name="f_k" unicode="fk" horiz-adv-x="765" 
d="M103 19v321h-61c-11 0 -19 9 -19 19v22c0 11 8 19 19 19h61v140c0 116 76 170 162 170c83 0 130 -51 130 -51l8 25c2 7 6 16 19 16h17c10 0 19 -9 19 -19v-433l174 140c7 6 16 12 24 12h50c17 0 16 -19 9 -25l-185 -151l216 -199c8 -7 7 -25 -10 -25h-55
c-9 0 -16 5 -20 8l-203 193v-182c0 -10 -9 -19 -19 -19h-31c-10 0 -19 9 -19 19v561s-43 63 -119 63c-46 0 -98 -26 -98 -103v-140h116c11 0 19 -8 19 -19v-22c0 -10 -8 -19 -19 -19h-116v-321c0 -10 -9 -19 -19 -19h-31c-10 0 -19 9 -19 19z" />
    <glyph glyph-name="f_j" unicode="fj" horiz-adv-x="528" 
d="M103 19v321h-61c-11 0 -19 9 -19 19v22c0 11 8 19 19 19h61v140c0 116 77 170 163 170c68 0 129 -34 147 -47c7 -5 8 -16 4 -23l-16 -27c-6 -10 -15 -7 -26 -1c-13 7 -62 36 -110 36c-46 0 -93 -31 -93 -108v-140h265c10 0 19 -9 19 -19v-521c0 -116 -67 -170 -153 -170
c-55 0 -92 24 -110 41c-7 6 -8 16 -4 23l16 26c6 10 16 9 26 1c13 -10 48 -29 73 -29c46 0 83 31 83 108v480h-215v-321c0 -10 -9 -19 -19 -19h-31c-10 0 -19 9 -19 19z" />
    <glyph glyph-name="f_f_j" unicode="ffj" horiz-adv-x="802" 
d="M103 19v321h-61c-11 0 -19 9 -19 19v22c0 11 8 19 19 19h61v113c0 131 84 187 183 187c68 0 110 -26 129 -39c28 33 74 49 123 49c68 0 131 -34 149 -47c7 -5 8 -16 4 -23l-16 -27c-6 -10 -15 -7 -26 -1c-13 7 -62 36 -110 36c-71 0 -93 -48 -93 -144v-104h265
c10 0 19 -9 19 -19v-521c0 -116 -67 -170 -153 -170c-55 0 -92 24 -110 41c-7 6 -8 16 -4 23l16 26c6 10 16 9 26 1c13 -10 48 -29 73 -29c46 0 83 31 83 108v480h-215v-321c0 -10 -9 -19 -19 -19h-31c-10 0 -19 9 -19 19v321h-205v-321c0 -10 -9 -19 -19 -19h-31
c-10 0 -19 9 -19 19zM172 400h205v118c0 45 2 65 7 83c-14 15 -56 37 -99 37c-56 0 -113 -31 -113 -125v-113z" />
    <glyph glyph-name="f_b" unicode="fb" horiz-adv-x="799" 
d="M103 19v321h-61c-11 0 -19 9 -19 19v22c0 11 8 19 19 19h61v140c0 116 76 170 162 170c83 0 130 -51 130 -51l8 25c2 7 6 16 19 16h17c10 0 19 -9 19 -19v-297s41 26 107 26c115 0 192 -92 192 -209c0 -115 -80 -211 -182 -211c-75 0 -123 53 -123 53
c-4 -16 -6 -43 -23 -43h-21c-10 0 -19 9 -19 19v561s-43 63 -119 63c-46 0 -98 -26 -98 -103v-140h116c11 0 19 -8 19 -19v-22c0 -10 -8 -19 -19 -19h-116v-321c0 -10 -9 -19 -19 -19h-31c-10 0 -19 9 -19 19zM459 119c0 0 37 -66 109 -66c73 0 119 69 119 147
c0 80 -49 143 -131 143c-55 0 -97 -24 -97 -24v-200z" />
    <glyph glyph-name="f_f_k" unicode="ffk" horiz-adv-x="1039" 
d="M103 19v321h-61c-11 0 -19 9 -19 19v22c0 11 8 19 19 19h61v113c0 133 87 187 183 187c68 0 110 -26 129 -39c28 33 73 49 126 49c81 0 128 -51 128 -51l8 25c2 7 6 16 19 16h17c10 0 19 -9 19 -19v-433l174 140c7 6 16 12 24 12h50c17 0 16 -19 9 -25l-185 -151
l216 -199c8 -7 7 -25 -10 -25h-55c-9 0 -16 5 -20 8l-203 193v-182c0 -10 -9 -19 -19 -19h-31c-10 0 -19 9 -19 19v561s-43 63 -119 63c-46 0 -98 -26 -98 -103v-140h116c11 0 19 -8 19 -19v-22c0 -10 -8 -19 -19 -19h-116v-321c0 -10 -9 -19 -19 -19h-31
c-10 0 -19 9 -19 19v321h-205v-321c0 -10 -9 -19 -19 -19h-31c-10 0 -19 9 -19 19zM172 400h205v140c0 23 2 43 7 61c-14 15 -56 37 -99 37c-56 0 -113 -31 -113 -125v-113z" />
    <glyph glyph-name="f_h" unicode="fh" horiz-adv-x="814" 
d="M103 19v321h-61c-11 0 -19 9 -19 19v22c0 11 8 19 19 19h61v140c0 116 76 170 162 170c83 0 130 -51 130 -51l8 25c2 7 6 16 19 16h17c10 0 19 -9 19 -19v-324s53 53 134 53c116 0 155 -76 155 -215v-176c0 -10 -9 -19 -19 -19h-32c-10 0 -19 9 -19 19v211
c0 76 -34 113 -90 113c-75 0 -129 -57 -129 -56v-38v-230c0 -10 -9 -19 -19 -19h-31c-10 0 -19 9 -19 19v561s-43 63 -119 63c-46 0 -98 -26 -98 -103v-140h116c11 0 19 -8 19 -19v-22c0 -10 -8 -19 -19 -19h-116v-321c0 -10 -9 -19 -19 -19h-31c-10 0 -19 9 -19 19z" />
    <glyph glyph-name="f_f_b" unicode="ffb" horiz-adv-x="1073" 
d="M103 19v321h-61c-11 0 -19 9 -19 19v22c0 11 8 19 19 19h61v113c0 133 87 187 183 187c68 0 110 -26 129 -39c28 33 73 49 126 49c81 0 128 -51 128 -51l8 25c2 7 6 16 19 16h17c10 0 19 -9 19 -19v-297s41 26 107 26c115 0 192 -92 192 -209c0 -115 -80 -211 -182 -211
c-75 0 -123 53 -123 53c-4 -16 -6 -43 -23 -43h-21c-10 0 -19 9 -19 19v561s-43 63 -119 63c-46 0 -98 -26 -98 -103v-140h116c11 0 19 -8 19 -19v-22c0 -10 -8 -19 -19 -19h-116v-321c0 -10 -9 -19 -19 -19h-31c-10 0 -19 9 -19 19v321h-205v-321c0 -10 -9 -19 -19 -19h-31
c-10 0 -19 9 -19 19zM172 400h205v140c0 23 2 43 7 61c-14 15 -56 37 -99 37c-56 0 -113 -31 -113 -125v-113zM733 119c0 0 37 -66 109 -66c73 0 119 69 119 147c0 80 -49 143 -131 143c-55 0 -97 -24 -97 -24v-200z" />
    <glyph glyph-name=".notdef" horiz-adv-x="599" 
d="M50 30v640c0 21 9 30 30 30h439c21 0 30 -9 30 -30v-640c0 -21 -9 -30 -30 -30h-439c-21 0 -30 9 -30 30zM262 314c0 -7 7 -12 14 -12h36c9 0 15 4 15 13v26c0 48 105 63 105 150c0 65 -54 111 -125 111c-87 0 -130 -61 -130 -61c-4 -6 -6 -13 0 -18l22 -22
c6 -4 11 -4 17 0c13 12 36 41 84 41c40 0 61 -25 61 -52c0 -63 -99 -72 -99 -147v-29zM245 156c0 -26 22 -48 48 -48c27 0 49 22 49 48s-22 48 -49 48c-26 0 -48 -22 -48 -48z" />
    <glyph glyph-name=".null" horiz-adv-x="0" 
 />
    <glyph glyph-name="CR" horiz-adv-x="0" 
 />
    <glyph glyph-name="space" unicode=" " horiz-adv-x="222" 
 />
    <glyph glyph-name="exclam" unicode="!" horiz-adv-x="298" 
d="M143 272c-9 0 -18 8 -19 16l-19 279v114c0 10 9 19 19 19h50c10 0 19 -9 19 -19v-112l-19 -281c-1 -8 -10 -16 -19 -16h-12zM92 47c0 32 26 57 57 57c32 0 57 -25 57 -57c0 -31 -25 -57 -57 -57c-31 0 -57 26 -57 57z" />
    <glyph glyph-name="quotedbl" unicode="&#x22;" horiz-adv-x="307" 
d="M219 501c-10 0 -19 9 -19 19v161c0 10 9 19 19 19h34c13 0 22 -11 18 -25l-28 -159c-2 -8 -11 -15 -18 -15h-6zM68 501c-10 0 -19 9 -19 19v161c0 10 9 19 19 19h34c13 0 22 -11 18 -25l-28 -159c-2 -8 -11 -15 -18 -15h-6z" />
    <glyph glyph-name="numbersign" unicode="#" horiz-adv-x="542" 
d="M106 22l25 173h-70c-11 0 -19 9 -19 19v7c0 11 8 19 19 19h77l24 171h-72c-10 0 -19 9 -19 19v7c0 10 9 19 19 19h78l32 228c1 8 9 16 18 16h7c11 0 20 -10 18 -22l-30 -222h151l31 228c1 8 10 16 19 16h6c12 0 21 -10 19 -22l-30 -222h70c11 0 19 -9 19 -19v-7
c0 -10 -6 -19 -17 -19h-78l-24 -171h71c10 0 19 -8 19 -19v-7c0 -10 -7 -19 -17 -19h-80l-26 -179c-1 -9 -9 -16 -19 -16h-6c-12 0 -20 10 -19 22l26 173h-153l-25 -179c-1 -9 -10 -16 -19 -16h-6c-13 0 -21 10 -19 22zM182 240h153l23 171h-151z" />
    <glyph glyph-name="dollar" unicode="$" horiz-adv-x="524" 
d="M58 71c-8 7 -18 15 -6 34c16 19 29 46 50 28c6 -6 65 -63 142 -74v260c-106 42 -175 87 -188 177c-2 11 -2 23 -2 36c0 64 53 166 190 177v32c0 11 9 19 19 19h7c10 0 18 -8 18 -19v-32c87 -7 150 -50 150 -50c6 -3 18 -15 6 -34c-17 -26 -23 -42 -47 -28
c-6 3 -56 36 -109 44l-1 -259c121 -52 198 -103 198 -212c0 -99 -92 -172 -198 -179v-104c0 -12 -11 -18 -22 -18c-10 0 -21 6 -21 18v104c-105 9 -174 69 -186 80zM244 400v242c-85 -9 -116 -70 -116 -109c0 -62 43 -100 116 -133zM287 58c67 6 118 54 118 109
c0 56 -40 94 -118 132v-241z" />
    <glyph glyph-name="percent" unicode="%" horiz-adv-x="675" 
d="M170 441c-75 0 -135 60 -135 135s60 135 135 135c74 0 135 -60 135 -135s-61 -135 -135 -135zM128 27l343 663c4 7 9 10 17 10h16c15 0 24 -14 17 -27l-345 -663c-2 -4 -8 -10 -17 -10h-14c-15 0 -24 14 -17 27zM170 498c41 0 76 34 76 78c0 41 -35 76 -76 76
c-44 0 -78 -35 -78 -76c0 -44 34 -78 78 -78zM351 124c0 75 60 135 135 135c74 0 135 -60 135 -135s-61 -135 -135 -135c-75 0 -135 60 -135 135zM408 124c0 -44 34 -78 78 -78c41 0 76 34 76 78c0 41 -35 76 -76 76c-44 0 -78 -35 -78 -76z" />
    <glyph glyph-name="ampersand" unicode="&#x26;" horiz-adv-x="666" 
d="M82 174c0 108 85 168 139 200v2l-24 26c-39 41 -72 86 -70 146c0 76 56 162 177 162c108 0 169 -71 169 -154c0 -89 -90 -156 -148 -192l165 -165c26 53 40 114 40 178c0 22 8 23 23 23h24c21 0 19 -15 19 -23c0 -77 -22 -159 -59 -225l96 -96c12 -13 20 -23 -1 -46
l-12 -11c-12 -11 -27 -13 -42 3l-85 88c-54 -61 -128 -100 -218 -100c-126 0 -193 86 -193 184zM280 410c45 27 123 72 123 144c0 48 -37 97 -105 97c-66 0 -104 -47 -104 -105c-2 -43 26 -77 64 -114zM152 173c0 -70 56 -121 126 -121c69 0 128 33 171 85l-185 194
c-46 -28 -112 -79 -112 -158z" />
    <glyph glyph-name="quotesingle" unicode="'" horiz-adv-x="156" 
d="M68 501c-10 0 -19 9 -19 19v161c0 10 9 19 19 19h34c13 0 22 -11 18 -25l-28 -159c-2 -8 -11 -15 -18 -15h-6z" />
    <glyph glyph-name="parenleft" unicode="(" horiz-adv-x="344" 
d="M294 -78c-114 6 -236 99 -236 393s122 387 236 393c11 1 17 -2 18 -10l2 -27c2 -9 -3 -16 -10 -17c-126 -25 -176 -143 -176 -339s50 -314 176 -339c7 -1 12 -8 10 -17l-2 -27c-1 -8 -7 -11 -18 -10z" />
    <glyph glyph-name="parenright" unicode=")" horiz-adv-x="344" 
d="M40 -24c126 25 176 143 176 339s-50 314 -176 339c-7 1 -12 8 -10 17l2 27c1 8 7 11 18 10c114 -6 236 -99 236 -393s-122 -387 -236 -393c-11 -1 -17 2 -18 10l-2 27c-2 9 3 16 10 17z" />
    <glyph glyph-name="asterisk" unicode="*" horiz-adv-x="328" 
d="M157 415c-10 0 -19 9 -19 19l2 82l-67 -48c-8 -6 -21 -3 -26 6l-7 10c-6 9 -3 21 5 27l75 47l-77 47c-8 6 -10 18 -5 26c3 4 5 7 8 11c5 8 17 12 25 6l69 -49l-2 83c0 10 9 18 19 18h13c10 0 19 -8 19 -18l-2 -82l67 50c9 5 20 2 26 -6l7 -11c5 -9 4 -20 -5 -26l-77 -49
l78 -49c9 -6 11 -18 6 -26l-7 -11c-6 -9 -18 -11 -27 -6l-68 49l2 -81c0 -10 -9 -19 -19 -19h-13z" />
    <glyph glyph-name="plus" unicode="+" horiz-adv-x="501" 
d="M217 157v157h-157c-10 0 -19 9 -19 19v28c0 10 9 19 19 19h157v158c0 10 9 18 19 18h28c10 0 19 -8 19 -18v-158h158c10 0 18 -9 18 -19v-28c0 -10 -8 -19 -18 -19h-158v-157c0 -10 -9 -18 -19 -18h-28c-10 0 -19 8 -19 18z" />
    <glyph glyph-name="comma" unicode="," horiz-adv-x="233" 
d="M55 47c0 32 26 57 57 57c32 0 66 -18 66 -90c0 -83 -52 -155 -84 -185c-10 -9 -18 -8 -24 -2l-14 14c-5 5 -4 15 6 24s62 53 62 126c-4 -1 -8 -1 -12 -1c-31 0 -57 26 -57 57z" />
    <glyph glyph-name="hyphen" unicode="-" horiz-adv-x="413" 
d="M102 220c-11 0 -19 8 -19 18v19c0 11 8 19 19 19h209c11 0 19 -8 19 -19v-19c0 -10 -8 -18 -19 -18h-209z" />
    <glyph glyph-name="period" unicode="." horiz-adv-x="226" 
d="M56 47c0 32 26 57 57 57c32 0 57 -25 57 -57c0 -31 -25 -57 -57 -57c-31 0 -57 26 -57 57z" />
    <glyph glyph-name="slash" unicode="/" horiz-adv-x="320" 
d="M40 25l196 662c2 7 10 13 18 13h22c14 0 22 -11 18 -25l-195 -662c-2 -7 -11 -13 -18 -13h-23c-13 0 -22 11 -18 25z" />
    <glyph glyph-name="zero" unicode="0" horiz-adv-x="632" 
d="M316 -10c-155 0 -243 131 -243 350s88 350 243 350s243 -131 243 -350s-88 -350 -243 -350zM316 55c110 0 172 102 172 285c0 181 -62 285 -172 285s-172 -104 -172 -285c0 -183 62 -285 172 -285z" />
    <glyph glyph-name="one" unicode="1" horiz-adv-x="326" 
d="M149 19v537l-72 -56c-8 -6 -16 -7 -23 1l-19 21c-7 8 -3 17 2 22l140 136h27c10 0 18 -9 18 -19v-642c0 -10 -8 -19 -18 -19h-36c-11 0 -19 9 -19 19z" />
    <glyph glyph-name="two" unicode="2" horiz-adv-x="519" 
d="M42 19v30c82 88 163 177 245 265c68 74 101 134 101 181c0 57 -37 127 -140 127c-62 0 -111 -42 -142 -75c-8 -8 -19 -8 -27 0l-20 19c-6 7 -8 18 -1 26c0 0 71 98 190 98c143 0 216 -91 216 -193c0 -88 -56 -153 -125 -227c-64 -68 -128 -137 -192 -205h294
c10 0 19 -9 19 -19v-27c0 -10 -9 -19 -19 -19h-380c-11 0 -19 9 -19 19z" />
    <glyph glyph-name="three" unicode="3" horiz-adv-x="532" 
d="M47 79c-6 7 -7 18 1 24l27 23c11 8 19 6 27 -5c9 -11 63 -69 149 -69c76 0 144 46 144 125c0 68 -53 131 -177 131h-56c-11 0 -19 6 -19 22v24c0 16 5 22 21 22h55c107 0 159 55 159 121c0 79 -60 127 -131 127c-68 0 -109 -40 -131 -65c-6 -7 -16 -11 -26 -2l-24 19
c-8 7 -7 19 0 26c0 0 72 88 181 88c121 0 206 -71 206 -183c0 -77 -58 -137 -103 -158v-3c47 -20 120 -76 120 -162c0 -109 -84 -194 -222 -194c-123 0 -179 64 -201 89z" />
    <glyph glyph-name="four" unicode="4" horiz-adv-x="586" 
d="M35 154c-11 0 -19 9 -19 19v37l379 475c3 3 6 6 15 6h20c10 0 19 -8 19 -19l1 -457h81c11 0 19 -8 19 -18v-22c0 -10 -8 -19 -19 -19h-81v-137c0 -10 -9 -19 -19 -19h-34c-10 0 -19 9 -19 19v135h-343zM100 216h282v348z" />
    <glyph glyph-name="five" unicode="5" horiz-adv-x="533" 
d="M67 73c-13 15 -14 22 -2 34c8 7 15 15 23 22c9 8 17 10 25 -1c10 -14 58 -74 148 -74c96 0 157 85 157 164c0 78 -50 144 -157 144h-152c-20 0 -31 19 -31 35v264c0 10 8 19 19 19h302c11 0 19 -9 19 -19v-29c0 -10 -8 -19 -19 -19h-254v-184h116c151 0 231 -79 231 -210
c0 -125 -97 -229 -232 -229c-111 0 -168 53 -193 83z" />
    <glyph glyph-name="six" unicode="6" horiz-adv-x="543" 
d="M53 275c0 266 228 388 329 428c10 4 18 -1 22 -10l11 -24c5 -12 1 -23 -18 -29c-45 -15 -222 -114 -257 -249c0 0 66 45 152 45c113 0 215 -84 215 -217c0 -126 -101 -229 -221 -229c-162 0 -233 126 -233 285zM286 56c84 0 150 73 150 159c0 87 -67 156 -151 156
c-93 0 -158 -65 -158 -65c-17 -100 22 -250 159 -250z" />
    <glyph glyph-name="seven" unicode="7" horiz-adv-x="474" 
d="M91 19v11l279 583h-327c-10 0 -19 9 -19 19v29c0 10 9 19 19 19h402c10 0 19 -9 19 -19v-7l-292 -628c-4 -9 -14 -26 -33 -26h-29c-10 0 -19 9 -19 19z" />
    <glyph glyph-name="eight" unicode="8" horiz-adv-x="573" 
d="M62 183c0 86 74 147 121 167v3c-45 21 -103 77 -103 154c0 110 87 183 206 183c121 0 208 -73 208 -183c0 -77 -58 -133 -103 -154v-3c47 -20 121 -81 121 -167c0 -109 -85 -193 -227 -193c-138 0 -223 84 -223 193zM287 385c92 9 133 57 133 119c0 75 -58 126 -137 126
c-72 0 -129 -51 -129 -126c0 -62 40 -110 133 -119zM137 176c0 -77 69 -126 148 -126c86 0 152 47 152 126c0 62 -55 125 -150 135c-96 -10 -150 -73 -150 -135z" />
    <glyph glyph-name="nine" unicode="9" horiz-adv-x="543" 
d="M128 17c-5 12 -1 23 18 29c45 15 222 114 257 249c0 0 -66 -45 -152 -45c-113 0 -215 84 -215 217c0 126 101 229 221 229c162 0 233 -126 233 -285c0 -266 -228 -388 -329 -428c-10 -4 -18 1 -22 10zM258 315c93 0 158 65 158 65c17 100 -22 250 -159 250
c-84 0 -150 -73 -150 -159c0 -87 67 -156 151 -156z" />
    <glyph glyph-name="colon" unicode=":" horiz-adv-x="256" 
d="M128 296c-31 0 -57 26 -57 57c0 32 26 57 57 57c32 0 57 -25 57 -57c0 -31 -25 -57 -57 -57zM71 47c0 32 26 57 57 57c32 0 57 -25 57 -57c0 -31 -25 -57 -57 -57c-31 0 -57 26 -57 57z" />
    <glyph glyph-name="semicolon" unicode=";" horiz-adv-x="259" 
d="M127 296c-31 0 -57 26 -57 57c0 32 26 57 57 57c32 0 57 -25 57 -57c0 -31 -25 -57 -57 -57zM70 47c0 32 26 57 57 57c32 0 66 -18 66 -90c0 -83 -52 -155 -84 -185c-10 -9 -18 -8 -24 -2l-14 14c-5 5 -4 15 6 24s62 53 62 126c-4 -1 -8 -1 -12 -1c-31 0 -57 26 -57 57z
" />
    <glyph glyph-name="less" unicode="&#x3c;" horiz-adv-x="439" 
d="M35 210c-5 3 -10 11 -10 17v5c0 6 5 14 10 17l340 212c13 8 28 0 28 -16v-36c0 -6 -3 -14 -11 -19l-261 -160l261 -154c10 -6 11 -13 11 -19v-36c0 -16 -15 -24 -28 -16z" />
    <glyph glyph-name="equal" unicode="=" horiz-adv-x="510" 
d="M105 351c-11 0 -19 9 -19 19v30c0 10 8 19 19 19h299c11 0 19 -9 19 -19v-30c0 -10 -8 -19 -19 -19h-299zM105 140c-11 0 -19 9 -19 19v31c0 10 8 19 19 19h299c11 0 19 -9 19 -19v-31c0 -10 -8 -19 -19 -19h-299z" />
    <glyph glyph-name="greater" unicode="&#x3e;" horiz-adv-x="439" 
d="M36 21v36c0 6 3 15 11 19l261 154l-261 160c-9 6 -11 13 -11 19v36c0 16 15 24 28 16l340 -212c5 -3 10 -11 10 -17v-5c0 -6 -5 -14 -10 -17l-340 -205c-13 -8 -28 0 -28 16z" />
    <glyph glyph-name="question" unicode="?" horiz-adv-x="461" 
d="M201 272c-10 0 -19 8 -19 19v42c0 124 150 114 150 227c0 47 -34 88 -99 88c-81 0 -118 -47 -138 -68c-9 -9 -17 -9 -26 -1l-19 17c-8 7 -6 18 0 26c0 0 57 88 183 88c104 0 174 -61 174 -153c0 -131 -158 -142 -158 -224v-41c0 -14 -11 -20 -21 -20h-27zM156 47
c0 32 26 57 57 57c32 0 57 -25 57 -57c0 -31 -25 -57 -57 -57c-31 0 -57 26 -57 57z" />
    <glyph glyph-name="at" unicode="@" horiz-adv-x="981" 
d="M43 223c0 284 179 487 460 487c268 0 422 -181 422 -422c0 -132 -51 -298 -209 -298c-69 0 -104 36 -115 78h-8c-21 -42 -65 -78 -126 -78c-101 0 -175 83 -175 211c0 133 75 209 178 209c80 0 115 -53 115 -53c7 28 6 43 34 43h10c10 0 19 -9 19 -19v-213
c0 -97 27 -122 72 -122c77 0 143 87 143 242c0 205 -123 366 -362 366c-240 0 -395 -164 -395 -431c0 -190 110 -324 264 -390c15 -7 15 -11 9 -25l-11 -27c-4 -9 -11 -12 -20 -8c-178 75 -305 233 -305 450zM356 200c0 -94 55 -144 117 -144c66 0 97 48 108 94v142
s-33 56 -107 56c-67 0 -118 -52 -118 -148z" />
    <glyph glyph-name="A" unicode="A" horiz-adv-x="663" 
d="M23 0c-15 0 -23 13 -17 26l304 673c3 6 8 11 17 11h10c9 0 14 -5 17 -11l302 -673c6 -13 -2 -26 -17 -26h-40c-9 0 -15 6 -17 11l-74 165h-355l-73 -165c-2 -5 -8 -11 -17 -11h-40zM181 238h300c-49 109 -97 219 -146 328h-8z" />
    <glyph glyph-name="B" unicode="B" horiz-adv-x="625" 
d="M102 19v662c0 10 8 19 19 19h219c122 0 205 -79 205 -184c0 -77 -51 -133 -98 -160c53 -22 120 -71 120 -163c0 -112 -89 -193 -218 -193h-228c-11 0 -19 9 -19 19zM177 386h163c77 0 120 55 120 125c0 72 -43 120 -120 120h-163v-245zM175 67h182c73 0 126 55 126 127
c0 71 -65 123 -143 123h-165v-250z" />
    <glyph glyph-name="C" unicode="C" horiz-adv-x="707" 
d="M51 349c0 200 161 361 361 361c101 0 174 -35 242 -93c8 -8 9 -20 1 -28l-27 -27c-8 -10 -16 -9 -26 1c-52 45 -123 75 -191 75c-158 0 -279 -133 -279 -288c0 -154 121 -287 279 -287c87 0 138 35 191 75c10 8 18 7 24 3l30 -27c8 -6 6 -20 -1 -27
c-68 -66 -154 -97 -243 -97c-200 0 -361 159 -361 359z" />
    <glyph glyph-name="D" unicode="D" horiz-adv-x="747" 
d="M102 19v662c0 10 8 19 18 19h224c193 0 351 -157 351 -349c0 -194 -158 -351 -351 -351h-224c-10 0 -18 9 -18 19zM178 69h150c164 0 283 117 283 282c0 164 -119 281 -283 281h-150v-563z" />
    <glyph glyph-name="E" unicode="E" horiz-adv-x="592" 
d="M102 19v662c0 10 8 19 19 19h394c11 0 19 -9 19 -19v-29c0 -10 -8 -19 -19 -19h-336v-244h287c10 0 19 -9 19 -19v-29c0 -11 -9 -19 -19 -19h-287v-255h336c11 0 19 -9 19 -19v-29c0 -10 -8 -19 -19 -19h-394c-11 0 -19 9 -19 19z" />
    <glyph glyph-name="F" unicode="F" horiz-adv-x="569" 
d="M102 19v662c0 10 8 19 19 19h394c11 0 19 -9 19 -19v-29c0 -10 -8 -19 -19 -19h-336v-274h287c10 0 19 -9 19 -19v-29c0 -10 -9 -19 -19 -19h-287v-273c0 -10 -9 -19 -19 -19h-39c-11 0 -19 9 -19 19z" />
    <glyph glyph-name="G" unicode="G" horiz-adv-x="732" 
d="M51 349c0 200 161 361 361 361c101 0 174 -35 242 -93c8 -8 9 -20 1 -28c-9 -9 -20 -19 -28 -28c-9 -10 -15 -9 -26 1c-51 45 -123 78 -190 78c-158 0 -278 -132 -278 -287c0 -154 120 -289 278 -289c110 0 180 42 180 42v140h-115c-11 0 -19 8 -19 18v37
c0 11 8 19 19 19h173c10 0 18 -9 18 -19v-229c0 -5 -4 -13 -8 -16c0 0 -102 -66 -247 -66c-200 0 -361 159 -361 359z" />
    <glyph glyph-name="H" unicode="H" horiz-adv-x="764" 
d="M102 19v662c0 10 9 19 19 19h39c11 0 19 -9 19 -19v-292h406v292c0 10 8 19 19 19h39c10 0 19 -9 19 -19v-662c0 -10 -9 -19 -19 -19h-39c-11 0 -19 9 -19 19v303h-406v-303c0 -10 -8 -19 -19 -19h-39c-10 0 -19 9 -19 19z" />
    <glyph glyph-name="I" unicode="I" horiz-adv-x="282" 
d="M102 19v662c0 10 9 19 19 19h40c10 0 19 -9 19 -19v-662c0 -10 -9 -19 -19 -19h-40c-10 0 -19 9 -19 19z" />
    <glyph glyph-name="J" unicode="J" horiz-adv-x="405" 
d="M-20 64c-5 8 -4 18 2 25l21 24c16 15 24 8 34 -3c17 -19 53 -53 97 -53c60 0 122 44 122 150v474c0 10 8 19 19 19h39c11 0 19 -9 19 -19v-472c0 -139 -84 -219 -201 -219c-87 0 -135 53 -152 74z" />
    <glyph glyph-name="K" unicode="K" horiz-adv-x="618" 
d="M102 24v652c0 13 10 24 24 24h29c13 0 24 -11 24 -24v-283l312 297c4 5 13 10 19 10h49c18 0 28 -20 12 -35l-316 -295l331 -339c7 -7 5 -31 -17 -31h-51c-7 0 -16 4 -18 7l-321 335v-318c0 -13 -11 -24 -24 -24h-29c-14 0 -24 11 -24 24z" />
    <glyph glyph-name="L" unicode="L" horiz-adv-x="491" 
d="M102 19v662c0 10 8 19 19 19h39c10 0 19 -9 19 -19v-614h288c11 0 19 -9 19 -19v-29c0 -10 -8 -19 -19 -19h-346c-11 0 -19 9 -19 19z" />
    <glyph glyph-name="M" unicode="M" horiz-adv-x="862" 
d="M52 24l129 672c2 8 10 14 18 14h16c7 0 15 -5 17 -11l198 -551h5l195 551c2 6 10 11 17 11h16c8 0 16 -6 18 -14l129 -672c3 -14 -3 -24 -18 -24h-40c-8 0 -16 7 -18 14l-89 515h-4l-184 -528c-2 -6 -11 -11 -17 -11h-18c-6 0 -15 5 -17 11l-186 528h-4l-87 -515
c-1 -7 -10 -14 -18 -14h-40c-15 0 -21 10 -18 24z" />
    <glyph glyph-name="N" unicode="N" horiz-adv-x="774" 
d="M102 19v673c0 10 9 18 19 18h25l451 -562h2v533c0 10 8 19 19 19h35c10 0 19 -9 19 -19v-673c0 -10 -9 -18 -19 -18h-18l-459 573h-1v-544c0 -10 -8 -19 -19 -19h-35c-10 0 -19 9 -19 19z" />
    <glyph glyph-name="O" unicode="O" horiz-adv-x="821" 
d="M51 349c0 200 159 361 359 361s360 -161 360 -361s-160 -359 -360 -359s-359 159 -359 359zM121 349c0 -159 130 -289 289 -289s290 130 290 289s-131 291 -290 291s-289 -132 -289 -291z" />
    <glyph glyph-name="P" unicode="P" horiz-adv-x="596" 
d="M102 19v662c0 10 8 19 19 19h221c123 0 224 -100 224 -221c0 -124 -101 -225 -223 -225h-165v-235c0 -10 -9 -19 -19 -19h-38c-11 0 -19 9 -19 19zM178 328h159c82 0 152 67 152 153c0 81 -70 143 -152 143h-159v-296z" />
    <glyph glyph-name="Q" unicode="Q" horiz-adv-x="822" 
d="M51 349c0 200 159 361 359 361s360 -161 360 -361c0 -148 -87 -273 -213 -329l117 -188c9 -14 0 -30 -16 -30h-50c-4 0 -12 3 -16 10l-109 184c-22 -4 -50 -6 -73 -6c-200 0 -359 159 -359 359zM121 349c0 -159 130 -289 289 -289s290 130 290 289s-131 291 -290 291
s-289 -132 -289 -291z" />
    <glyph glyph-name="R" unicode="R" horiz-adv-x="661" 
d="M102 19v662c0 10 8 19 19 19h259c120 0 218 -94 218 -213c0 -92 -61 -169 -148 -204l137 -254c7 -13 0 -29 -17 -29h-51c-9 0 -14 5 -16 9l-133 265h-191v-255c0 -10 -9 -19 -19 -19h-39c-11 0 -19 9 -19 19zM181 340h194c77 0 144 64 144 146c0 76 -67 141 -144 141
h-194v-287z" />
    <glyph glyph-name="S" unicode="S" horiz-adv-x="533" 
d="M63 71c-8 7 -18 15 -6 34c5 6 10 13 15 19c10 13 21 21 35 9c7 -6 80 -76 169 -76c81 0 134 51 134 110c0 69 -60 110 -175 158c-110 48 -176 93 -176 207c0 68 54 178 213 178c98 0 171 -51 171 -51c6 -3 18 -15 6 -34c-4 -6 -8 -13 -12 -19c-9 -14 -19 -18 -35 -9
c-7 4 -70 46 -131 46c-106 0 -138 -68 -138 -110c0 -67 51 -106 135 -141c135 -55 222 -106 222 -222c0 -104 -99 -180 -216 -180c-118 0 -198 69 -211 81z" />
    <glyph glyph-name="T" unicode="T" horiz-adv-x="478" 
d="M201 19v614h-174c-11 0 -19 9 -19 19v29c0 10 8 19 19 19h424c11 0 19 -9 19 -19v-29c0 -10 -8 -19 -19 -19h-174v-614c0 -10 -9 -19 -19 -19h-38c-10 0 -19 9 -19 19z" />
    <glyph glyph-name="U" unicode="U" horiz-adv-x="716" 
d="M93 258v423c0 10 9 19 19 19h38c11 0 19 -9 19 -19v-417c0 -114 71 -203 188 -203c118 0 190 87 190 201v419c0 10 8 19 19 19h38c10 0 19 -9 19 -19v-423c0 -152 -108 -268 -266 -268c-157 0 -264 116 -264 268z" />
    <glyph glyph-name="V" unicode="V" horiz-adv-x="664" 
d="M309 1l-302 673c-6 13 2 26 17 26h40c9 0 15 -6 17 -11l249 -560h4l249 560c2 5 9 11 17 11h40c15 0 23 -13 17 -26l-304 -673c-3 -6 -9 -11 -17 -11h-10c-7 0 -14 5 -17 11z" />
    <glyph glyph-name="W" unicode="W" horiz-adv-x="902" 
d="M226 4l-189 672c-4 14 4 24 18 24h42c8 0 16 -7 18 -14l139 -518h4l167 531c2 6 8 11 17 11h18c8 0 15 -5 17 -11l170 -531h4l136 518c2 7 10 14 18 14h42c14 0 22 -10 18 -24l-189 -672c-2 -8 -10 -14 -18 -14h-16c-7 0 -14 5 -17 11l-173 541h-5l-170 -541
c-3 -6 -10 -11 -17 -11h-16c-8 0 -16 6 -18 14z" />
    <glyph glyph-name="X" unicode="X" horiz-adv-x="583" 
d="M40 28l203 331l-195 313c-8 13 0 28 17 28h54c7 0 14 -4 17 -9l154 -265h1l156 265c3 5 9 9 17 9h54c17 0 25 -15 17 -28l-195 -313l202 -331c8 -14 0 -28 -17 -28h-46c-8 0 -15 5 -17 9l-171 283h-1l-169 -283c-3 -5 -9 -9 -17 -9h-46c-18 0 -26 15 -18 28z" />
    <glyph glyph-name="Y" unicode="Y" horiz-adv-x="565" 
d="M243 19v318l-241 334c-8 13 0 29 16 29h47c7 0 13 -5 16 -9l202 -279l202 279c3 4 9 9 16 9h47c16 0 24 -16 16 -29l-244 -333v-319c0 -10 -9 -19 -19 -19h-39c-11 0 -19 9 -19 19z" />
    <glyph glyph-name="Z" unicode="Z" horiz-adv-x="534" 
d="M30 19v18l363 590v3h-315c-10 0 -19 9 -19 19v32c0 10 9 19 19 19h405c10 0 19 -9 19 -19v-13l-369 -597v-1h330c11 0 19 -9 19 -19v-32c0 -10 -8 -19 -19 -19h-414c-10 0 -19 9 -19 19z" />
    <glyph glyph-name="bracketleft" unicode="[" horiz-adv-x="327" 
d="M146 -237h137c10 0 19 -8 19 -18v-26c0 -10 -9 -19 -19 -19h-186c-10 0 -19 9 -19 19v962c0 10 9 19 19 19h186c10 0 19 -9 19 -19v-25c0 -11 -9 -19 -19 -19h-137v-874z" />
    <glyph glyph-name="backslash" unicode="\" horiz-adv-x="330" 
d="M221 13l-195 662c-4 14 4 25 18 25h32c8 0 16 -6 18 -13l196 -662c4 -14 -5 -25 -18 -25h-33c-7 0 -16 6 -18 13z" />
    <glyph glyph-name="bracketright" unicode="]" horiz-adv-x="327" 
d="M44 -237h137v874h-137c-10 0 -19 8 -19 19v25c0 10 9 19 19 19h186c10 0 19 -9 19 -19v-962c0 -10 -9 -19 -19 -19h-186c-10 0 -19 9 -19 19v26c0 10 9 18 19 18z" />
    <glyph glyph-name="asciicircum" unicode="^" horiz-adv-x="524" 
d="M60 398c-16 0 -24 15 -16 28l201 278c3 5 11 10 17 10h5c6 0 14 -5 17 -10l196 -278c8 -13 0 -28 -16 -28h-33c-10 0 -16 6 -19 11l-149 211l-151 -211c-5 -7 -11 -11 -19 -11h-33z" />
    <glyph glyph-name="underscore" unicode="_" horiz-adv-x="387" 
d="M25 -29c0 11 8 19 19 19h299c11 0 19 -8 19 -19v-16c0 -10 -8 -18 -19 -18h-299c-11 0 -19 8 -19 18v16z" />
    <glyph glyph-name="grave" unicode="`" horiz-adv-x="302" 
d="M237 559l-161 67c-8 3 -10 13 -6 21l18 36c5 9 20 7 26 3l150 -84c6 -3 10 -11 6 -19l-10 -22c-4 -8 -9 -8 -23 -2z" />
    <glyph glyph-name="a" unicode="a" horiz-adv-x="420" 
d="M42 121c0 76 57 133 160 133c43 0 85 -13 85 -13c1 74 -8 108 -65 108c-55 0 -102 -15 -120 -22c-10 -4 -16 1 -19 10l-8 25c-4 12 2 18 11 22c6 3 64 26 139 26c102 0 127 -52 127 -169v-222c0 -10 -9 -19 -19 -19h-19c-11 0 -14 6 -17 15l-8 27
c-21 -21 -62 -52 -124 -52c-70 0 -123 51 -123 131zM106 121c0 -40 27 -71 70 -71c50 0 93 31 110 56v79c-12 7 -40 16 -84 16c-56 0 -96 -28 -96 -80z" />
    <glyph glyph-name="b" unicode="b" 
d="M72 19v662c0 10 9 19 19 19h31c10 0 19 -9 19 -19v-297s41 26 107 26c120 0 192 -92 192 -209c0 -115 -80 -211 -182 -211c-75 0 -123 53 -123 53l-6 -27c-2 -9 -8 -16 -17 -16h-21c-10 0 -19 9 -19 19zM142 119c0 0 37 -66 109 -66c73 0 119 69 119 147
c0 80 -44 143 -131 143c-55 0 -97 -24 -97 -24v-200z" />
    <glyph glyph-name="c" unicode="c" horiz-adv-x="441" 
d="M41 199c0 118 97 211 206 211c60 0 107 -24 143 -70c7 -9 5 -21 -4 -28l-19 -16c-15 -14 -20 -4 -29 4c-20 23 -53 42 -92 42c-75 0 -133 -62 -133 -142s57 -144 132 -144c60 0 83 30 106 52c12 12 19 10 30 2l11 -8c10 -7 13 -18 7 -28c-30 -48 -85 -84 -153 -84
c-111 0 -205 89 -205 209z" />
    <glyph glyph-name="d" unicode="d" 
d="M42 201c0 117 72 209 192 209c66 0 107 -26 107 -26v297c0 10 9 19 19 19h31c10 0 19 -9 19 -19v-662c0 -10 -9 -19 -19 -19h-21c-9 0 -15 7 -17 16l-6 27s-48 -53 -123 -53c-102 0 -182 96 -182 211zM112 200c0 -78 46 -147 119 -147c72 0 109 66 109 66v200
s-42 24 -97 24c-87 0 -131 -63 -131 -143z" />
    <glyph glyph-name="e" unicode="e" horiz-adv-x="457" 
d="M42 200c0 113 75 210 196 210c105 0 181 -78 181 -183c0 -7 -1 -20 -2 -27c-1 -10 -9 -17 -18 -17h-288c4 -67 63 -130 134 -130c42 0 76 16 99 30c14 8 20 13 28 2c6 -8 11 -15 17 -23c7 -9 11 -15 -4 -26c-24 -19 -78 -46 -147 -46c-121 0 -196 95 -196 210zM112 239
h238c-3 58 -51 110 -112 110c-67 0 -119 -48 -126 -110z" />
    <glyph glyph-name="f" unicode="f" horiz-adv-x="320" 
d="M103 19v321h-61c-11 0 -19 9 -19 19v22c0 11 8 19 19 19h61v140c0 116 67 170 153 170c55 0 92 -24 110 -41c7 -6 8 -16 4 -23l-16 -26c-6 -10 -16 -9 -26 -1c-13 10 -43 29 -73 29c-46 0 -83 -31 -83 -108v-140h116c11 0 19 -8 19 -19v-22c0 -10 -8 -19 -19 -19h-116
v-321c0 -10 -9 -19 -19 -19h-31c-10 0 -19 9 -19 19z" />
    <glyph glyph-name="g" unicode="g" horiz-adv-x="459" 
d="M31 19c0 76 67 115 67 115s-32 41 -32 100c0 93 65 176 169 176h169c11 0 19 -8 19 -19v-17c0 -7 -4 -16 -11 -17l-54 -11s45 -33 45 -112c0 -91 -65 -170 -168 -170c-64 0 -95 25 -95 25s-44 -20 -44 -60c0 -25 18 -49 55 -49h144c84 0 150 -41 150 -128
c0 -83 -86 -162 -207 -162c-134 0 -192 72 -192 138c0 60 48 87 58 93v3c-26 7 -73 33 -73 95zM236 124c60 0 100 46 100 112s-40 112 -100 112c-61 0 -105 -46 -105 -112s44 -112 105 -112zM117 -162c0 -48 52 -83 120 -83c66 0 134 37 134 95c0 13 -6 65 -76 65h-111
c0 0 -67 -18 -67 -77z" />
    <glyph glyph-name="h" unicode="h" horiz-adv-x="496" 
d="M72 19v662c0 10 9 19 19 19h31c10 0 19 -9 19 -19v-324s53 53 134 53c99 0 155 -63 155 -180v-211c0 -10 -9 -19 -19 -19h-32c-10 0 -19 9 -19 19v211c0 76 -34 113 -90 113c-76 0 -129 -56 -129 -56v-268c0 -10 -9 -19 -19 -19h-31c-10 0 -19 9 -19 19z" />
    <glyph glyph-name="i" unicode="i" horiz-adv-x="211" 
d="M104 585c-26 0 -47 21 -47 47c0 27 21 48 47 48c27 0 48 -21 48 -48c0 -26 -21 -47 -48 -47zM71 19v362c0 10 9 19 19 19h31c10 0 19 -9 19 -19v-362c0 -10 -9 -19 -19 -19h-31c-10 0 -19 9 -19 19z" />
    <glyph glyph-name="j" unicode="j" horiz-adv-x="213" 
d="M106 585c-26 0 -47 21 -47 47c0 27 21 48 47 48c27 0 48 -21 48 -48c0 -26 -21 -47 -48 -47zM72 -140v521c0 11 9 19 19 19h31c10 0 19 -8 19 -19v-521c0 -116 -67 -170 -153 -170c-55 0 -92 24 -110 41c-7 6 -8 16 -4 23l16 26c6 10 16 9 26 1c13 -10 48 -29 73 -29
c46 0 83 31 83 108z" />
    <glyph glyph-name="k" unicode="k" horiz-adv-x="448" 
d="M72 19v662c0 10 9 19 19 19h31c10 0 19 -9 19 -19v-433l170 140c8 7 16 12 24 12h54c17 0 16 -19 9 -25l-190 -152l221 -198c8 -7 7 -25 -10 -25h-55c-9 0 -16 5 -20 8l-203 193v-182c0 -10 -9 -19 -19 -19h-31c-10 0 -19 9 -19 19z" />
    <glyph glyph-name="l" unicode="l" horiz-adv-x="213" 
d="M72 19v662c0 10 9 19 19 19h31c10 0 19 -9 19 -19v-662c0 -10 -9 -19 -19 -19h-31c-10 0 -19 9 -19 19z" />
    <glyph glyph-name="m" unicode="m" horiz-adv-x="762" 
d="M71 19v362c0 10 9 19 19 19h19c9 0 14 -4 16 -12l9 -31s47 53 130 53c59 0 102 -23 128 -65c5 4 69 65 149 65c116 0 155 -76 155 -180v-211c0 -10 -9 -19 -19 -19h-32c-10 0 -19 9 -19 19v211c0 75 -32 113 -90 113c-65 0 -108 -43 -122 -56c3 -17 5 -36 5 -57v-211
c0 -10 -9 -19 -19 -19h-32c-10 0 -19 9 -19 19v211c0 76 -34 113 -95 113c-71 0 -114 -57 -114 -57v-267c0 -10 -9 -19 -19 -19h-31c-10 0 -19 9 -19 19z" />
    <glyph glyph-name="n" unicode="n" horiz-adv-x="495" 
d="M71 19v362c0 10 9 19 19 19h19c9 0 14 -4 16 -12l9 -31s57 53 140 53c116 0 155 -76 155 -180v-211c0 -10 -9 -19 -19 -19h-32c-10 0 -19 9 -19 19v211c0 76 -34 113 -90 113c-75 0 -129 -57 -129 -57v-267c0 -10 -9 -19 -19 -19h-31c-10 0 -19 9 -19 19z" />
    <glyph glyph-name="o" unicode="o" 
d="M42 201c0 113 88 209 199 209s199 -96 199 -209c0 -115 -88 -211 -199 -211s-199 96 -199 211zM111 201c0 -81 57 -146 130 -146s130 65 130 146c0 79 -57 143 -130 143s-130 -64 -130 -143z" />
    <glyph glyph-name="p" unicode="p" 
d="M141 23v-304c0 -10 -9 -19 -19 -19h-31c-10 0 -19 9 -19 19v662c0 10 9 19 19 19h21c9 0 12 -3 16 -13l7 -19s44 42 116 42c109 0 189 -96 189 -211c0 -117 -82 -209 -192 -209c-66 0 -107 33 -107 33zM142 92c0 0 42 -35 97 -35c77 0 131 63 131 143
c0 78 -46 147 -126 147c-65 0 -102 -49 -102 -49v-206z" />
    <glyph glyph-name="q" unicode="q" 
d="M42 199c0 115 80 211 189 211c72 0 116 -42 116 -42l7 18c3 8 8 14 19 14h18c10 0 19 -9 19 -19v-662c0 -10 -9 -19 -19 -19h-31c-10 0 -19 9 -19 19v306s-41 -35 -107 -35c-110 0 -192 92 -192 209zM112 200c0 -80 54 -143 131 -143c55 0 97 33 97 33v208
s-37 49 -102 49c-80 0 -126 -69 -126 -147z" />
    <glyph glyph-name="r" unicode="r" horiz-adv-x="334" 
d="M71 19v362c0 10 9 19 19 19h19c8 0 15 -5 17 -14l8 -29s37 53 120 53c30 0 80 -5 70 -33l-12 -34c-5 -13 -14 -13 -24 -9c-9 4 -24 8 -39 8c-76 0 -109 -56 -109 -56v-267c0 -10 -9 -19 -19 -19h-31c-10 0 -19 9 -19 19z" />
    <glyph glyph-name="s" unicode="s" horiz-adv-x="356" 
d="M52 35c-5 4 -8 14 -5 21c4 6 11 20 14 25c5 8 16 10 27 3c0 0 43 -35 94 -35c41 0 65 21 65 48c0 35 -30 51 -88 80c-53 26 -114 61 -114 129c0 42 34 104 127 104c52 0 92 -18 111 -31c9 -6 12 -20 6 -31l-8 -16c-6 -11 -20 -14 -29 -9c0 0 -43 24 -80 24
c-45 0 -57 -23 -57 -40c0 -33 33 -48 74 -68c69 -33 131 -64 131 -136c0 -58 -56 -113 -138 -113c-67 0 -108 28 -130 45z" />
    <glyph glyph-name="t" unicode="t" horiz-adv-x="342" 
d="M97 100v240h-51c-11 0 -19 9 -19 19v22c0 11 8 19 19 19h51v111c0 10 9 19 19 19l32 2c10 0 18 -9 18 -19v-113h116c11 0 19 -8 19 -19v-22c0 -10 -8 -19 -19 -19h-116v-234c0 -40 10 -48 33 -48c25 0 60 15 73 22c15 8 19 2 24 -6l15 -25c7 -12 4 -18 -7 -25
c-14 -9 -68 -34 -115 -34c-80 0 -92 48 -92 110z" />
    <glyph glyph-name="u" unicode="u" horiz-adv-x="485" 
d="M66 171v210c0 10 9 19 19 19h32c10 0 19 -9 19 -19v-211c0 -76 34 -113 90 -113c76 0 119 57 119 57v267c0 10 9 19 19 19h31c10 0 19 -9 19 -19v-362c0 -10 -9 -19 -19 -19h-19c-11 0 -15 7 -18 17l-7 26s-47 -53 -130 -53c-116 0 -155 75 -155 181z" />
    <glyph glyph-name="v" unicode="v" horiz-adv-x="411" 
d="M185 0l-169 377c-6 13 0 23 15 23h31c9 0 15 -5 18 -11l124 -286h1l132 286c3 6 9 11 17 11h26c15 0 21 -10 15 -23l-171 -377c-2 -5 -8 -10 -17 -10h-5c-9 0 -15 5 -17 10z" />
    <glyph glyph-name="w" unicode="w" horiz-adv-x="604" 
d="M144 0l-111 377c-4 14 0 23 15 23h31c9 0 16 -5 18 -11l73 -264h1l113 275c2 5 8 10 17 10h5c9 0 15 -5 17 -10l112 -276h1l72 265c2 6 9 11 17 11h31c15 0 19 -9 15 -23l-109 -377c-2 -6 -9 -10 -17 -10h-5c-9 0 -15 5 -17 10l-122 300l-118 -300c-2 -5 -8 -10 -17 -10
h-5c-9 0 -15 4 -17 10z" />
    <glyph glyph-name="x" unicode="x" horiz-adv-x="417" 
d="M37 26l131 178l-127 170c-10 13 -4 26 13 26h42c7 0 13 -4 16 -8l95 -136h1l99 136c3 4 9 8 16 8h42c17 0 23 -13 13 -26l-127 -169l128 -179c9 -13 3 -26 -13 -26h-37c-6 0 -12 5 -15 9l-106 147h-1l-104 -148c-3 -4 -9 -8 -16 -8h-37c-17 0 -22 13 -13 26z" />
    <glyph glyph-name="y" unicode="y" horiz-adv-x="466" 
d="M200 1l-186 377c-6 13 0 22 15 22h44c8 0 14 -5 17 -11l148 -306h1l140 306c3 6 10 11 17 11h38c15 0 22 -10 15 -23l-307 -665c-3 -6 -10 -12 -17 -12h-37c-15 0 -23 11 -16 25z" />
    <glyph glyph-name="z" unicode="z" horiz-adv-x="365" 
d="M36 19v10l196 305v3h-168c-10 0 -18 9 -18 19v25c0 11 8 19 18 19h251c15 0 25 -14 17 -27l-191 -307v-3h154c11 0 19 -8 19 -19v-25c0 -10 -8 -19 -19 -19h-240c-10 0 -19 9 -19 19z" />
    <glyph glyph-name="braceleft" unicode="{" horiz-adv-x="399" 
d="M109 -71v161c0 45 -45 74 -69 78c-8 1 -15 9 -15 17v31c0 8 7 14 15 15c24 4 69 33 69 78v161c0 182 142 240 245 240c10 0 20 -5 20 -17v-19c0 -9 -5 -17 -13 -18c-95 -14 -183 -78 -183 -186v-133c0 -100 -50 -122 -79 -134v-7c29 -12 79 -34 79 -134v-133
c0 -108 88 -171 183 -185c8 -1 13 -6 13 -17v-20c0 -10 -10 -17 -20 -17c-103 0 -245 57 -245 239z" />
    <glyph glyph-name="bar" unicode="|" horiz-adv-x="198" 
d="M77 -282v1023c0 11 9 19 19 19h7c10 0 18 -8 18 -19v-1023c0 -10 -9 -18 -19 -18h-6c-10 0 -19 8 -19 18z" />
    <glyph glyph-name="braceright" unicode="}" horiz-adv-x="399" 
d="M221 62c0 100 50 122 79 134v7c-29 12 -79 34 -79 134v133c0 108 -88 172 -183 186c-8 1 -13 9 -13 18v19c0 12 10 17 20 17c103 0 245 -58 245 -240v-161c0 -45 45 -74 69 -78c8 -1 15 -7 15 -15v-31c0 -8 -7 -16 -15 -17c-24 -4 -69 -33 -69 -78v-161
c0 -182 -142 -239 -245 -239c-10 0 -20 7 -20 17v20c0 11 5 16 13 17c95 14 183 77 183 185v133z" />
    <glyph glyph-name="asciitilde" unicode="~" horiz-adv-x="556" 
d="M79 228c-7 6 -14 11 -21 17s-8 17 -2 24c0 0 54 92 133 92c46 0 80 -25 108 -45c14 -10 47 -34 73 -34c46 0 72 47 85 66c7 10 18 12 27 4l21 -17c7 -6 8 -17 2 -24c0 0 -54 -92 -135 -92c-44 0 -78 25 -104 43c-19 13 -45 36 -76 36c-45 0 -71 -47 -84 -66
c-7 -10 -18 -12 -27 -4z" />
    <glyph glyph-name="uni00A0" unicode="&#xa0;" horiz-adv-x="222" 
 />
    <glyph glyph-name="Agrave" unicode="&#xc0;" horiz-adv-x="663" 
d="M23 0c-15 0 -23 13 -17 26l304 673c3 6 8 11 17 11h10c9 0 14 -5 17 -11l302 -673c6 -13 -2 -26 -17 -26h-40c-9 0 -15 6 -17 11l-74 165h-355l-73 -165c-2 -5 -8 -11 -17 -11h-40zM181 238h300c-49 109 -97 219 -146 328h-8zM399 781l-161 67c-8 3 -10 13 -6 21l18 36
c5 9 20 7 26 3l150 -84c6 -3 10 -11 6 -19l-10 -22c-4 -8 -9 -8 -23 -2z" />
    <glyph glyph-name="Aacute" unicode="&#xc1;" horiz-adv-x="663" 
d="M23 0c-15 0 -23 13 -17 26l304 673c3 6 8 11 17 11h10c9 0 14 -5 17 -11l302 -673c6 -13 -2 -26 -17 -26h-40c-9 0 -15 6 -17 11l-74 165h-355l-73 -165c-2 -5 -8 -11 -17 -11h-40zM181 238h300c-49 109 -97 219 -146 328h-8zM241 783l-10 22c-4 8 0 16 6 19l150 84
c6 4 21 6 26 -3l18 -36c4 -8 2 -18 -6 -21l-161 -67c-14 -6 -19 -6 -23 2z" />
    <glyph glyph-name="Acircumflex" unicode="&#xc2;" horiz-adv-x="663" 
d="M23 0c-15 0 -23 13 -17 26l304 673c3 6 8 11 17 11h10c9 0 14 -5 17 -11l302 -673c6 -13 -2 -26 -17 -26h-40c-9 0 -15 6 -17 11l-74 165h-355l-73 -165c-2 -5 -8 -11 -17 -11h-40zM181 238h300c-49 109 -97 219 -146 328h-8zM207 775l-14 18c-5 7 0 15 6 19l120 94
c4 3 9 4 13 4c6 0 9 -1 13 -4l120 -94c6 -4 11 -12 6 -19c-9 -12 -17 -36 -37 -22l-102 70l-102 -68c-12 -8 -18 -5 -23 2z" />
    <glyph glyph-name="Atilde" unicode="&#xc3;" horiz-adv-x="663" 
d="M23 0c-15 0 -23 13 -17 26l304 673c3 6 8 11 17 11h10c9 0 14 -5 17 -11l302 -673c6 -13 -2 -26 -17 -26h-40c-9 0 -15 6 -17 11l-74 165h-355l-73 -165c-2 -5 -8 -11 -17 -11h-40zM181 238h300c-49 109 -97 219 -146 328h-8zM207 795l-18 9c-8 4 -7 15 -4 22
c9 18 26 84 92 84c60 0 79 -74 110 -74c28 0 40 34 45 51c3 10 12 13 23 8l16 -8c12 -6 6 -19 4 -26c-10 -29 -34 -81 -89 -81s-82 75 -110 75c-27 0 -37 -29 -44 -50c-3 -10 -12 -17 -25 -10z" />
    <glyph glyph-name="Adieresis" unicode="&#xc4;" horiz-adv-x="663" 
d="M23 0c-15 0 -23 13 -17 26l304 673c3 6 8 11 17 11h10c9 0 14 -5 17 -11l302 -673c6 -13 -2 -26 -17 -26h-40c-9 0 -15 6 -17 11l-74 165h-355l-73 -165c-2 -5 -8 -11 -17 -11h-40zM181 238h300c-49 109 -97 219 -146 328h-8zM436 792c-26 0 -47 21 -47 47
c0 27 21 48 47 48c27 0 48 -21 48 -48c0 -26 -21 -47 -48 -47zM225 792c-26 0 -47 21 -47 47c0 27 21 48 47 48c27 0 48 -21 48 -48c0 -26 -21 -47 -48 -47z" />
    <glyph glyph-name="Amacron" unicode="&#x100;" horiz-adv-x="663" 
d="M23 0c-15 0 -23 13 -17 26l304 673c3 6 8 11 17 11h10c9 0 14 -5 17 -11l302 -673c6 -13 -2 -26 -17 -26h-40c-9 0 -15 6 -17 11l-74 165h-355l-73 -165c-2 -5 -8 -11 -17 -11h-40zM181 238h300c-49 109 -97 219 -146 328h-8zM203 821c-11 0 -19 8 -19 18v21
c0 11 8 19 19 19h256c11 0 19 -8 19 -19v-21c0 -10 -8 -18 -19 -18h-256z" />
    <glyph glyph-name="Abreve" unicode="&#x102;" horiz-adv-x="663" 
d="M23 0c-15 0 -23 13 -17 26l304 673c3 6 8 11 17 11h10c9 0 14 -5 17 -11l302 -673c6 -13 -2 -26 -17 -26h-40c-9 0 -15 6 -17 11l-74 165h-355l-73 -165c-2 -5 -8 -11 -17 -11h-40zM181 238h300c-49 109 -97 219 -146 328h-8zM331 771c-70 0 -126 49 -135 114
c-2 11 2 20 14 20h21c11 0 16 -8 19 -17c11 -38 41 -64 81 -64c37 0 68 29 79 64c4 11 10 17 19 17h23c11 0 16 -9 14 -20c-11 -65 -66 -114 -135 -114z" />
    <glyph glyph-name="Aring" unicode="&#xc5;" horiz-adv-x="663" 
d="M23 0c-15 0 -23 13 -17 26l304 673c3 6 8 11 17 11h10c9 0 14 -5 17 -11l302 -673c6 -13 -2 -26 -17 -26h-40c-9 0 -15 6 -17 11l-74 165h-355l-73 -165c-2 -5 -8 -11 -17 -11h-40zM181 238h300c-49 109 -97 219 -146 328h-8zM331 758c-61 0 -109 48 -109 109
s48 109 109 109c60 0 109 -48 109 -109s-49 -109 -109 -109zM331 806c32 0 59 29 59 61s-27 59 -59 59s-61 -27 -61 -59s29 -61 61 -61z" />
    <glyph glyph-name="Aringacute" unicode="&#x1fa;" horiz-adv-x="663" 
d="M241 903l-10 22c-4 8 0 16 6 19l150 84c6 4 21 6 26 -3l18 -36c4 -8 2 -18 -6 -21l-161 -67c-14 -6 -19 -6 -23 2zM23 0c-15 0 -23 13 -17 26l290 643c-43 14 -74 55 -74 104c0 61 48 109 109 109c60 0 109 -48 109 -109c0 -48 -31 -89 -73 -103l289 -644
c6 -13 -2 -26 -17 -26h-40c-9 0 -15 6 -17 11l-74 165h-355l-73 -165c-2 -5 -8 -11 -17 -11h-40zM331 712c32 0 59 29 59 61s-27 59 -59 59s-61 -27 -61 -59s29 -61 61 -61zM181 238h300l-146 328h-8z" />
    <glyph glyph-name="Aogonek" unicode="&#x104;" horiz-adv-x="663" 
d="M23 0c-15 0 -23 13 -17 26l304 673c3 6 8 11 17 11h10c9 0 14 -5 17 -11l302 -673c6 -13 -2 -26 -17 -26h-13c-17 -16 -47 -51 -47 -99c0 -33 27 -57 57 -57c25 0 42 9 55 16c8 4 18 -1 18 -14v-25c0 -9 -7 -13 -14 -17c-10 -5 -37 -15 -70 -15c-56 0 -106 32 -106 102
c0 65 50 106 64 117l-75 168h-355l-73 -165c-2 -5 -8 -11 -17 -11h-40zM181 238h300l-146 328h-8z" />
    <glyph glyph-name="AE" unicode="&#xc6;" horiz-adv-x="897" 
d="M6 0c-15 0 -20 13 -12 26l401 643c13 20 18 31 44 31h381c11 0 19 -9 19 -19v-29c0 -10 -8 -19 -19 -19h-342v-244h293c10 0 19 -9 19 -19v-29c0 -11 -9 -19 -19 -19h-293v-255h342c11 0 19 -9 19 -19v-29c0 -10 -8 -19 -19 -19h-394c-11 0 -19 9 -19 19v157h-237
l-104 -165c-4 -5 -12 -11 -19 -11h-41zM206 238h201v328z" />
    <glyph glyph-name="AEacute" unicode="&#x1fc;" horiz-adv-x="897" 
d="M6 0c-15 0 -20 13 -12 26l401 643c13 20 18 31 44 31h381c11 0 19 -9 19 -19v-29c0 -10 -8 -19 -19 -19h-342v-244h293c10 0 19 -9 19 -19v-29c0 -11 -9 -19 -19 -19h-293v-255h342c11 0 19 -9 19 -19v-29c0 -10 -8 -19 -19 -19h-394c-11 0 -19 9 -19 19v157h-237
l-104 -165c-4 -5 -12 -11 -19 -11h-41zM206 238h201v328zM525 784l-10 22c-4 8 0 16 6 19l150 84c6 4 21 6 26 -3l18 -36c4 -8 2 -18 -6 -21l-161 -67c-14 -6 -19 -6 -23 2z" />
    <glyph glyph-name="Cacute" unicode="&#x106;" horiz-adv-x="707" 
d="M51 349c0 200 161 361 361 361c101 0 174 -35 242 -93c8 -8 9 -20 1 -28l-27 -27c-8 -10 -16 -9 -26 1c-52 45 -123 75 -191 75c-158 0 -279 -133 -279 -288c0 -154 121 -287 279 -287c87 0 138 35 191 75c10 8 18 7 24 3l30 -27c8 -6 6 -20 -1 -27
c-68 -66 -154 -97 -243 -97c-200 0 -361 159 -361 359zM331 783l-10 22c-4 8 0 16 6 19l150 84c6 4 21 6 26 -3l18 -36c4 -8 2 -18 -6 -21l-161 -67c-14 -6 -19 -6 -23 2z" />
    <glyph glyph-name="Ccircumflex" unicode="&#x108;" horiz-adv-x="707" 
d="M51 349c0 200 161 361 361 361c101 0 174 -35 242 -93c8 -8 9 -20 1 -28l-27 -27c-8 -10 -16 -9 -26 1c-52 45 -123 75 -191 75c-158 0 -279 -133 -279 -288c0 -154 121 -287 279 -287c87 0 138 35 191 75c10 8 18 7 24 3l30 -27c8 -6 6 -20 -1 -27
c-68 -66 -154 -97 -243 -97c-200 0 -361 159 -361 359zM286 775l-14 18c-5 7 0 15 6 19l120 94c4 3 9 4 13 4c6 0 9 -1 13 -4l120 -94c6 -4 11 -12 6 -19c-9 -12 -17 -36 -37 -22l-102 70l-102 -68c-12 -8 -18 -5 -23 2z" />
    <glyph glyph-name="Ccaron" unicode="&#x10c;" horiz-adv-x="707" 
d="M51 349c0 200 161 361 361 361c101 0 174 -35 242 -93c8 -8 9 -20 1 -28l-27 -27c-8 -10 -16 -9 -26 1c-52 45 -123 75 -191 75c-158 0 -279 -133 -279 -288c0 -154 121 -287 279 -287c87 0 138 35 191 75c10 8 18 7 24 3l30 -27c8 -6 6 -20 -1 -27
c-68 -66 -154 -97 -243 -97c-200 0 -361 159 -361 359zM411 768c-4 0 -9 1 -13 4l-120 94c-6 4 -11 12 -6 19l14 18c5 7 11 10 23 2l102 -68l102 70c12 8 18 5 23 -2l14 -20c9 -12 -11 -23 -19 -29l-107 -84c-4 -3 -7 -4 -13 -4z" />
    <glyph glyph-name="Cdotaccent" unicode="&#x10a;" horiz-adv-x="707" 
d="M51 349c0 200 161 361 361 361c101 0 174 -35 242 -93c8 -8 9 -20 1 -28l-27 -27c-8 -10 -16 -9 -26 1c-52 45 -123 75 -191 75c-158 0 -279 -133 -279 -288c0 -154 121 -287 279 -287c87 0 138 35 191 75c10 8 18 7 24 3l30 -27c8 -6 6 -20 -1 -27
c-68 -66 -154 -97 -243 -97c-200 0 -361 159 -361 359zM411 796c-31 0 -57 26 -57 57c0 32 26 57 57 57c32 0 57 -25 57 -57c0 -31 -25 -57 -57 -57z" />
    <glyph glyph-name="Ccedilla" unicode="&#xc7;" horiz-adv-x="709" 
d="M52 349c0 200 161 361 361 361c101 0 174 -35 242 -93c8 -8 9 -20 1 -28l-27 -27c-8 -10 -16 -9 -26 1c-52 45 -123 75 -191 75c-158 0 -279 -133 -279 -288c0 -154 121 -287 279 -287c87 0 138 35 191 75c10 8 18 7 24 3l30 -27c8 -6 6 -20 -1 -27
c-68 -66 -154 -97 -243 -97v-43c61 -8 105 -45 105 -103s-46 -104 -105 -104c-30 0 -59 15 -76 35c-8 9 -7 21 0 26l14 11c7 5 18 6 23 0c12 -13 29 -18 41 -18c27 0 44 20 44 47c0 46 -49 57 -83 63c-15 3 -17 15 -17 20v70c-174 25 -307 173 -307 355z" />
    <glyph glyph-name="Dcaron" unicode="&#x10e;" horiz-adv-x="747" 
d="M102 19v662c0 10 8 19 18 19h224c193 0 351 -157 351 -349c0 -194 -158 -351 -351 -351h-224c-10 0 -18 9 -18 19zM178 69h150c164 0 283 117 283 282c0 164 -119 281 -283 281h-150v-563zM341 768c-4 0 -9 1 -13 4l-120 94c-6 4 -11 12 -6 19l14 18c5 7 11 10 23 2
l102 -68l102 70c12 8 18 5 23 -2l14 -20c9 -12 -11 -23 -19 -29l-107 -84c-4 -3 -7 -4 -13 -4z" />
    <glyph glyph-name="Dcroat" unicode="&#x110;" horiz-adv-x="751" 
d="M106 19v305h-29c-10 0 -18 9 -18 19v7c0 10 8 19 18 19h29v312c0 10 8 19 18 19h224c193 0 351 -157 351 -349c0 -194 -158 -351 -351 -351h-224c-10 0 -18 9 -18 19zM182 69h150c164 0 283 117 283 282c0 164 -119 281 -283 281h-150v-263h211c11 0 19 -9 19 -19v-8
c0 -10 -8 -18 -19 -18h-211v-255z" />
    <glyph glyph-name="Eth" unicode="&#xd0;" horiz-adv-x="751" 
d="M106 19v305h-29c-10 0 -18 9 -18 19v7c0 10 8 19 18 19h29v312c0 10 8 19 18 19h224c193 0 351 -157 351 -349c0 -194 -158 -351 -351 -351h-224c-10 0 -18 9 -18 19zM182 69h150c164 0 283 117 283 282c0 164 -119 281 -283 281h-150v-263h211c11 0 19 -9 19 -19v-8
c0 -10 -8 -18 -19 -18h-211v-255z" />
    <glyph glyph-name="Egrave" unicode="&#xc8;" horiz-adv-x="592" 
d="M102 19v662c0 10 8 19 19 19h394c11 0 19 -9 19 -19v-29c0 -10 -8 -19 -19 -19h-336v-244h287c10 0 19 -9 19 -19v-29c0 -11 -9 -19 -19 -19h-287v-255h336c11 0 19 -9 19 -19v-29c0 -10 -8 -19 -19 -19h-394c-11 0 -19 9 -19 19zM394 781l-161 67c-8 3 -10 13 -6 21
l18 36c5 9 20 7 26 3l150 -84c6 -3 10 -11 6 -19l-10 -22c-4 -8 -9 -8 -23 -2z" />
    <glyph glyph-name="Eacute" unicode="&#xc9;" horiz-adv-x="592" 
d="M102 19v662c0 10 8 19 19 19h394c11 0 19 -9 19 -19v-29c0 -10 -8 -19 -19 -19h-336v-244h287c10 0 19 -9 19 -19v-29c0 -11 -9 -19 -19 -19h-287v-255h336c11 0 19 -9 19 -19v-29c0 -10 -8 -19 -19 -19h-394c-11 0 -19 9 -19 19zM237 783l-10 22c-4 8 0 16 6 19l150 84
c6 4 21 6 26 -3l18 -36c4 -8 2 -18 -6 -21l-161 -67c-14 -6 -19 -6 -23 2z" />
    <glyph glyph-name="Ecircumflex" unicode="&#xca;" horiz-adv-x="592" 
d="M102 19v662c0 10 8 19 19 19h394c11 0 19 -9 19 -19v-29c0 -10 -8 -19 -19 -19h-336v-244h287c10 0 19 -9 19 -19v-29c0 -11 -9 -19 -19 -19h-287v-255h336c11 0 19 -9 19 -19v-29c0 -10 -8 -19 -19 -19h-394c-11 0 -19 9 -19 19zM192 775l-14 18c-5 7 0 15 6 19l120 94
c4 3 9 4 13 4c6 0 9 -1 13 -4l120 -94c6 -4 11 -12 6 -19c-9 -12 -17 -36 -37 -22l-102 70l-102 -68c-12 -8 -18 -5 -23 2z" />
    <glyph glyph-name="Ecaron" unicode="&#x11a;" horiz-adv-x="592" 
d="M102 19v662c0 10 8 19 19 19h394c11 0 19 -9 19 -19v-29c0 -10 -8 -19 -19 -19h-336v-244h287c10 0 19 -9 19 -19v-29c0 -11 -9 -19 -19 -19h-287v-255h336c11 0 19 -9 19 -19v-29c0 -10 -8 -19 -19 -19h-394c-11 0 -19 9 -19 19zM317 768c-4 0 -9 1 -13 4l-120 94
c-6 4 -11 12 -6 19l14 18c5 7 11 10 23 2l102 -68l102 70c12 8 18 5 23 -2l14 -20c9 -12 -11 -23 -19 -29l-107 -84c-4 -3 -7 -4 -13 -4z" />
    <glyph glyph-name="Edieresis" unicode="&#xcb;" horiz-adv-x="592" 
d="M102 19v662c0 10 8 19 19 19h394c11 0 19 -9 19 -19v-29c0 -10 -8 -19 -19 -19h-336v-244h287c10 0 19 -9 19 -19v-29c0 -11 -9 -19 -19 -19h-287v-255h336c11 0 19 -9 19 -19v-29c0 -10 -8 -19 -19 -19h-394c-11 0 -19 9 -19 19zM423 792c-26 0 -47 21 -47 47
c0 27 21 48 47 48c27 0 48 -21 48 -48c0 -26 -21 -47 -48 -47zM212 792c-26 0 -47 21 -47 47c0 27 21 48 47 48c27 0 48 -21 48 -48c0 -26 -21 -47 -48 -47z" />
    <glyph glyph-name="Emacron" unicode="&#x112;" horiz-adv-x="592" 
d="M102 19v662c0 10 8 19 19 19h394c11 0 19 -9 19 -19v-29c0 -10 -8 -19 -19 -19h-336v-244h287c10 0 19 -9 19 -19v-29c0 -11 -9 -19 -19 -19h-287v-255h336c11 0 19 -9 19 -19v-29c0 -10 -8 -19 -19 -19h-394c-11 0 -19 9 -19 19zM190 821c-11 0 -19 8 -19 18v21
c0 11 8 19 19 19h256c11 0 19 -8 19 -19v-21c0 -10 -8 -18 -19 -18h-256z" />
    <glyph glyph-name="Ebreve" unicode="&#x114;" horiz-adv-x="592" 
d="M102 19v662c0 10 8 19 19 19h394c11 0 19 -9 19 -19v-29c0 -10 -8 -19 -19 -19h-336v-244h287c10 0 19 -9 19 -19v-29c0 -11 -9 -19 -19 -19h-287v-255h336c11 0 19 -9 19 -19v-29c0 -10 -8 -19 -19 -19h-394c-11 0 -19 9 -19 19zM318 771c-70 0 -126 49 -135 114
c-2 11 2 20 14 20h21c11 0 16 -8 19 -17c11 -38 41 -64 81 -64c37 0 68 29 79 64c4 11 10 17 19 17h23c11 0 16 -9 14 -20c-11 -65 -66 -114 -135 -114z" />
    <glyph glyph-name="Edotaccent" unicode="&#x116;" horiz-adv-x="592" 
d="M102 19v662c0 10 8 19 19 19h394c11 0 19 -9 19 -19v-29c0 -10 -8 -19 -19 -19h-336v-244h287c10 0 19 -9 19 -19v-29c0 -11 -9 -19 -19 -19h-287v-255h336c11 0 19 -9 19 -19v-29c0 -10 -8 -19 -19 -19h-394c-11 0 -19 9 -19 19zM320 796c-31 0 -57 26 -57 57
c0 32 26 57 57 57c32 0 57 -25 57 -57c0 -31 -25 -57 -57 -57z" />
    <glyph glyph-name="Eogonek" unicode="&#x118;" horiz-adv-x="592" 
d="M102 19v662c0 10 8 19 19 19h394c11 0 19 -9 19 -19v-29c0 -10 -8 -19 -19 -19h-336v-244h287c10 0 19 -9 19 -19v-29c0 -11 -9 -19 -19 -19h-287v-255h336c11 0 19 -9 19 -19v-25c0 -13 -8 -17 -15 -23c-17 -15 -48 -51 -48 -99c0 -33 27 -57 57 -57c25 0 42 9 55 16
c8 4 18 -1 18 -14v-25c0 -9 -7 -13 -14 -17c-10 -5 -37 -15 -70 -15c-56 0 -106 32 -106 102c0 54 34 92 54 109h-344c-11 0 -19 9 -19 19z" />
    <glyph glyph-name="Gcircumflex" unicode="&#x11c;" horiz-adv-x="732" 
d="M51 349c0 200 161 361 361 361c101 0 174 -35 242 -93c8 -8 9 -20 1 -28c-9 -9 -20 -19 -28 -28c-9 -10 -15 -9 -26 1c-51 45 -123 78 -190 78c-158 0 -278 -132 -278 -287c0 -154 120 -289 278 -289c110 0 180 42 180 42v140h-115c-11 0 -19 8 -19 18v37
c0 11 8 19 19 19h173c10 0 18 -9 18 -19v-229c0 -5 -4 -13 -8 -16c0 0 -102 -66 -247 -66c-200 0 -361 159 -361 359zM286 775l-14 18c-5 7 0 15 6 19l120 94c4 3 9 4 13 4c6 0 9 -1 13 -4l120 -94c6 -4 11 -12 6 -19c-9 -12 -17 -36 -37 -22l-102 70l-102 -68
c-12 -8 -18 -5 -23 2z" />
    <glyph glyph-name="Gbreve" unicode="&#x11e;" horiz-adv-x="732" 
d="M51 349c0 200 161 361 361 361c101 0 174 -35 242 -93c8 -8 9 -20 1 -28c-9 -9 -20 -19 -28 -28c-9 -10 -15 -9 -26 1c-51 45 -123 78 -190 78c-158 0 -278 -132 -278 -287c0 -154 120 -289 278 -289c110 0 180 42 180 42v140h-115c-11 0 -19 8 -19 18v37
c0 11 8 19 19 19h173c10 0 18 -9 18 -19v-229c0 -5 -4 -13 -8 -16c0 0 -102 -66 -247 -66c-200 0 -361 159 -361 359zM412 771c-70 0 -126 49 -135 114c-2 11 2 20 14 20h21c11 0 16 -8 19 -17c11 -38 41 -64 81 -64c37 0 68 29 79 64c4 11 10 17 19 17h23
c11 0 16 -9 14 -20c-11 -65 -66 -114 -135 -114z" />
    <glyph glyph-name="Gdotaccent" unicode="&#x120;" horiz-adv-x="732" 
d="M51 349c0 200 161 361 361 361c101 0 174 -35 242 -93c8 -8 9 -20 1 -28c-9 -9 -20 -19 -28 -28c-9 -10 -15 -9 -26 1c-51 45 -123 78 -190 78c-158 0 -278 -132 -278 -287c0 -154 120 -289 278 -289c110 0 180 42 180 42v140h-115c-11 0 -19 8 -19 18v37
c0 11 8 19 19 19h173c10 0 18 -9 18 -19v-229c0 -5 -4 -13 -8 -16c0 0 -102 -66 -247 -66c-200 0 -361 159 -361 359zM411 796c-31 0 -57 26 -57 57c0 32 26 57 57 57c32 0 57 -25 57 -57c0 -31 -25 -57 -57 -57z" />
    <glyph glyph-name="Gcommaaccent" unicode="&#x122;" horiz-adv-x="732" 
d="M51 349c0 200 161 361 361 361c101 0 174 -35 242 -93c8 -8 9 -20 1 -28c-9 -9 -20 -19 -28 -28c-9 -10 -15 -9 -26 1c-51 45 -123 78 -190 78c-158 0 -278 -132 -278 -287c0 -154 120 -289 278 -289c110 0 180 42 180 42v140h-115c-11 0 -19 8 -19 18v37
c0 11 8 19 19 19h173c10 0 18 -9 18 -19v-229c0 -5 -4 -13 -8 -16c0 0 -102 -66 -247 -66c-200 0 -361 159 -361 359zM409 -92c32 0 66 -18 66 -90c0 -83 -52 -155 -84 -185c-10 -9 -18 -8 -24 -2l-14 14c-5 5 -4 15 6 24s62 53 62 126c-4 -1 -8 -1 -12 -1
c-31 0 -57 26 -57 57c0 32 26 57 57 57z" />
    <glyph glyph-name="Hcircumflex" unicode="&#x124;" horiz-adv-x="764" 
d="M102 19v662c0 10 9 19 19 19h39c11 0 19 -9 19 -19v-292h406v292c0 10 8 19 19 19h39c10 0 19 -9 19 -19v-662c0 -10 -9 -19 -19 -19h-39c-11 0 -19 9 -19 19v303h-406v-303c0 -10 -8 -19 -19 -19h-39c-10 0 -19 9 -19 19zM259 775l-14 18c-5 7 0 15 6 19l120 94
c4 3 9 4 13 4c6 0 9 -1 13 -4l120 -94c6 -4 11 -12 6 -19c-9 -12 -17 -36 -37 -22l-102 70l-102 -68c-12 -8 -18 -5 -23 2z" />
    <glyph glyph-name="Hbar" unicode="&#x126;" horiz-adv-x="764" 
d="M102 19v517h-22c-10 0 -18 9 -18 19v7c0 10 8 19 18 19h22v100c0 10 9 19 19 19h39c11 0 19 -9 19 -19v-100h406v100c0 10 8 19 19 19h39c10 0 19 -9 19 -19v-100h21c11 0 19 -9 19 -19v-8c0 -10 -8 -18 -19 -18h-21v-517c0 -10 -9 -19 -19 -19h-39c-11 0 -19 9 -19 19
v303h-406v-303c0 -10 -8 -19 -19 -19h-39c-10 0 -19 9 -19 19zM179 389h406v147h-406v-147z" />
    <glyph glyph-name="Igrave" unicode="&#xcc;" horiz-adv-x="282" 
d="M102 19v662c0 10 9 19 19 19h40c10 0 19 -9 19 -19v-662c0 -10 -9 -19 -19 -19h-40c-10 0 -19 9 -19 19zM208 781l-161 67c-8 3 -10 13 -6 21l18 36c5 9 20 7 26 3l150 -84c6 -3 10 -11 6 -19l-10 -22c-4 -8 -9 -8 -23 -2z" />
    <glyph glyph-name="Iacute" unicode="&#xcd;" horiz-adv-x="282" 
d="M102 19v662c0 10 9 19 19 19h40c10 0 19 -9 19 -19v-662c0 -10 -9 -19 -19 -19h-40c-10 0 -19 9 -19 19zM51 783l-10 22c-4 8 0 16 6 19l150 84c6 4 21 6 26 -3l18 -36c4 -8 2 -18 -6 -21l-161 -67c-14 -6 -19 -6 -23 2z" />
    <glyph glyph-name="Ibreve" unicode="&#x12c;" horiz-adv-x="282" 
d="M102 19v662c0 10 9 19 19 19h40c10 0 19 -9 19 -19v-662c0 -10 -9 -19 -19 -19h-40c-10 0 -19 9 -19 19zM142 771c-70 0 -126 49 -135 114c-2 11 2 20 14 20h21c11 0 16 -8 19 -17c11 -38 41 -64 81 -64c37 0 68 29 79 64c4 11 10 17 19 17h23c11 0 16 -9 14 -20
c-11 -65 -66 -114 -135 -114z" />
    <glyph glyph-name="Icircumflex" unicode="&#xce;" horiz-adv-x="282" 
d="M102 19v662c0 10 9 19 19 19h40c10 0 19 -9 19 -19v-662c0 -10 -9 -19 -19 -19h-40c-10 0 -19 9 -19 19zM16 775l-14 18c-5 7 0 15 6 19l120 94c4 3 9 4 13 4c6 0 9 -1 13 -4l120 -94c6 -4 11 -12 6 -19c-9 -12 -17 -36 -37 -22l-102 70l-102 -68c-12 -8 -18 -5 -23 2z
" />
    <glyph glyph-name="Itilde" unicode="&#x128;" horiz-adv-x="282" 
d="M102 19v662c0 10 9 19 19 19h40c10 0 19 -9 19 -19v-662c0 -10 -9 -19 -19 -19h-40c-10 0 -19 9 -19 19zM16 795l-18 9c-8 4 -7 15 -4 22c9 18 26 84 92 84c60 0 79 -74 110 -74c28 0 40 34 45 51c3 10 12 13 23 8l16 -8c12 -6 6 -19 4 -26c-10 -29 -34 -81 -89 -81
s-82 75 -110 75c-27 0 -37 -29 -44 -50c-3 -10 -12 -17 -25 -10z" />
    <glyph glyph-name="Idieresis" unicode="&#xcf;" horiz-adv-x="282" 
d="M102 19v662c0 10 9 19 19 19h40c10 0 19 -9 19 -19v-662c0 -10 -9 -19 -19 -19h-40c-10 0 -19 9 -19 19zM247 792c-26 0 -47 21 -47 47c0 27 21 48 47 48c27 0 48 -21 48 -48c0 -26 -21 -47 -48 -47zM36 792c-26 0 -47 21 -47 47c0 27 21 48 47 48c27 0 48 -21 48 -48
c0 -26 -21 -47 -48 -47z" />
    <glyph glyph-name="Imacron" unicode="&#x12a;" horiz-adv-x="282" 
d="M102 19v662c0 10 9 19 19 19h40c10 0 19 -9 19 -19v-662c0 -10 -9 -19 -19 -19h-40c-10 0 -19 9 -19 19zM14 821c-11 0 -19 8 -19 18v21c0 11 8 19 19 19h256c11 0 19 -8 19 -19v-21c0 -10 -8 -18 -19 -18h-256z" />
    <glyph glyph-name="Idotaccent" unicode="&#x130;" horiz-adv-x="282" 
d="M102 19v662c0 10 9 19 19 19h40c10 0 19 -9 19 -19v-662c0 -10 -9 -19 -19 -19h-40c-10 0 -19 9 -19 19zM141 796c-31 0 -57 26 -57 57c0 32 26 57 57 57c32 0 57 -25 57 -57c0 -31 -25 -57 -57 -57z" />
    <glyph glyph-name="Iogonek" unicode="&#x12e;" horiz-adv-x="282" 
d="M102 19v662c0 10 9 19 19 19h40c10 0 19 -9 19 -19v-662c0 -10 -9 -19 -19 -19h-3c-17 -16 -47 -51 -47 -99c0 -33 27 -57 57 -57c25 0 42 9 55 16c8 4 18 -1 18 -14v-25c0 -9 -7 -13 -14 -17c-10 -5 -37 -15 -70 -15c-56 0 -106 32 -106 102c0 59 40 98 59 112
c-5 4 -8 10 -8 16z" />
    <glyph glyph-name="Jcircumflex" unicode="&#x134;" horiz-adv-x="405" 
d="M-20 64c-5 8 -4 18 2 25l21 24c16 15 24 8 34 -3c17 -19 53 -53 97 -53c60 0 122 44 122 150v474c0 10 8 19 19 19h39c11 0 19 -9 19 -19v-472c0 -139 -84 -219 -201 -219c-87 0 -135 53 -152 74zM169 775l-14 18c-5 7 0 15 6 19l120 94c4 3 9 4 13 4c6 0 9 -1 13 -4
l120 -94c6 -4 11 -12 6 -19c-9 -12 -17 -36 -37 -22l-102 70l-102 -68c-12 -8 -18 -5 -23 2z" />
    <glyph glyph-name="Kcommaaccent" unicode="&#x136;" horiz-adv-x="618" 
d="M102 24v652c0 13 10 24 24 24h29c13 0 24 -11 24 -24v-283l312 297c4 5 13 10 19 10h49c18 0 28 -20 12 -35l-316 -295l331 -339c7 -7 5 -31 -17 -31h-51c-7 0 -16 4 -18 7l-321 335v-318c0 -13 -11 -24 -24 -24h-29c-14 0 -24 11 -24 24zM312 -92c32 0 66 -18 66 -90
c0 -83 -52 -155 -84 -185c-10 -9 -18 -8 -24 -2l-14 14c-5 5 -4 15 6 24s62 53 62 126c-4 -1 -8 -1 -12 -1c-31 0 -57 26 -57 57c0 32 26 57 57 57z" />
    <glyph glyph-name="Lacute" unicode="&#x139;" horiz-adv-x="491" 
d="M102 19v662c0 10 8 19 19 19h39c10 0 19 -9 19 -19v-614h288c11 0 19 -9 19 -19v-29c0 -10 -8 -19 -19 -19h-346c-11 0 -19 9 -19 19zM51 783l-10 22c-4 8 0 16 6 19l150 84c6 4 21 6 26 -3l18 -36c4 -8 2 -18 -6 -21l-161 -67c-14 -6 -19 -6 -23 2z" />
    <glyph glyph-name="Lcaron" unicode="&#x13d;" horiz-adv-x="491" 
d="M102 19v662c0 10 8 19 19 19h39c10 0 19 -9 19 -19v-614h288c11 0 19 -9 19 -19v-29c0 -10 -8 -19 -19 -19h-346c-11 0 -19 9 -19 19zM394 710c32 0 66 -18 66 -90c0 -83 -52 -155 -84 -185c-10 -9 -18 -8 -24 -2l-14 14c-5 5 -4 15 6 24s62 53 62 126
c-4 -1 -8 -1 -12 -1c-31 0 -57 26 -57 57c0 32 26 57 57 57z" />
    <glyph glyph-name="Lcommaaccent" unicode="&#x13b;" horiz-adv-x="492" 
d="M102 19v662c0 10 8 19 19 19h39c10 0 19 -9 19 -19v-614h288c11 0 19 -9 19 -19v-29c0 -10 -8 -19 -19 -19h-346c-11 0 -19 9 -19 19zM294 -92c32 0 66 -18 66 -90c0 -83 -52 -155 -84 -185c-10 -9 -18 -8 -24 -2l-14 14c-5 5 -4 15 6 24s62 53 62 126
c-4 -1 -8 -1 -12 -1c-31 0 -57 26 -57 57c0 32 26 57 57 57z" />
    <glyph glyph-name="Lslash" unicode="&#x141;" horiz-adv-x="497" 
d="M108 19v292l-21 -12c-11 -7 -20 -2 -25 7l-4 8c-4 8 -2 19 7 24l43 24v319c0 10 8 19 19 19h39c10 0 19 -9 19 -19v-274l111 64c10 6 22 1 26 -7l3 -6c5 -9 2 -20 -7 -26l-133 -76v-289h288c11 0 19 -9 19 -19v-29c0 -10 -8 -19 -19 -19h-346c-11 0 -19 9 -19 19z" />
    <glyph glyph-name="Ldot" unicode="&#x13f;" horiz-adv-x="574" 
d="M102 19v662c0 10 8 19 19 19h39c10 0 19 -9 19 -19v-614h288c11 0 19 -9 19 -19v-29c0 -10 -8 -19 -19 -19h-346c-11 0 -19 9 -19 19zM484 292c-31 0 -57 26 -57 57c0 32 26 57 57 57c32 0 57 -25 57 -57c0 -31 -25 -57 -57 -57z" />
    <glyph glyph-name="Nacute" unicode="&#x143;" horiz-adv-x="774" 
d="M102 19v673c0 10 9 18 19 18h25l451 -562h2v533c0 10 8 19 19 19h35c10 0 19 -9 19 -19v-673c0 -10 -9 -18 -19 -18h-18l-459 573h-1v-544c0 -10 -8 -19 -19 -19h-35c-10 0 -19 9 -19 19zM309 783l-10 22c-4 8 0 16 6 19l150 84c6 4 21 6 26 -3l18 -36c4 -8 2 -18 -6 -21
l-161 -67c-14 -6 -19 -6 -23 2z" />
    <glyph glyph-name="Ncaron" unicode="&#x147;" horiz-adv-x="774" 
d="M102 19v673c0 10 9 18 19 18h25l451 -562h2v533c0 10 8 19 19 19h35c10 0 19 -9 19 -19v-673c0 -10 -9 -18 -19 -18h-18l-459 573h-1v-544c0 -10 -8 -19 -19 -19h-35c-10 0 -19 9 -19 19zM392 768c-4 0 -9 1 -13 4l-120 94c-6 4 -11 12 -6 19l14 18c5 7 11 10 23 2
l102 -68l102 70c12 8 18 5 23 -2l14 -20c9 -12 -11 -23 -19 -29l-107 -84c-4 -3 -7 -4 -13 -4z" />
    <glyph glyph-name="Ntilde" unicode="&#xd1;" horiz-adv-x="774" 
d="M102 19v673c0 10 9 18 19 18h25l451 -562h2v533c0 10 8 19 19 19h35c10 0 19 -9 19 -19v-673c0 -10 -9 -18 -19 -18h-18l-459 573h-1v-544c0 -10 -8 -19 -19 -19h-35c-10 0 -19 9 -19 19zM274 795l-18 9c-8 4 -7 15 -4 22c9 18 26 84 92 84c60 0 79 -74 110 -74
c28 0 40 34 45 51c3 10 12 13 23 8l16 -8c12 -6 6 -19 4 -26c-10 -29 -34 -81 -89 -81s-82 75 -110 75c-27 0 -37 -29 -44 -50c-3 -10 -12 -17 -25 -10z" />
    <glyph glyph-name="Ncommaaccent" unicode="&#x145;" horiz-adv-x="774" 
d="M102 19v673c0 10 9 18 19 18h25l451 -562h2v533c0 10 8 19 19 19h35c10 0 19 -9 19 -19v-673c0 -10 -9 -18 -19 -18h-18l-459 573h-1v-544c0 -10 -8 -19 -19 -19h-35c-10 0 -19 9 -19 19zM388 -92c32 0 66 -18 66 -90c0 -83 -52 -155 -84 -185c-10 -9 -18 -8 -24 -2
l-14 14c-5 5 -4 15 6 24s62 53 62 126c-4 -1 -8 -1 -12 -1c-31 0 -57 26 -57 57c0 32 26 57 57 57z" />
    <glyph glyph-name="Ograve" unicode="&#xd2;" horiz-adv-x="821" 
d="M51 349c0 200 159 361 359 361s360 -161 360 -361s-160 -359 -360 -359s-359 159 -359 359zM121 349c0 -159 130 -289 289 -289s290 130 290 289s-131 291 -290 291s-289 -132 -289 -291zM487 781l-161 67c-8 3 -10 13 -6 21l18 36c5 9 20 7 26 3l150 -84
c6 -3 10 -11 6 -19l-10 -22c-4 -8 -9 -8 -23 -2z" />
    <glyph glyph-name="Oacute" unicode="&#xd3;" horiz-adv-x="821" 
d="M51 349c0 200 159 361 359 361s360 -161 360 -361s-160 -359 -360 -359s-359 159 -359 359zM121 349c0 -159 130 -289 289 -289s290 130 290 289s-131 291 -290 291s-289 -132 -289 -291zM330 783l-10 22c-4 8 0 16 6 19l150 84c6 4 21 6 26 -3l18 -36c4 -8 2 -18 -6 -21
l-161 -67c-14 -6 -19 -6 -23 2z" />
    <glyph glyph-name="Ocircumflex" unicode="&#xd4;" horiz-adv-x="821" 
d="M51 349c0 200 159 361 359 361s360 -161 360 -361s-160 -359 -360 -359s-359 159 -359 359zM121 349c0 -159 130 -289 289 -289s290 130 290 289s-131 291 -290 291s-289 -132 -289 -291zM285 775l-14 18c-5 7 0 15 6 19l120 94c4 3 9 4 13 4c6 0 9 -1 13 -4l120 -94
c6 -4 11 -12 6 -19c-9 -12 -17 -36 -37 -22l-102 70l-102 -68c-12 -8 -18 -5 -23 2z" />
    <glyph glyph-name="Otilde" unicode="&#xd5;" horiz-adv-x="821" 
d="M51 349c0 200 159 361 359 361s360 -161 360 -361s-160 -359 -360 -359s-359 159 -359 359zM121 349c0 -159 130 -289 289 -289s290 130 290 289s-131 291 -290 291s-289 -132 -289 -291zM285 795l-18 9c-8 4 -7 15 -4 22c9 18 26 84 92 84c60 0 79 -74 110 -74
c28 0 40 34 45 51c3 10 12 13 23 8l16 -8c12 -6 6 -19 4 -26c-10 -29 -34 -81 -89 -81s-82 75 -110 75c-27 0 -37 -29 -44 -50c-3 -10 -12 -17 -25 -10z" />
    <glyph glyph-name="Odieresis" unicode="&#xd6;" horiz-adv-x="821" 
d="M51 349c0 200 159 361 359 361s360 -161 360 -361s-160 -359 -360 -359s-359 159 -359 359zM121 349c0 -159 130 -289 289 -289s290 130 290 289s-131 291 -290 291s-289 -132 -289 -291zM516 792c-26 0 -47 21 -47 47c0 27 21 48 47 48c27 0 48 -21 48 -48
c0 -26 -21 -47 -48 -47zM305 792c-26 0 -47 21 -47 47c0 27 21 48 47 48c27 0 48 -21 48 -48c0 -26 -21 -47 -48 -47z" />
    <glyph glyph-name="Omacron" unicode="&#x14c;" horiz-adv-x="821" 
d="M51 349c0 200 159 361 359 361s360 -161 360 -361s-160 -359 -360 -359s-359 159 -359 359zM121 349c0 -159 130 -289 289 -289s290 130 290 289s-131 291 -290 291s-289 -132 -289 -291zM283 821c-11 0 -19 8 -19 18v21c0 11 8 19 19 19h256c11 0 19 -8 19 -19v-21
c0 -10 -8 -18 -19 -18h-256z" />
    <glyph glyph-name="Obreve" unicode="&#x14e;" horiz-adv-x="821" 
d="M51 349c0 200 159 361 359 361s360 -161 360 -361s-160 -359 -360 -359s-359 159 -359 359zM121 349c0 -159 130 -289 289 -289s290 130 290 289s-131 291 -290 291s-289 -132 -289 -291zM411 771c-70 0 -126 49 -135 114c-2 11 2 20 14 20h21c11 0 16 -8 19 -17
c11 -38 41 -64 81 -64c37 0 68 29 79 64c4 11 10 17 19 17h23c11 0 16 -9 14 -20c-11 -65 -66 -114 -135 -114z" />
    <glyph glyph-name="Ohungarumlaut" unicode="&#x150;" horiz-adv-x="821" 
d="M51 349c0 200 159 361 359 361s360 -161 360 -361s-160 -359 -360 -359s-359 159 -359 359zM121 349c0 -159 130 -289 289 -289s290 130 290 289s-131 291 -290 291s-289 -132 -289 -291zM507 769c-10 0 -22 9 -19 19l50 141c3 10 9 19 19 19h39c19 0 25 -12 18 -25
l-78 -139c-4 -8 -11 -15 -18 -15h-11zM341 769c-10 0 -22 9 -19 19l50 141c3 10 9 19 19 19h39c19 0 25 -12 18 -25l-78 -139c-4 -8 -11 -15 -18 -15h-11z" />
    <glyph glyph-name="Oslash" unicode="&#xd8;" horiz-adv-x="821" 
d="M81 22c-7 7 -8 19 -1 26l61 61c-56 64 -90 147 -90 240c0 200 159 361 359 361c92 0 176 -35 240 -91l63 63c7 7 19 7 26 0l5 -5c7 -7 7 -19 0 -26l-63 -63c55 -64 89 -148 89 -239c0 -200 -160 -359 -360 -359c-92 0 -175 33 -238 88l-61 -61c-7 -7 -19 -6 -26 1z
M192 160l408 409c-51 44 -118 71 -190 71c-159 0 -289 -132 -289 -291c0 -72 27 -138 71 -189zM223 129c50 -43 116 -69 187 -69c159 0 290 130 290 289c0 71 -26 138 -70 188z" />
    <glyph glyph-name="Oslashacute" unicode="&#x1fe;" horiz-adv-x="821" 
d="M81 22c-7 7 -8 19 -1 26l61 61c-56 64 -90 147 -90 240c0 200 159 361 359 361c92 0 176 -35 240 -91l63 63c7 7 19 7 26 0l5 -5c7 -7 7 -19 0 -26l-63 -63c55 -64 89 -148 89 -239c0 -200 -160 -359 -360 -359c-92 0 -175 33 -238 88l-61 -61c-7 -7 -19 -6 -26 1z
M192 160l408 409c-51 44 -118 71 -190 71c-159 0 -289 -132 -289 -291c0 -72 27 -138 71 -189zM223 129c50 -43 116 -69 187 -69c159 0 290 130 290 289c0 71 -26 138 -70 188zM330 783l-10 22c-4 8 0 16 6 19l150 84c6 4 21 6 26 -3l18 -36c4 -8 2 -18 -6 -21l-161 -67
c-14 -6 -19 -6 -23 2z" />
    <glyph glyph-name="OE" unicode="&#x152;" horiz-adv-x="967" 
d="M51 349c0 200 159 361 359 361c45 0 86 -10 86 -10h394c11 0 19 -9 19 -19v-29c0 -10 -8 -19 -19 -19h-336v-244h287c10 0 19 -9 19 -19v-29c0 -11 -9 -19 -19 -19h-287v-255h336c11 0 19 -9 19 -19v-29c0 -10 -8 -19 -19 -19h-394s-41 -10 -86 -10
c-200 0 -359 159 -359 359zM121 349c0 -159 130 -289 289 -289c23 0 45 2 67 7v564c-22 5 -44 8 -67 8c-159 0 -289 -131 -289 -290z" />
    <glyph glyph-name="Racute" unicode="&#x154;" horiz-adv-x="661" 
d="M102 19v662c0 10 8 19 19 19h259c120 0 218 -94 218 -213c0 -92 -61 -169 -148 -204l137 -254c7 -13 0 -29 -17 -29h-51c-9 0 -14 5 -16 9l-133 265h-191v-255c0 -10 -9 -19 -19 -19h-39c-11 0 -19 9 -19 19zM181 340h194c77 0 144 64 144 146c0 76 -67 141 -144 141
h-194v-287zM226 783l-10 22c-4 8 0 16 6 19l150 84c6 4 21 6 26 -3l18 -36c4 -8 2 -18 -6 -21l-161 -67c-14 -6 -19 -6 -23 2z" />
    <glyph glyph-name="Rcaron" unicode="&#x158;" horiz-adv-x="661" 
d="M102 19v662c0 10 8 19 19 19h259c120 0 218 -94 218 -213c0 -92 -61 -169 -148 -204l137 -254c7 -13 0 -29 -17 -29h-51c-9 0 -14 5 -16 9l-133 265h-191v-255c0 -10 -9 -19 -19 -19h-39c-11 0 -19 9 -19 19zM181 340h194c77 0 144 64 144 146c0 76 -67 141 -144 141
h-194v-287zM306 768c-4 0 -9 1 -13 4l-120 94c-6 4 -11 12 -6 19l14 18c5 7 11 10 23 2l102 -68l102 70c12 8 18 5 23 -2l14 -20c9 -12 -11 -23 -19 -29l-107 -84c-4 -3 -7 -4 -13 -4z" />
    <glyph glyph-name="Rcommaaccent" unicode="&#x156;" horiz-adv-x="660" 
d="M102 19v662c0 10 8 19 19 19h259c120 0 218 -94 218 -213c0 -92 -61 -169 -148 -204l137 -254c7 -13 0 -29 -17 -29h-51c-9 0 -14 5 -16 9l-133 265h-191v-255c0 -10 -9 -19 -19 -19h-39c-11 0 -19 9 -19 19zM181 340h194c77 0 144 64 144 146c0 76 -67 141 -144 141
h-194v-287zM315 -92c32 0 66 -18 66 -90c0 -83 -52 -155 -84 -185c-10 -9 -18 -8 -24 -2l-14 14c-5 5 -4 15 6 24s62 53 62 126c-4 -1 -8 -1 -12 -1c-31 0 -57 26 -57 57c0 32 26 57 57 57z" />
    <glyph glyph-name="Sacute" unicode="&#x15a;" horiz-adv-x="533" 
d="M63 71c-8 7 -18 15 -6 34c5 6 10 13 15 19c10 13 21 21 35 9c7 -6 80 -76 169 -76c81 0 134 51 134 110c0 69 -60 110 -175 158c-110 48 -176 93 -176 207c0 68 54 178 213 178c98 0 171 -51 171 -51c6 -3 18 -15 6 -34c-4 -6 -8 -13 -12 -19c-9 -14 -19 -18 -35 -9
c-7 4 -70 46 -131 46c-106 0 -138 -68 -138 -110c0 -67 51 -106 135 -141c135 -55 222 -106 222 -222c0 -104 -99 -180 -216 -180c-118 0 -198 69 -211 81zM193 783l-10 22c-4 8 0 16 6 19l150 84c6 4 21 6 26 -3l18 -36c4 -8 2 -18 -6 -21l-161 -67c-14 -6 -19 -6 -23 2z
" />
    <glyph glyph-name="Scircumflex" unicode="&#x15c;" horiz-adv-x="533" 
d="M63 71c-8 7 -18 15 -6 34c5 6 10 13 15 19c10 13 21 21 35 9c7 -6 80 -76 169 -76c81 0 134 51 134 110c0 69 -60 110 -175 158c-110 48 -176 93 -176 207c0 68 54 178 213 178c98 0 171 -51 171 -51c6 -3 18 -15 6 -34c-4 -6 -8 -13 -12 -19c-9 -14 -19 -18 -35 -9
c-7 4 -70 46 -131 46c-106 0 -138 -68 -138 -110c0 -67 51 -106 135 -141c135 -55 222 -106 222 -222c0 -104 -99 -180 -216 -180c-118 0 -198 69 -211 81zM148 775l-14 18c-5 7 0 15 6 19l120 94c4 3 9 4 13 4c6 0 9 -1 13 -4l120 -94c6 -4 11 -12 6 -19
c-9 -12 -17 -36 -37 -22l-102 70l-102 -68c-12 -8 -18 -5 -23 2z" />
    <glyph glyph-name="Scaron" unicode="&#x160;" horiz-adv-x="533" 
d="M63 71c-8 7 -18 15 -6 34c5 6 10 13 15 19c10 13 21 21 35 9c7 -6 80 -76 169 -76c81 0 134 51 134 110c0 69 -60 110 -175 158c-110 48 -176 93 -176 207c0 68 54 178 213 178c98 0 171 -51 171 -51c6 -3 18 -15 6 -34c-4 -6 -8 -13 -12 -19c-9 -14 -19 -18 -35 -9
c-7 4 -70 46 -131 46c-106 0 -138 -68 -138 -110c0 -67 51 -106 135 -141c135 -55 222 -106 222 -222c0 -104 -99 -180 -216 -180c-118 0 -198 69 -211 81zM273 768c-4 0 -9 1 -13 4l-120 94c-6 4 -11 12 -6 19l14 18c5 7 11 10 23 2l102 -68l102 70c12 8 18 5 23 -2l14 -20
c9 -12 -11 -23 -19 -29l-107 -84c-4 -3 -7 -4 -13 -4z" />
    <glyph glyph-name="Scedilla" unicode="&#x15e;" horiz-adv-x="534" 
d="M64 71c-8 7 -18 15 -6 34l15 19c10 13 21 21 35 9c7 -6 80 -76 169 -76c81 0 134 51 134 110c0 69 -60 110 -175 158c-110 48 -176 93 -176 207c0 68 54 178 213 178c98 0 171 -51 171 -51c6 -3 18 -15 6 -34l-12 -19c-9 -14 -19 -18 -35 -9c-7 4 -70 46 -131 46
c-106 0 -138 -68 -138 -110c0 -67 51 -106 135 -141c135 -55 222 -106 222 -222c0 -99 -90 -173 -200 -179v-44c61 -8 105 -45 105 -103s-46 -104 -105 -104c-30 0 -59 15 -76 35c-8 9 -7 21 0 26l14 11c7 5 18 6 23 0c12 -13 29 -18 41 -18c27 0 44 20 44 47
c0 46 -49 57 -83 63c-15 3 -17 15 -17 20v69c-97 12 -162 67 -173 78z" />
    <glyph glyph-name="Scommaaccent" unicode="&#x218;" horiz-adv-x="533" 
d="M63 71c-8 7 -18 15 -6 34c5 6 10 13 15 19c10 13 21 21 35 9c7 -6 80 -76 169 -76c81 0 134 51 134 110c0 69 -60 110 -175 158c-110 48 -176 93 -176 207c0 68 54 178 213 178c98 0 171 -51 171 -51c6 -3 18 -15 6 -34c-4 -6 -8 -13 -12 -19c-9 -14 -19 -18 -35 -9
c-7 4 -70 46 -131 46c-106 0 -138 -68 -138 -110c0 -67 51 -106 135 -141c135 -55 222 -106 222 -222c0 -104 -99 -180 -216 -180c-118 0 -198 69 -211 81zM275 -92c32 0 66 -18 66 -90c0 -83 -52 -155 -84 -185c-10 -9 -18 -8 -24 -2l-14 14c-5 5 -4 15 6 24s62 53 62 126
c-4 -1 -8 -1 -12 -1c-31 0 -57 26 -57 57c0 32 26 57 57 57z" />
    <glyph glyph-name="Tcaron" unicode="&#x164;" horiz-adv-x="478" 
d="M201 19v614h-174c-11 0 -19 9 -19 19v29c0 10 8 19 19 19h424c11 0 19 -9 19 -19v-29c0 -10 -8 -19 -19 -19h-174v-614c0 -10 -9 -19 -19 -19h-38c-10 0 -19 9 -19 19zM238 768c-4 0 -9 1 -13 4l-120 94c-6 4 -11 12 -6 19l14 18c5 7 11 10 23 2l102 -68l102 70
c12 8 18 5 23 -2l14 -20c9 -12 -11 -23 -19 -29l-107 -84c-4 -3 -7 -4 -13 -4z" />
    <glyph glyph-name="Tcommaaccent" unicode="&#x162;" horiz-adv-x="478" 
d="M201 19v614h-174c-11 0 -19 9 -19 19v29c0 10 8 19 19 19h424c11 0 19 -9 19 -19v-29c0 -10 -8 -19 -19 -19h-174v-614c0 -10 -9 -19 -19 -19h-38c-10 0 -19 9 -19 19zM236 -92c32 0 66 -18 66 -90c0 -83 -52 -155 -84 -185c-10 -9 -18 -8 -24 -2l-14 14c-5 5 -4 15 6 24
s62 53 62 126c-4 -1 -8 -1 -12 -1c-31 0 -57 26 -57 57c0 32 26 57 57 57z" />
    <glyph glyph-name="uni021A" unicode="&#x21a;" horiz-adv-x="478" 
d="M201 19v614h-174c-11 0 -19 9 -19 19v29c0 10 8 19 19 19h424c11 0 19 -9 19 -19v-29c0 -10 -8 -19 -19 -19h-174v-614c0 -10 -9 -19 -19 -19h-38c-10 0 -19 9 -19 19zM237 -92c32 0 66 -18 66 -90c0 -83 -52 -155 -84 -185c-10 -9 -18 -8 -24 -2l-14 14c-5 5 -4 15 6 24
s62 53 62 126c-4 -1 -8 -1 -12 -1c-31 0 -57 26 -57 57c0 32 26 57 57 57z" />
    <glyph glyph-name="Tbar" unicode="&#x166;" horiz-adv-x="478" 
d="M201 19v276h-104c-10 0 -18 9 -18 19v7c0 10 8 19 18 19h104v293h-174c-11 0 -19 9 -19 19v29c0 10 8 19 19 19h424c11 0 19 -9 19 -19v-29c0 -10 -8 -19 -19 -19h-174v-293h104c11 0 19 -9 19 -19v-8c0 -10 -8 -18 -19 -18h-104v-276c0 -10 -9 -19 -19 -19h-38
c-10 0 -19 9 -19 19z" />
    <glyph glyph-name="Thorn" unicode="&#xde;" horiz-adv-x="597" 
d="M102 19v661c0 10 8 20 19 20h38c10 0 19 -9 19 -19v-107h164c123 1 224 -100 224 -221c0 -124 -101 -225 -223 -225h-165v-109c0 -10 -9 -19 -19 -19h-38c-11 0 -19 9 -19 19zM178 202h159c82 0 152 67 152 153c0 81 -70 143 -152 143h-159v-296z" />
    <glyph glyph-name="Ugrave" unicode="&#xd9;" horiz-adv-x="716" 
d="M93 258v423c0 10 9 19 19 19h38c11 0 19 -9 19 -19v-417c0 -114 71 -203 188 -203c118 0 190 87 190 201v419c0 10 8 19 19 19h38c10 0 19 -9 19 -19v-423c0 -152 -108 -268 -266 -268c-157 0 -264 116 -264 268zM423 781l-161 67c-8 3 -10 13 -6 21l18 36c5 9 20 7 26 3
l150 -84c6 -3 10 -11 6 -19l-10 -22c-4 -8 -9 -8 -23 -2z" />
    <glyph glyph-name="Uacute" unicode="&#xda;" horiz-adv-x="716" 
d="M93 258v423c0 10 9 19 19 19h38c11 0 19 -9 19 -19v-417c0 -114 71 -203 188 -203c118 0 190 87 190 201v419c0 10 8 19 19 19h38c10 0 19 -9 19 -19v-423c0 -152 -108 -268 -266 -268c-157 0 -264 116 -264 268zM266 783l-10 22c-4 8 0 16 6 19l150 84c6 4 21 6 26 -3
l18 -36c4 -8 2 -18 -6 -21l-161 -67c-14 -6 -19 -6 -23 2z" />
    <glyph glyph-name="Ucircumflex" unicode="&#xdb;" horiz-adv-x="716" 
d="M93 258v423c0 10 9 19 19 19h38c11 0 19 -9 19 -19v-417c0 -114 71 -203 188 -203c118 0 190 87 190 201v419c0 10 8 19 19 19h38c10 0 19 -9 19 -19v-423c0 -152 -108 -268 -266 -268c-157 0 -264 116 -264 268zM228 775l-14 18c-5 7 0 15 6 19l120 94c4 3 9 4 13 4
c6 0 9 -1 13 -4l120 -94c6 -4 11 -12 6 -19c-9 -12 -17 -36 -37 -22l-102 70l-102 -68c-12 -8 -18 -5 -23 2z" />
    <glyph glyph-name="Utilde" unicode="&#x168;" horiz-adv-x="716" 
d="M93 258v423c0 10 9 19 19 19h38c11 0 19 -9 19 -19v-417c0 -114 71 -203 188 -203c118 0 190 87 190 201v419c0 10 8 19 19 19h38c10 0 19 -9 19 -19v-423c0 -152 -108 -268 -266 -268c-157 0 -264 116 -264 268zM237 795l-18 9c-8 4 -7 15 -4 22c9 18 26 84 92 84
c60 0 79 -74 110 -74c28 0 40 34 45 51c3 10 12 13 23 8l16 -8c12 -6 6 -19 4 -26c-10 -29 -34 -81 -89 -81s-82 75 -110 75c-27 0 -37 -29 -44 -50c-3 -10 -12 -17 -25 -10z" />
    <glyph glyph-name="Udieresis" unicode="&#xdc;" horiz-adv-x="716" 
d="M93 258v423c0 10 9 19 19 19h38c11 0 19 -9 19 -19v-417c0 -114 71 -203 188 -203c118 0 190 87 190 201v419c0 10 8 19 19 19h38c10 0 19 -9 19 -19v-423c0 -152 -108 -268 -266 -268c-157 0 -264 116 -264 268zM462 792c-26 0 -47 21 -47 47c0 27 21 48 47 48
c27 0 48 -21 48 -48c0 -26 -21 -47 -48 -47zM251 792c-26 0 -47 21 -47 47c0 27 21 48 47 48c27 0 48 -21 48 -48c0 -26 -21 -47 -48 -47z" />
    <glyph glyph-name="Umacron" unicode="&#x16a;" horiz-adv-x="716" 
d="M93 258v423c0 10 9 19 19 19h38c11 0 19 -9 19 -19v-417c0 -114 71 -203 188 -203c118 0 190 87 190 201v419c0 10 8 19 19 19h38c10 0 19 -9 19 -19v-423c0 -152 -108 -268 -266 -268c-157 0 -264 116 -264 268zM229 821c-11 0 -19 8 -19 18v21c0 11 8 19 19 19h256
c11 0 19 -8 19 -19v-21c0 -10 -8 -18 -19 -18h-256z" />
    <glyph glyph-name="Ubreve" unicode="&#x16c;" horiz-adv-x="716" 
d="M93 258v423c0 10 9 19 19 19h38c11 0 19 -9 19 -19v-417c0 -114 71 -203 188 -203c118 0 190 87 190 201v419c0 10 8 19 19 19h38c10 0 19 -9 19 -19v-423c0 -152 -108 -268 -266 -268c-157 0 -264 116 -264 268zM356 771c-70 0 -126 49 -135 114c-2 11 2 20 14 20h21
c11 0 16 -8 19 -17c11 -38 41 -64 81 -64c37 0 68 29 79 64c4 11 10 17 19 17h23c11 0 16 -9 14 -20c-11 -65 -66 -114 -135 -114z" />
    <glyph glyph-name="Uring" unicode="&#x16e;" horiz-adv-x="716" 
d="M93 258v423c0 10 9 19 19 19h38c11 0 19 -9 19 -19v-417c0 -114 71 -203 188 -203c118 0 190 87 190 201v419c0 10 8 19 19 19h38c10 0 19 -9 19 -19v-423c0 -152 -108 -268 -266 -268c-157 0 -264 116 -264 268zM356 758c-61 0 -109 48 -109 109s48 109 109 109
c60 0 109 -48 109 -109s-49 -109 -109 -109zM356 806c32 0 59 29 59 61s-27 59 -59 59s-61 -27 -61 -59s29 -61 61 -61z" />
    <glyph glyph-name="Uhungarumlaut" unicode="&#x170;" horiz-adv-x="716" 
d="M93 258v423c0 10 9 19 19 19h38c11 0 19 -9 19 -19v-417c0 -114 71 -203 188 -203c118 0 190 87 190 201v419c0 10 8 19 19 19h38c10 0 19 -9 19 -19v-423c0 -152 -108 -268 -266 -268c-157 0 -264 116 -264 268zM445 769c-10 0 -22 9 -19 19l50 141c3 10 9 19 19 19h39
c19 0 25 -12 18 -25l-78 -139c-4 -8 -11 -15 -18 -15h-11zM279 769c-10 0 -22 9 -19 19l50 141c3 10 9 19 19 19h39c19 0 25 -12 18 -25l-78 -139c-4 -8 -11 -15 -18 -15h-11z" />
    <glyph glyph-name="Uogonek" unicode="&#x172;" horiz-adv-x="720" 
d="M95 258v423c0 10 9 19 19 19h38c11 0 19 -9 19 -19v-417c0 -114 71 -203 188 -203c118 0 190 87 190 201v419c0 10 8 19 19 19h38c10 0 19 -9 19 -19v-423c0 -144 -97 -256 -242 -267c-18 -19 -39 -50 -39 -90c0 -33 27 -57 57 -57c25 0 42 9 55 16c8 4 18 -1 18 -14v-25
c0 -9 -7 -13 -14 -17c-10 -5 -37 -15 -70 -15c-56 0 -106 32 -106 102c0 47 25 81 45 101c-140 13 -234 123 -234 266z" />
    <glyph glyph-name="Wacute" unicode="&#x1e82;" horiz-adv-x="902" 
d="M226 4l-189 672c-4 14 4 24 18 24h42c8 0 16 -7 18 -14l139 -518h4l167 531c2 6 8 11 17 11h18c8 0 15 -5 17 -11l170 -531h4l136 518c2 7 10 14 18 14h42c14 0 22 -10 18 -24l-189 -672c-2 -8 -10 -14 -18 -14h-16c-7 0 -14 5 -17 11l-173 541h-5l-170 -541
c-3 -6 -10 -11 -17 -11h-16c-8 0 -16 6 -18 14zM360 783l-10 22c-4 8 0 16 6 19l150 84c6 4 21 6 26 -3l18 -36c4 -8 2 -18 -6 -21l-161 -67c-14 -6 -19 -6 -23 2z" />
    <glyph glyph-name="Wcircumflex" unicode="&#x174;" horiz-adv-x="902" 
d="M226 4l-189 672c-4 14 4 24 18 24h42c8 0 16 -7 18 -14l139 -518h4l167 531c2 6 8 11 17 11h18c8 0 15 -5 17 -11l170 -531h4l136 518c2 7 10 14 18 14h42c14 0 22 -10 18 -24l-189 -672c-2 -8 -10 -14 -18 -14h-16c-7 0 -14 5 -17 11l-173 541h-5l-170 -541
c-3 -6 -10 -11 -17 -11h-16c-8 0 -16 6 -18 14zM325 775l-14 18c-5 7 0 15 6 19l120 94c4 3 9 4 13 4c6 0 9 -1 13 -4l120 -94c6 -4 11 -12 6 -19c-9 -12 -17 -36 -37 -22l-102 70l-102 -68c-12 -8 -18 -5 -23 2z" />
    <glyph glyph-name="Wdieresis" unicode="&#x1e84;" horiz-adv-x="902" 
d="M226 4l-189 672c-4 14 4 24 18 24h42c8 0 16 -7 18 -14l139 -518h4l167 531c2 6 8 11 17 11h18c8 0 15 -5 17 -11l170 -531h4l136 518c2 7 10 14 18 14h42c14 0 22 -10 18 -24l-189 -672c-2 -8 -10 -14 -18 -14h-16c-7 0 -14 5 -17 11l-173 541h-5l-170 -541
c-3 -6 -10 -11 -17 -11h-16c-8 0 -16 6 -18 14zM555 792c-26 0 -47 21 -47 47c0 27 21 48 47 48c27 0 48 -21 48 -48c0 -26 -21 -47 -48 -47zM344 792c-26 0 -47 21 -47 47c0 27 21 48 47 48c27 0 48 -21 48 -48c0 -26 -21 -47 -48 -47z" />
    <glyph glyph-name="Wgrave" unicode="&#x1e80;" horiz-adv-x="902" 
d="M226 4l-189 672c-4 14 4 24 18 24h42c8 0 16 -7 18 -14l139 -518h4l167 531c2 6 8 11 17 11h18c8 0 15 -5 17 -11l170 -531h4l136 518c2 7 10 14 18 14h42c14 0 22 -10 18 -24l-189 -672c-2 -8 -10 -14 -18 -14h-16c-7 0 -14 5 -17 11l-173 541h-5l-170 -541
c-3 -6 -10 -11 -17 -11h-16c-8 0 -16 6 -18 14zM517 781l-161 67c-8 3 -10 13 -6 21l18 36c5 9 20 7 26 3l150 -84c6 -3 10 -11 6 -19l-10 -22c-4 -8 -9 -8 -23 -2z" />
    <glyph glyph-name="Yacute" unicode="&#xdd;" horiz-adv-x="565" 
d="M243 19v318l-241 334c-8 13 0 29 16 29h47c7 0 13 -5 16 -9l202 -279l202 279c3 4 9 9 16 9h47c16 0 24 -16 16 -29l-244 -333v-319c0 -10 -9 -19 -19 -19h-39c-11 0 -19 9 -19 19zM193 783l-10 22c-4 8 0 16 6 19l150 84c6 4 21 6 26 -3l18 -36c4 -8 2 -18 -6 -21
l-161 -67c-14 -6 -19 -6 -23 2z" />
    <glyph glyph-name="Ycircumflex" unicode="&#x176;" horiz-adv-x="565" 
d="M243 19v318l-241 334c-8 13 0 29 16 29h47c7 0 13 -5 16 -9l202 -279l202 279c3 4 9 9 16 9h47c16 0 24 -16 16 -29l-244 -333v-319c0 -10 -9 -19 -19 -19h-39c-11 0 -19 9 -19 19zM158 775l-14 18c-5 7 0 15 6 19l120 94c4 3 9 4 13 4c6 0 9 -1 13 -4l120 -94
c6 -4 11 -12 6 -19c-9 -12 -17 -36 -37 -22l-102 70l-102 -68c-12 -8 -18 -5 -23 2z" />
    <glyph glyph-name="Ydieresis" unicode="&#x178;" horiz-adv-x="565" 
d="M243 19v318l-241 334c-8 13 0 29 16 29h47c7 0 13 -5 16 -9l202 -279l202 279c3 4 9 9 16 9h47c16 0 24 -16 16 -29l-244 -333v-319c0 -10 -9 -19 -19 -19h-39c-11 0 -19 9 -19 19zM388 792c-26 0 -47 21 -47 47c0 27 21 48 47 48c27 0 48 -21 48 -48
c0 -26 -21 -47 -48 -47zM177 792c-26 0 -47 21 -47 47c0 27 21 48 47 48c27 0 48 -21 48 -48c0 -26 -21 -47 -48 -47z" />
    <glyph glyph-name="Ygrave" unicode="&#x1ef2;" horiz-adv-x="565" 
d="M243 19v318l-241 334c-8 13 0 29 16 29h47c7 0 13 -5 16 -9l202 -279l202 279c3 4 9 9 16 9h47c16 0 24 -16 16 -29l-244 -333v-319c0 -10 -9 -19 -19 -19h-39c-11 0 -19 9 -19 19zM350 781l-161 67c-8 3 -10 13 -6 21l18 36c5 9 20 7 26 3l150 -84c6 -3 10 -11 6 -19
l-10 -22c-4 -8 -9 -8 -23 -2z" />
    <glyph glyph-name="Zacute" unicode="&#x179;" horiz-adv-x="534" 
d="M30 19v18l363 590v3h-315c-10 0 -19 9 -19 19v32c0 10 9 19 19 19h405c10 0 19 -9 19 -19v-13l-369 -597v-1h330c11 0 19 -9 19 -19v-32c0 -10 -8 -19 -19 -19h-414c-10 0 -19 9 -19 19zM205 783l-10 22c-4 8 0 16 6 19l150 84c6 4 21 6 26 -3l18 -36c4 -8 2 -18 -6 -21
l-161 -67c-14 -6 -19 -6 -23 2z" />
    <glyph glyph-name="Zcaron" unicode="&#x17d;" horiz-adv-x="534" 
d="M30 19v18l363 590v3h-315c-10 0 -19 9 -19 19v32c0 10 9 19 19 19h405c10 0 19 -9 19 -19v-13l-369 -597v-1h330c11 0 19 -9 19 -19v-32c0 -10 -8 -19 -19 -19h-414c-10 0 -19 9 -19 19zM285 768c-4 0 -9 1 -13 4l-120 94c-6 4 -11 12 -6 19l14 18c5 7 11 10 23 2
l102 -68l102 70c12 8 18 5 23 -2l14 -20c9 -12 -11 -23 -19 -29l-107 -84c-4 -3 -7 -4 -13 -4z" />
    <glyph glyph-name="Zdotaccent" unicode="&#x17b;" horiz-adv-x="534" 
d="M30 19v18l363 590v3h-315c-10 0 -19 9 -19 19v32c0 10 9 19 19 19h405c10 0 19 -9 19 -19v-13l-369 -597v-1h330c11 0 19 -9 19 -19v-32c0 -10 -8 -19 -19 -19h-414c-10 0 -19 9 -19 19zM285 796c-31 0 -57 26 -57 57c0 32 26 57 57 57c32 0 57 -25 57 -57
c0 -31 -25 -57 -57 -57z" />
    <glyph glyph-name="agrave" unicode="&#xe0;" horiz-adv-x="419" 
d="M42 121c0 76 57 133 160 133c43 0 85 -13 85 -13c1 74 -8 108 -65 108c-55 0 -102 -15 -120 -22c-10 -4 -16 1 -19 10l-8 25c-4 12 2 18 11 22c6 3 64 26 139 26c102 0 127 -52 127 -169v-222c0 -10 -9 -19 -19 -19h-19c-11 0 -14 6 -17 15l-8 27
c-21 -21 -62 -52 -124 -52c-70 0 -123 51 -123 131zM106 121c0 -40 27 -71 70 -71c50 0 93 31 110 56v79c-12 7 -40 16 -84 16c-56 0 -96 -28 -96 -80zM289 559l-161 67c-8 3 -10 13 -6 21l18 36c5 9 20 7 26 3l150 -84c6 -3 10 -11 6 -19l-10 -22c-4 -8 -9 -8 -23 -2z" />
    <glyph glyph-name="aacute" unicode="&#xe1;" horiz-adv-x="419" 
d="M42 121c0 76 57 133 160 133c43 0 85 -13 85 -13c1 74 -8 108 -65 108c-55 0 -102 -15 -120 -22c-10 -4 -16 1 -19 10l-8 25c-4 12 2 18 11 22c6 3 64 26 139 26c102 0 127 -52 127 -169v-222c0 -10 -9 -19 -19 -19h-19c-11 0 -14 6 -17 15l-8 27
c-21 -21 -62 -52 -124 -52c-70 0 -123 51 -123 131zM106 121c0 -40 27 -71 70 -71c50 0 93 31 110 56v79c-12 7 -40 16 -84 16c-56 0 -96 -28 -96 -80zM124 561l-10 22c-4 8 0 16 6 19l150 84c6 4 21 6 26 -3l18 -36c4 -8 2 -18 -6 -21l-161 -67c-14 -6 -19 -6 -23 2z" />
    <glyph glyph-name="acircumflex" unicode="&#xe2;" horiz-adv-x="419" 
d="M42 121c0 76 57 133 160 133c43 0 85 -13 85 -13c1 74 -8 108 -65 108c-55 0 -102 -15 -120 -22c-10 -4 -16 1 -19 10l-8 25c-4 12 2 18 11 22c6 3 64 26 139 26c102 0 127 -52 127 -169v-222c0 -10 -9 -19 -19 -19h-19c-11 0 -14 6 -17 15l-8 27
c-21 -21 -62 -52 -124 -52c-70 0 -123 51 -123 131zM106 121c0 -40 27 -71 70 -71c50 0 93 31 110 56v79c-12 7 -40 16 -84 16c-56 0 -96 -28 -96 -80zM81 555l-14 18c-5 7 0 15 6 19l120 94c4 3 9 4 13 4c6 0 9 -1 13 -4l120 -94c6 -4 11 -12 6 -19c-9 -12 -17 -36 -37 -22
l-102 70l-102 -68c-12 -8 -18 -5 -23 2z" />
    <glyph glyph-name="atilde" unicode="&#xe3;" horiz-adv-x="419" 
d="M42 121c0 76 57 133 160 133c43 0 85 -13 85 -13c1 74 -8 108 -65 108c-55 0 -102 -15 -120 -22c-10 -4 -16 1 -19 10l-8 25c-4 12 2 18 11 22c6 3 64 26 139 26c102 0 127 -52 127 -169v-222c0 -10 -9 -19 -19 -19h-19c-11 0 -14 6 -17 15l-8 27
c-21 -21 -62 -52 -124 -52c-70 0 -123 51 -123 131zM106 121c0 -40 27 -71 70 -71c50 0 93 31 110 56v79c-12 7 -40 16 -84 16c-56 0 -96 -28 -96 -80zM82 575l-18 9c-8 4 -7 15 -4 22c9 18 26 84 92 84c60 0 79 -74 110 -74c28 0 40 34 45 51c3 10 12 13 23 8l16 -8
c12 -6 6 -19 4 -26c-10 -29 -34 -81 -89 -81s-82 75 -110 75c-27 0 -37 -29 -44 -50c-3 -10 -12 -17 -25 -10z" />
    <glyph glyph-name="adieresis" unicode="&#xe4;" horiz-adv-x="419" 
d="M42 121c0 76 57 133 160 133c43 0 85 -13 85 -13c1 74 -8 108 -65 108c-55 0 -102 -15 -120 -22c-10 -4 -16 1 -19 10l-8 25c-4 12 2 18 11 22c6 3 64 26 139 26c102 0 127 -52 127 -169v-222c0 -10 -9 -19 -19 -19h-19c-11 0 -14 6 -17 15l-8 27
c-21 -21 -62 -52 -124 -52c-70 0 -123 51 -123 131zM106 121c0 -40 27 -71 70 -71c50 0 93 31 110 56v79c-12 7 -40 16 -84 16c-56 0 -96 -28 -96 -80zM315 585c-26 0 -47 21 -47 47c0 27 21 48 47 48c27 0 48 -21 48 -48c0 -26 -21 -47 -48 -47zM122 585
c-26 0 -47 21 -47 47c0 27 21 48 47 48c27 0 48 -21 48 -48c0 -26 -21 -47 -48 -47z" />
    <glyph glyph-name="amacron" unicode="&#x101;" horiz-adv-x="419" 
d="M42 121c0 76 57 133 160 133c43 0 85 -13 85 -13c1 74 -8 108 -65 108c-55 0 -102 -15 -120 -22c-10 -4 -16 1 -19 10l-8 25c-4 12 2 18 11 22c6 3 64 26 139 26c102 0 127 -52 127 -169v-222c0 -10 -9 -19 -19 -19h-19c-11 0 -14 6 -17 15l-8 27
c-21 -21 -62 -52 -124 -52c-70 0 -123 51 -123 131zM106 121c0 -40 27 -71 70 -71c50 0 93 31 110 56v79c-12 7 -40 16 -84 16c-56 0 -96 -28 -96 -80zM77 583c-11 0 -19 8 -19 18v21c0 11 8 19 19 19h256c11 0 19 -8 19 -19v-21c0 -10 -8 -18 -19 -18h-256z" />
    <glyph glyph-name="abreve" unicode="&#x103;" horiz-adv-x="419" 
d="M42 121c0 76 57 133 160 133c43 0 85 -13 85 -13c1 74 -8 108 -65 108c-55 0 -102 -15 -120 -22c-10 -4 -16 1 -19 10l-8 25c-4 12 2 18 11 22c6 3 64 26 139 26c102 0 127 -52 127 -169v-222c0 -10 -9 -19 -19 -19h-19c-11 0 -14 6 -17 15l-8 27
c-21 -21 -62 -52 -124 -52c-70 0 -123 51 -123 131zM106 121c0 -40 27 -71 70 -71c50 0 93 31 110 56v79c-12 7 -40 16 -84 16c-56 0 -96 -28 -96 -80zM216 531c-70 0 -126 49 -135 114c-2 11 2 20 14 20h21c11 0 16 -8 19 -17c11 -38 41 -64 81 -64c37 0 68 29 79 64
c4 11 10 17 19 17h23c11 0 16 -9 14 -20c-11 -65 -66 -114 -135 -114z" />
    <glyph glyph-name="aring" unicode="&#xe5;" horiz-adv-x="419" 
d="M42 121c0 76 57 133 160 133c43 0 85 -13 85 -13c1 74 -8 108 -65 108c-55 0 -102 -15 -120 -22c-10 -4 -16 1 -19 10l-8 25c-4 12 2 18 11 22c6 3 64 26 139 26c102 0 127 -52 127 -169v-222c0 -10 -9 -19 -19 -19h-19c-11 0 -14 6 -17 15l-8 27
c-21 -21 -62 -52 -124 -52c-70 0 -123 51 -123 131zM106 121c0 -40 27 -71 70 -71c50 0 93 31 110 56v79c-12 7 -40 16 -84 16c-56 0 -96 -28 -96 -80zM207 492c-61 0 -109 48 -109 109s48 109 109 109c60 0 109 -48 109 -109s-49 -109 -109 -109zM207 540c32 0 59 29 59 61
s-27 59 -59 59s-61 -27 -61 -59s29 -61 61 -61z" />
    <glyph glyph-name="aringacute" unicode="&#x1fb;" horiz-adv-x="419" 
d="M42 121c0 76 57 133 160 133c43 0 85 -13 85 -13c1 74 -8 108 -65 108c-55 0 -102 -15 -120 -22c-10 -4 -16 1 -19 10l-8 25c-4 12 2 18 11 22c6 3 64 26 139 26c102 0 127 -52 127 -169v-222c0 -10 -9 -19 -19 -19h-19c-11 0 -14 6 -17 15l-8 27
c-21 -21 -62 -52 -124 -52c-70 0 -123 51 -123 131zM106 121c0 -40 27 -71 70 -71c50 0 93 31 110 56v79c-12 7 -40 16 -84 16c-56 0 -96 -28 -96 -80zM203 436c-61 0 -109 48 -109 109s48 109 109 109c60 0 109 -48 109 -109s-49 -109 -109 -109zM203 484c32 0 59 29 59 61
s-27 59 -59 59s-61 -27 -61 -59s29 -61 61 -61zM109 665l-10 22c-4 8 0 16 6 19l150 84c6 4 21 6 26 -3l18 -36c4 -8 2 -18 -6 -21l-161 -67c-14 -6 -19 -6 -23 2z" />
    <glyph glyph-name="aogonek" unicode="&#x105;" horiz-adv-x="420" 
d="M42 121c0 76 57 133 160 133c43 0 85 -13 85 -13c1 74 -10 111 -66 111s-100 -18 -118 -24c-10 -3 -18 4 -21 14l-7 20c-3 12 2 18 11 22c6 3 57 26 141 26c130 0 125 -91 125 -182v-209c0 -9 -7 -17 -15 -19c-17 -15 -48 -51 -48 -99c0 -33 27 -57 57 -57
c25 0 42 9 55 16c8 4 18 -1 18 -14v-25c0 -9 -7 -13 -14 -17c-10 -5 -37 -15 -70 -15c-56 0 -106 32 -106 102c0 76 69 120 69 120l-9 31c-21 -21 -62 -52 -124 -52c-70 0 -123 51 -123 131zM106 121c0 -40 27 -71 70 -71c50 0 93 31 110 56v79c-12 7 -40 16 -84 16
c-56 0 -96 -28 -96 -80z" />
    <glyph glyph-name="ae" unicode="&#xe6;" horiz-adv-x="690" 
d="M43 124c0 75 55 129 148 129c53 0 91 -6 91 -6c1 75 -6 104 -56 104c-62 0 -109 -18 -127 -24c-10 -3 -19 4 -21 14l-5 25c-2 10 5 17 16 20c0 0 64 24 140 24c68 0 95 -21 109 -55c34 33 81 55 134 55c100 0 180 -73 180 -183c0 -20 -1 -44 -20 -44h-280v-61
c24 -42 72 -67 126 -67c42 0 76 14 99 28c14 8 20 13 28 2l17 -23c7 -9 11 -15 -4 -26c-25 -19 -78 -46 -147 -46c-65 0 -116 24 -151 71c-27 -35 -82 -71 -146 -71c-78 0 -131 53 -131 134zM354 240h230c-3 62 -52 108 -113 108c-49 0 -96 -30 -117 -67v-41zM106 122
c0 -51 40 -72 81 -72c42 0 80 26 97 51v89s-29 9 -83 9c-50 0 -95 -27 -95 -77z" />
    <glyph glyph-name="aeacute" unicode="&#x1fd;" horiz-adv-x="690" 
d="M43 124c0 75 55 129 148 129c53 0 91 -6 91 -6c1 75 -6 104 -56 104c-62 0 -109 -18 -127 -24c-10 -3 -19 4 -21 14l-5 25c-2 10 5 17 16 20c0 0 64 24 140 24c68 0 95 -21 109 -55c34 33 81 55 134 55c100 0 180 -73 180 -183c0 -20 -1 -44 -20 -44h-280v-61
c24 -42 72 -67 126 -67c42 0 76 14 99 28c14 8 20 13 28 2l17 -23c7 -9 11 -15 -4 -26c-25 -19 -78 -46 -147 -46c-65 0 -116 24 -151 71c-27 -35 -82 -71 -146 -71c-78 0 -131 53 -131 134zM354 240h230c-3 62 -52 108 -113 108c-49 0 -96 -30 -117 -67v-41zM106 122
c0 -51 40 -72 81 -72c42 0 80 26 97 51v89s-29 9 -83 9c-50 0 -95 -27 -95 -77zM294 561l-10 22c-4 8 0 16 6 19l150 84c6 4 21 6 26 -3l18 -36c4 -8 2 -18 -6 -21l-161 -67c-14 -6 -19 -6 -23 2z" />
    <glyph glyph-name="cacute" unicode="&#x107;" horiz-adv-x="441" 
d="M41 199c0 118 97 211 206 211c60 0 107 -24 143 -70c7 -9 5 -21 -4 -28l-19 -16c-15 -14 -20 -4 -29 4c-20 23 -53 42 -92 42c-75 0 -133 -62 -133 -142s57 -144 132 -144c60 0 83 30 106 52c12 12 19 10 30 2l11 -8c10 -7 13 -18 7 -28c-30 -48 -85 -84 -153 -84
c-111 0 -205 89 -205 209zM157 561l-10 22c-4 8 0 16 6 19l150 84c6 4 21 6 26 -3l18 -36c4 -8 2 -18 -6 -21l-161 -67c-14 -6 -19 -6 -23 2z" />
    <glyph glyph-name="ccircumflex" unicode="&#x109;" horiz-adv-x="441" 
d="M41 199c0 118 97 211 206 211c60 0 107 -24 143 -70c7 -9 5 -21 -4 -28l-19 -16c-15 -14 -20 -4 -29 4c-20 23 -53 42 -92 42c-75 0 -133 -62 -133 -142s57 -144 132 -144c60 0 83 30 106 52c12 12 19 10 30 2l11 -8c10 -7 13 -18 7 -28c-30 -48 -85 -84 -153 -84
c-111 0 -205 89 -205 209zM120 555l-14 18c-5 7 0 15 6 19l120 94c4 3 9 4 13 4c6 0 9 -1 13 -4l120 -94c6 -4 11 -12 6 -19c-9 -12 -17 -36 -37 -22l-102 70l-102 -68c-12 -8 -18 -5 -23 2z" />
    <glyph glyph-name="ccaron" unicode="&#x10d;" horiz-adv-x="441" 
d="M41 199c0 118 97 211 206 211c60 0 107 -24 143 -70c7 -9 5 -21 -4 -28l-19 -16c-15 -14 -20 -4 -29 4c-20 23 -53 42 -92 42c-75 0 -133 -62 -133 -142s57 -144 132 -144c60 0 83 30 106 52c12 12 19 10 30 2l11 -8c10 -7 13 -18 7 -28c-30 -48 -85 -84 -153 -84
c-111 0 -205 89 -205 209zM232 546l-120 94c-6 4 -11 12 -6 19l14 18c5 7 11 10 23 2l102 -68l102 70c12 8 18 5 23 -2l14 -20c9 -12 -11 -23 -19 -29l-107 -84c-4 -3 -7 -4 -13 -4c-4 0 -9 1 -13 4z" />
    <glyph glyph-name="cdotaccent" unicode="&#x10b;" horiz-adv-x="441" 
d="M41 199c0 118 97 211 206 211c60 0 107 -24 143 -70c7 -9 5 -21 -4 -28l-19 -16c-15 -14 -20 -4 -29 4c-20 23 -53 42 -92 42c-75 0 -133 -62 -133 -142s57 -144 132 -144c60 0 83 30 106 52c12 12 19 10 30 2l11 -8c10 -7 13 -18 7 -28c-30 -48 -85 -84 -153 -84
c-111 0 -205 89 -205 209zM245 566c-31 0 -57 26 -57 57c0 32 26 57 57 57c32 0 57 -25 57 -57c0 -31 -25 -57 -57 -57z" />
    <glyph glyph-name="ccedilla" unicode="&#xe7;" horiz-adv-x="443" 
d="M42 199c0 118 97 211 206 211c60 0 107 -24 143 -70c7 -9 5 -21 -4 -28l-19 -16c-15 -14 -20 -4 -29 4c-20 23 -53 42 -92 42c-75 0 -133 -62 -133 -142s57 -144 132 -144c60 0 83 30 106 52c12 12 19 10 30 2l11 -8c10 -7 13 -18 7 -28c-28 -45 -77 -78 -138 -83v-44
c61 -8 105 -45 105 -103s-46 -104 -105 -104c-30 0 -59 15 -76 35c-8 9 -7 21 0 26l14 11c7 5 18 6 23 0c12 -13 29 -18 41 -18c27 0 44 20 44 47c0 46 -49 57 -83 63c-15 3 -17 15 -17 20v70c-93 17 -166 99 -166 205z" />
    <glyph glyph-name="dcaron" unicode="&#x10f;" horiz-adv-x="512" 
d="M42 201c0 117 72 209 192 209c66 0 107 -26 107 -26v297c0 10 9 19 19 19h31c10 0 19 -9 19 -19v-662c0 -10 -9 -19 -19 -19h-21c-9 0 -15 7 -17 16l-6 27s-48 -53 -123 -53c-102 0 -182 96 -182 211zM112 200c0 -78 46 -147 119 -147c72 0 109 66 109 66v200
s-42 24 -97 24c-87 0 -131 -63 -131 -143zM527 434l-14 14c-5 5 -4 15 6 24s62 53 62 126c-4 -1 -8 -1 -12 -1c-31 0 -57 26 -57 57c0 32 26 57 57 57c32 0 66 -18 66 -90c0 -83 -52 -155 -84 -185c-10 -9 -18 -8 -24 -2z" />
    <glyph glyph-name="dcroat" unicode="&#x111;" 
d="M42 201c0 117 72 209 192 209c66 0 107 -26 107 -26v152h-155c-11 0 -19 8 -19 18v8c0 10 8 19 19 19h155v100c0 10 9 19 19 19h31c10 0 19 -9 19 -19v-100h33c10 0 18 -9 18 -19v-7c0 -10 -8 -19 -18 -19h-33v-517c0 -10 -9 -19 -19 -19h-21c-9 0 -15 7 -17 16l-6 27
s-48 -53 -123 -53c-102 0 -182 96 -182 211zM112 200c0 -78 46 -147 119 -147c72 0 109 66 109 66v200s-42 24 -97 24c-87 0 -131 -63 -131 -143z" />
    <glyph glyph-name="eth" unicode="&#xf0;" horiz-adv-x="544" 
d="M41 219c0 133 102 217 215 217c86 0 152 -45 152 -45c-18 68 -72 128 -128 172l-97 -56c-9 -5 -21 -1 -25 7l-4 7c-5 8 -3 20 6 25l80 46c-51 32 -82 46 -99 53c-12 5 -14 12 -8 24l13 27c3 7 11 10 20 7c29 -11 82 -34 138 -74l70 40c10 6 21 2 26 -7l4 -7
c5 -8 2 -19 -7 -25l-54 -31c79 -69 152 -173 152 -324c0 -159 -71 -285 -233 -285c-130 0 -221 103 -221 229zM112 215c0 -86 66 -159 150 -159c137 0 176 150 159 250c0 0 -65 65 -158 65c-84 0 -151 -69 -151 -156z" />
    <glyph glyph-name="egrave" unicode="&#xe8;" horiz-adv-x="457" 
d="M42 200c0 113 75 210 196 210c105 0 181 -78 181 -183c0 -7 -1 -20 -2 -27c-1 -10 -9 -17 -18 -17h-288c4 -67 63 -130 134 -130c42 0 76 16 99 30c14 8 20 13 28 2c6 -8 11 -15 17 -23c7 -9 11 -15 -4 -26c-24 -19 -78 -46 -147 -46c-121 0 -196 95 -196 210zM112 239
h238c-3 58 -51 110 -112 110c-67 0 -119 -48 -126 -110zM304 559l-161 67c-8 3 -10 13 -6 21l18 36c5 9 20 7 26 3l150 -84c6 -3 10 -11 6 -19l-10 -22c-4 -8 -9 -8 -23 -2z" />
    <glyph glyph-name="eacute" unicode="&#xe9;" horiz-adv-x="457" 
d="M42 200c0 113 75 210 196 210c105 0 181 -78 181 -183c0 -7 -1 -20 -2 -27c-1 -10 -9 -17 -18 -17h-288c4 -67 63 -130 134 -130c42 0 76 16 99 30c14 8 20 13 28 2c6 -8 11 -15 17 -23c7 -9 11 -15 -4 -26c-24 -19 -78 -46 -147 -46c-121 0 -196 95 -196 210zM112 239
h238c-3 58 -51 110 -112 110c-67 0 -119 -48 -126 -110zM144 561l-10 22c-4 8 0 16 6 19l150 84c6 4 21 6 26 -3l18 -36c4 -8 2 -18 -6 -21l-161 -67c-14 -6 -19 -6 -23 2z" />
    <glyph glyph-name="ecircumflex" unicode="&#xea;" horiz-adv-x="457" 
d="M42 200c0 113 75 210 196 210c105 0 181 -78 181 -183c0 -7 -1 -20 -2 -27c-1 -10 -9 -17 -18 -17h-288c4 -67 63 -130 134 -130c42 0 76 16 99 30c14 8 20 13 28 2c6 -8 11 -15 17 -23c7 -9 11 -15 -4 -26c-24 -19 -78 -46 -147 -46c-121 0 -196 95 -196 210zM112 239
h238c-3 58 -51 110 -112 110c-67 0 -119 -48 -126 -110zM115 555l-14 18c-5 7 0 15 6 19l120 94c4 3 9 4 13 4c6 0 9 -1 13 -4l120 -94c6 -4 11 -12 6 -19c-9 -12 -17 -36 -37 -22l-102 70l-102 -68c-12 -8 -18 -5 -23 2z" />
    <glyph glyph-name="ecaron" unicode="&#x11b;" horiz-adv-x="457" 
d="M42 200c0 113 75 210 196 210c105 0 181 -78 181 -183c0 -7 -1 -20 -2 -27c-1 -10 -9 -17 -18 -17h-288c4 -67 63 -130 134 -130c42 0 76 16 99 30c14 8 20 13 28 2c6 -8 11 -15 17 -23c7 -9 11 -15 -4 -26c-24 -19 -78 -46 -147 -46c-121 0 -196 95 -196 210zM112 239
h238c-3 58 -51 110 -112 110c-67 0 -119 -48 -126 -110zM223 546l-120 94c-6 4 -11 12 -6 19l14 18c5 7 11 10 23 2l102 -68l102 70c12 8 18 5 23 -2l14 -20c9 -12 -11 -23 -19 -29l-107 -84c-4 -3 -7 -4 -13 -4c-4 0 -9 1 -13 4z" />
    <glyph glyph-name="edieresis" unicode="&#xeb;" horiz-adv-x="457" 
d="M42 200c0 113 75 210 196 210c105 0 181 -78 181 -183c0 -7 -1 -20 -2 -27c-1 -10 -9 -17 -18 -17h-288c4 -67 63 -130 134 -130c42 0 76 16 99 30c14 8 20 13 28 2c6 -8 11 -15 17 -23c7 -9 11 -15 -4 -26c-24 -19 -78 -46 -147 -46c-121 0 -196 95 -196 210zM112 239
h238c-3 58 -51 110 -112 110c-67 0 -119 -48 -126 -110zM333 585c-26 0 -47 21 -47 47c0 27 21 48 47 48c27 0 48 -21 48 -48c0 -26 -21 -47 -48 -47zM140 585c-26 0 -47 21 -47 47c0 27 21 48 47 48c27 0 48 -21 48 -48c0 -26 -21 -47 -48 -47z" />
    <glyph glyph-name="emacron" unicode="&#x113;" horiz-adv-x="457" 
d="M42 200c0 113 75 210 196 210c105 0 181 -78 181 -183c0 -7 -1 -20 -2 -27c-1 -10 -9 -17 -18 -17h-288c4 -67 63 -130 134 -130c42 0 76 16 99 30c14 8 20 13 28 2c6 -8 11 -15 17 -23c7 -9 11 -15 -4 -26c-24 -19 -78 -46 -147 -46c-121 0 -196 95 -196 210zM112 239
h238c-3 58 -51 110 -112 110c-67 0 -119 -48 -126 -110zM108 583c-11 0 -19 8 -19 18v21c0 11 8 19 19 19h256c11 0 19 -8 19 -19v-21c0 -10 -8 -18 -19 -18h-256z" />
    <glyph glyph-name="ebreve" unicode="&#x115;" horiz-adv-x="457" 
d="M42 200c0 113 75 210 196 210c105 0 181 -78 181 -183c0 -7 -1 -20 -2 -27c-1 -10 -9 -17 -18 -17h-288c4 -67 63 -130 134 -130c42 0 76 16 99 30c14 8 20 13 28 2c6 -8 11 -15 17 -23c7 -9 11 -15 -4 -26c-24 -19 -78 -46 -147 -46c-121 0 -196 95 -196 210zM112 239
h238c-3 58 -51 110 -112 110c-67 0 -119 -48 -126 -110zM237 531c-70 0 -126 49 -135 114c-2 11 2 20 14 20h21c11 0 16 -8 19 -17c11 -38 41 -64 81 -64c37 0 68 29 79 64c4 11 10 17 19 17h23c11 0 16 -9 14 -20c-11 -65 -66 -114 -135 -114z" />
    <glyph glyph-name="edotaccent" unicode="&#x117;" horiz-adv-x="457" 
d="M42 200c0 113 75 210 196 210c105 0 181 -78 181 -183c0 -7 -1 -20 -2 -27c-1 -10 -9 -17 -18 -17h-288c4 -67 63 -130 134 -130c42 0 76 16 99 30c14 8 20 13 28 2c6 -8 11 -15 17 -23c7 -9 11 -15 -4 -26c-24 -19 -78 -46 -147 -46c-121 0 -196 95 -196 210zM112 239
h238c-3 58 -51 110 -112 110c-67 0 -119 -48 -126 -110zM240 566c-31 0 -57 26 -57 57c0 32 26 57 57 57c32 0 57 -25 57 -57c0 -31 -25 -57 -57 -57z" />
    <glyph glyph-name="eogonek" unicode="&#x119;" horiz-adv-x="459" 
d="M167 -109c0 47 25 81 45 101c-105 12 -169 101 -169 208c0 113 75 210 196 210c105 0 181 -78 181 -183c0 -7 -1 -20 -2 -27c-1 -10 -9 -17 -18 -17h-288c4 -67 63 -130 134 -130c42 0 76 16 99 30c14 8 20 13 28 2l17 -23c7 -9 11 -15 -4 -26c-21 -17 -64 -39 -120 -45
c-18 -19 -39 -50 -39 -90c0 -33 27 -57 57 -57c25 0 42 9 55 16c8 4 18 -1 18 -14v-25c0 -9 -7 -13 -14 -17c-10 -5 -37 -15 -70 -15c-56 0 -106 32 -106 102zM113 239h238c-3 58 -51 110 -112 110c-67 0 -119 -48 -126 -110z" />
    <glyph glyph-name="gcircumflex" unicode="&#x11d;" horiz-adv-x="459" 
d="M31 19c0 76 67 115 67 115s-32 41 -32 100c0 93 65 176 169 176h169c11 0 19 -8 19 -19v-17c0 -7 -4 -16 -11 -17l-54 -11s45 -33 45 -112c0 -91 -65 -170 -168 -170c-64 0 -95 25 -95 25s-44 -20 -44 -60c0 -25 18 -49 55 -49h144c84 0 150 -41 150 -128
c0 -83 -86 -162 -207 -162c-134 0 -192 72 -192 138c0 60 48 87 58 93v3c-26 7 -73 33 -73 95zM236 124c60 0 100 46 100 112s-40 112 -100 112c-61 0 -105 -46 -105 -112s44 -112 105 -112zM117 -162c0 -48 52 -83 120 -83c66 0 134 37 134 95c0 13 -6 65 -76 65h-111
c0 0 -67 -18 -67 -77zM124 555l-14 18c-5 7 0 15 6 19l120 94c4 3 9 4 13 4c6 0 9 -1 13 -4l120 -94c6 -4 11 -12 6 -19c-9 -12 -17 -36 -37 -22l-102 70l-102 -68c-12 -8 -18 -5 -23 2z" />
    <glyph glyph-name="gbreve" unicode="&#x11f;" horiz-adv-x="459" 
d="M31 19c0 76 67 115 67 115s-32 41 -32 100c0 93 65 176 169 176h169c11 0 19 -8 19 -19v-17c0 -7 -4 -16 -11 -17l-54 -11s45 -33 45 -112c0 -91 -65 -170 -168 -170c-64 0 -95 25 -95 25s-44 -20 -44 -60c0 -25 18 -49 55 -49h144c84 0 150 -41 150 -128
c0 -83 -86 -162 -207 -162c-134 0 -192 72 -192 138c0 60 48 87 58 93v3c-26 7 -73 33 -73 95zM236 124c60 0 100 46 100 112s-40 112 -100 112c-61 0 -105 -46 -105 -112s44 -112 105 -112zM117 -162c0 -48 52 -83 120 -83c66 0 134 37 134 95c0 13 -6 65 -76 65h-111
c0 0 -67 -18 -67 -77zM250 531c-70 0 -126 49 -135 114c-2 11 2 20 14 20h21c11 0 16 -8 19 -17c11 -38 41 -64 81 -64c37 0 68 29 79 64c4 11 10 17 19 17h23c11 0 16 -9 14 -20c-11 -65 -66 -114 -135 -114z" />
    <glyph glyph-name="gdotaccent" unicode="&#x121;" horiz-adv-x="459" 
d="M31 19c0 76 67 115 67 115s-32 41 -32 100c0 93 65 176 169 176h169c11 0 19 -8 19 -19v-17c0 -7 -4 -16 -11 -17l-54 -11s45 -33 45 -112c0 -91 -65 -170 -168 -170c-64 0 -95 25 -95 25s-44 -20 -44 -60c0 -25 18 -49 55 -49h144c84 0 150 -41 150 -128
c0 -83 -86 -162 -207 -162c-134 0 -192 72 -192 138c0 60 48 87 58 93v3c-26 7 -73 33 -73 95zM236 124c60 0 100 46 100 112s-40 112 -100 112c-61 0 -105 -46 -105 -112s44 -112 105 -112zM117 -162c0 -48 52 -83 120 -83c66 0 134 37 134 95c0 13 -6 65 -76 65h-111
c0 0 -67 -18 -67 -77zM248 566c-31 0 -57 26 -57 57c0 32 26 57 57 57c32 0 57 -25 57 -57c0 -31 -25 -57 -57 -57z" />
    <glyph glyph-name="gcommaaccent" unicode="&#x123;" horiz-adv-x="459" 
d="M258 530c-32 0 -66 18 -66 90c0 83 52 155 84 185c10 9 18 8 24 2l14 -14c5 -5 4 -15 -6 -24s-62 -53 -62 -126c4 1 8 1 12 1c31 0 57 -26 57 -57c0 -32 -26 -57 -57 -57zM31 19c0 76 67 115 67 115s-32 41 -32 100c0 93 65 176 169 176h169c11 0 19 -8 19 -19v-17
c0 -7 -4 -16 -11 -17l-54 -11s45 -33 45 -112c0 -91 -65 -170 -168 -170c-64 0 -95 25 -95 25s-44 -20 -44 -60c0 -25 18 -49 55 -49h144c84 0 150 -41 150 -128c0 -83 -86 -162 -207 -162c-134 0 -192 72 -192 138c0 60 48 87 58 93v3c-26 7 -73 33 -73 95zM236 124
c60 0 100 46 100 112s-40 112 -100 112c-61 0 -105 -46 -105 -112s44 -112 105 -112zM117 -162c0 -48 52 -83 120 -83c66 0 134 37 134 95c0 13 -6 65 -76 65h-111c0 0 -67 -18 -67 -77z" />
    <glyph glyph-name="hcircumflex" unicode="&#x125;" horiz-adv-x="496" 
d="M72 19v662c0 10 9 19 19 19h31c10 0 19 -9 19 -19v-324s53 53 134 53c99 0 155 -63 155 -180v-211c0 -10 -9 -19 -19 -19h-32c-10 0 -19 9 -19 19v211c0 76 -34 113 -90 113c-76 0 -129 -56 -129 -56v-268c0 -10 -9 -19 -19 -19h-31c-10 0 -19 9 -19 19zM-19 772l-14 18
c-5 7 0 15 6 19l120 94c4 3 9 4 13 4c6 0 9 -1 13 -4l120 -94c6 -4 11 -12 6 -19c-9 -12 -17 -36 -37 -22l-102 70l-102 -68c-12 -8 -18 -5 -23 2z" />
    <glyph glyph-name="hbar" unicode="&#x127;" horiz-adv-x="496" 
d="M72 19v517h-33c-10 0 -18 9 -18 19v7c0 10 8 19 18 19h33v100c0 10 9 19 19 19h31c10 0 19 -9 19 -19v-100h155c11 0 19 -9 19 -19v-8c0 -10 -8 -18 -19 -18h-155v-179s53 53 134 53c114 0 155 -74 155 -183v-208c0 -10 -9 -19 -19 -19h-32c-10 0 -19 9 -19 19v211
c0 76 -34 113 -90 113c-76 0 -129 -56 -129 -56v-268c0 -10 -9 -19 -19 -19h-31c-10 0 -19 9 -19 19z" />
    <glyph glyph-name="dotlessi" unicode="&#x131;" horiz-adv-x="211" 
d="M71 19v362c0 10 9 19 19 19h31c10 0 19 -9 19 -19v-362c0 -10 -9 -19 -19 -19h-31c-10 0 -19 9 -19 19z" />
    <glyph glyph-name="igrave" unicode="&#xec;" horiz-adv-x="211" 
d="M71 19v362c0 10 9 19 19 19h31c10 0 19 -9 19 -19v-362c0 -10 -9 -19 -19 -19h-31c-10 0 -19 9 -19 19zM173 559l-161 67c-8 3 -10 13 -6 21l18 36c5 9 20 7 26 3l150 -84c6 -3 10 -11 6 -19l-10 -22c-4 -8 -9 -8 -23 -2z" />
    <glyph glyph-name="iacute" unicode="&#xed;" horiz-adv-x="211" 
d="M71 19v362c0 10 9 19 19 19h31c10 0 19 -9 19 -19v-362c0 -10 -9 -19 -19 -19h-31c-10 0 -19 9 -19 19zM16 561l-10 22c-4 8 0 16 6 19l150 84c6 4 21 6 26 -3l18 -36c4 -8 2 -18 -6 -21l-161 -67c-14 -6 -19 -6 -23 2z" />
    <glyph glyph-name="ibreve" unicode="&#x12d;" horiz-adv-x="211" 
d="M71 19v362c0 10 9 19 19 19h31c10 0 19 -9 19 -19v-362c0 -10 -9 -19 -19 -19h-31c-10 0 -19 9 -19 19zM108 531c-70 0 -126 49 -135 114c-2 11 2 20 14 20h21c11 0 16 -8 19 -17c11 -38 41 -64 81 -64c37 0 68 29 79 64c4 11 10 17 19 17h23c11 0 16 -9 14 -20
c-11 -65 -66 -114 -135 -114z" />
    <glyph glyph-name="icircumflex" unicode="&#xee;" horiz-adv-x="211" 
d="M71 19v362c0 10 9 19 19 19h31c10 0 19 -9 19 -19v-362c0 -10 -9 -19 -19 -19h-31c-10 0 -19 9 -19 19zM-18 555l-14 18c-5 7 0 15 6 19l120 94c4 3 9 4 13 4c6 0 9 -1 13 -4l120 -94c6 -4 11 -12 6 -19c-9 -12 -17 -36 -37 -22l-102 70l-102 -68c-12 -8 -18 -5 -23 2z
" />
    <glyph glyph-name="itilde" unicode="&#x129;" horiz-adv-x="211" 
d="M71 19v362c0 10 9 19 19 19h31c10 0 19 -9 19 -19v-362c0 -10 -9 -19 -19 -19h-31c-10 0 -19 9 -19 19zM-18 575l-18 9c-8 4 -7 15 -4 22c9 18 26 84 92 84c60 0 79 -74 110 -74c28 0 40 34 45 51c3 10 12 13 23 8l16 -8c12 -6 6 -19 4 -26c-10 -29 -34 -81 -89 -81
s-82 75 -110 75c-27 0 -37 -29 -44 -50c-3 -10 -12 -17 -25 -10z" />
    <glyph glyph-name="idieresis" unicode="&#xef;" horiz-adv-x="211" 
d="M71 19v362c0 10 9 19 19 19h31c10 0 19 -9 19 -19v-362c0 -10 -9 -19 -19 -19h-31c-10 0 -19 9 -19 19zM202 585c-26 0 -47 21 -47 47c0 27 21 48 47 48c27 0 48 -21 48 -48c0 -26 -21 -47 -48 -47zM9 585c-26 0 -47 21 -47 47c0 27 21 48 47 48c27 0 48 -21 48 -48
c0 -26 -21 -47 -48 -47z" />
    <glyph glyph-name="imacron" unicode="&#x12b;" horiz-adv-x="211" 
d="M71 19v362c0 10 9 19 19 19h31c10 0 19 -9 19 -19v-362c0 -10 -9 -19 -19 -19h-31c-10 0 -19 9 -19 19zM-20 583c-11 0 -19 8 -19 18v21c0 11 8 19 19 19h256c11 0 19 -8 19 -19v-21c0 -10 -8 -18 -19 -18h-256z" />
    <glyph glyph-name="iogonek" unicode="&#x12f;" horiz-adv-x="212" 
d="M105 585c-26 0 -47 21 -47 47c0 27 21 48 47 48c27 0 48 -21 48 -48c0 -26 -21 -47 -48 -47zM72 19v362c0 10 9 19 19 19h31c10 0 19 -9 19 -19v-362c0 -10 -9 -19 -19 -19c-17 -16 -47 -51 -47 -99c0 -33 27 -57 57 -57c25 0 42 9 55 16c8 4 18 -1 18 -14v-25
c0 -9 -7 -13 -14 -17c-10 -5 -37 -15 -70 -15c-56 0 -106 32 -106 102c0 63 46 103 62 115c-3 3 -5 8 -5 13z" />
    <glyph glyph-name="dotlessj" unicode="&#x237;" horiz-adv-x="213" 
d="M72 -140v521c0 11 9 19 19 19h31c10 0 19 -8 19 -19v-521c0 -116 -67 -170 -153 -170c-55 0 -92 24 -110 41c-7 6 -8 16 -4 23l16 26c6 10 16 9 26 1c13 -10 48 -29 73 -29c46 0 83 31 83 108z" />
    <glyph glyph-name="jcircumflex" unicode="&#x135;" horiz-adv-x="213" 
d="M72 -140v521c0 11 9 19 19 19h31c10 0 19 -8 19 -19v-521c0 -116 -67 -170 -153 -170c-55 0 -92 24 -110 41c-7 6 -8 16 -4 23l16 26c6 10 16 9 26 1c13 -10 48 -29 73 -29c46 0 83 31 83 108zM-19 555l-14 18c-5 7 0 15 6 19l120 94c4 3 9 4 13 4c6 0 9 -1 13 -4
l120 -94c6 -4 11 -12 6 -19c-9 -12 -17 -36 -37 -22l-102 70l-102 -68c-12 -8 -18 -5 -23 2z" />
    <glyph glyph-name="kcommaaccent" unicode="&#x137;" horiz-adv-x="447" 
d="M71 19v662c0 10 9 19 19 19h31c10 0 19 -9 19 -19v-433l170 140c8 7 16 12 24 12h54c17 0 16 -19 9 -25l-190 -152l221 -198c8 -7 7 -25 -10 -25h-55c-9 0 -16 5 -20 8l-203 193v-182c0 -10 -9 -19 -19 -19h-31c-10 0 -19 9 -19 19zM226 -92c32 0 66 -18 66 -90
c0 -83 -52 -155 -84 -185c-10 -9 -18 -8 -24 -2l-14 14c-5 5 -4 15 6 24s62 53 62 126c-4 -1 -8 -1 -12 -1c-31 0 -57 26 -57 57c0 32 26 57 57 57z" />
    <glyph glyph-name="kgreenlandic" unicode="&#x138;" horiz-adv-x="449" 
d="M71 19v362c0 10 9 19 19 19h31c10 0 19 -9 19 -19v-163l178 170c7 6 16 12 24 12h52c17 0 16 -19 9 -25l-196 -177l221 -173c8 -7 7 -25 -10 -25h-55c-9 0 -16 5 -20 8l-203 163v-152c0 -10 -9 -19 -19 -19h-31c-10 0 -19 9 -19 19z" />
    <glyph glyph-name="lacute" unicode="&#x13a;" horiz-adv-x="213" 
d="M72 19v662c0 10 9 19 19 19h31c10 0 19 -9 19 -19v-662c0 -10 -9 -19 -19 -19h-31c-10 0 -19 9 -19 19zM18 778l-10 22c-4 8 0 16 6 19l150 84c6 4 21 6 26 -3l18 -36c4 -8 2 -18 -6 -21l-161 -67c-14 -6 -19 -6 -23 2z" />
    <glyph glyph-name="lcaron" unicode="&#x13e;" horiz-adv-x="243" 
d="M72 19v662c0 10 9 19 19 19h31c10 0 19 -9 19 -19v-662c0 -10 -9 -19 -19 -19h-31c-10 0 -19 9 -19 19zM258 434l-14 14c-5 5 -4 15 6 24s62 53 62 126c-4 -1 -8 -1 -12 -1c-31 0 -57 26 -57 57c0 32 26 57 57 57c32 0 66 -18 66 -90c0 -83 -52 -155 -84 -185
c-10 -9 -18 -8 -24 -2z" />
    <glyph glyph-name="lcommaaccent" unicode="&#x13c;" horiz-adv-x="212" 
d="M70 19v662c0 10 9 19 19 19h31c10 0 19 -9 19 -19v-662c0 -10 -9 -19 -19 -19h-31c-10 0 -19 9 -19 19zM103 -92c32 0 66 -18 66 -90c0 -83 -52 -155 -84 -185c-10 -9 -18 -8 -24 -2l-14 14c-5 5 -4 15 6 24s62 53 62 126c-4 -1 -8 -1 -12 -1c-31 0 -57 26 -57 57
c0 32 26 57 57 57z" />
    <glyph glyph-name="lslash" unicode="&#x142;" horiz-adv-x="238" 
d="M88 19v303l-51 -29c-8 -5 -20 -2 -25 7l-3 6c-5 8 -3 20 6 26l73 41v308c0 10 9 19 19 19h31c10 0 19 -9 19 -19v-268l89 52c10 6 21 1 26 -7l3 -6c5 -9 2 -20 -7 -26l-111 -64v-343c0 -10 -9 -19 -19 -19h-31c-10 0 -19 9 -19 19z" />
    <glyph glyph-name="ldot" unicode="&#x140;" horiz-adv-x="326" 
d="M72 19v662c0 10 9 19 19 19h31c10 0 19 -9 19 -19v-662c0 -10 -9 -19 -19 -19h-31c-10 0 -19 9 -19 19zM268 303c-31 0 -57 26 -57 57c0 32 26 57 57 57c32 0 57 -25 57 -57c0 -31 -25 -57 -57 -57z" />
    <glyph glyph-name="nacute" unicode="&#x144;" horiz-adv-x="495" 
d="M71 19v362c0 10 9 19 19 19h19c9 0 14 -4 16 -12l9 -31s57 53 140 53c116 0 155 -76 155 -180v-211c0 -10 -9 -19 -19 -19h-32c-10 0 -19 9 -19 19v211c0 76 -34 113 -90 113c-75 0 -129 -57 -129 -57v-267c0 -10 -9 -19 -19 -19h-31c-10 0 -19 9 -19 19zM169 561l-10 22
c-4 8 0 16 6 19l150 84c6 4 21 6 26 -3l18 -36c4 -8 2 -18 -6 -21l-161 -67c-14 -6 -19 -6 -23 2z" />
    <glyph glyph-name="ncaron" unicode="&#x148;" horiz-adv-x="495" 
d="M71 19v362c0 10 9 19 19 19h19c9 0 14 -4 16 -12l9 -31s57 53 140 53c116 0 155 -76 155 -180v-211c0 -10 -9 -19 -19 -19h-32c-10 0 -19 9 -19 19v211c0 76 -34 113 -90 113c-75 0 -129 -57 -129 -57v-267c0 -10 -9 -19 -19 -19h-31c-10 0 -19 9 -19 19zM238 546
l-120 94c-6 4 -11 12 -6 19l14 18c5 7 11 10 23 2l102 -68l102 70c12 8 18 5 23 -2l14 -20c9 -12 -11 -23 -19 -29l-107 -84c-4 -3 -7 -4 -13 -4c-4 0 -9 1 -13 4z" />
    <glyph glyph-name="ntilde" unicode="&#xf1;" horiz-adv-x="495" 
d="M71 19v362c0 10 9 19 19 19h19c9 0 14 -4 16 -12l9 -31s57 53 140 53c116 0 155 -76 155 -180v-211c0 -10 -9 -19 -19 -19h-32c-10 0 -19 9 -19 19v211c0 76 -34 113 -90 113c-75 0 -129 -57 -129 -57v-267c0 -10 -9 -19 -19 -19h-31c-10 0 -19 9 -19 19zM127 575l-18 9
c-8 4 -7 15 -4 22c9 18 26 84 92 84c60 0 79 -74 110 -74c28 0 40 34 45 51c3 10 12 13 23 8l16 -8c12 -6 6 -19 4 -26c-10 -29 -34 -81 -89 -81s-82 75 -110 75c-27 0 -37 -29 -44 -50c-3 -10 -12 -17 -25 -10z" />
    <glyph glyph-name="ncommaaccent" unicode="&#x146;" horiz-adv-x="497" 
d="M72 19v362c0 10 9 19 19 19h19c9 0 14 -4 16 -12l9 -31s57 53 140 53c116 0 155 -76 155 -180v-211c0 -10 -9 -19 -19 -19h-32c-10 0 -19 9 -19 19v211c0 76 -34 113 -90 113c-75 0 -129 -57 -129 -57v-267c0 -10 -9 -19 -19 -19h-31c-10 0 -19 9 -19 19zM243 -92
c32 0 66 -18 66 -90c0 -83 -52 -155 -84 -185c-10 -9 -18 -8 -24 -2l-14 14c-5 5 -4 15 6 24s62 53 62 126c-4 -1 -8 -1 -12 -1c-31 0 -57 26 -57 57c0 32 26 57 57 57z" />
    <glyph glyph-name="napostrophe" unicode="&#x149;" horiz-adv-x="495" 
d="M70 19v362c0 10 9 19 19 19h19c9 0 14 -4 16 -12l9 -31s57 53 140 53c116 0 155 -76 155 -180v-211c0 -10 -9 -19 -19 -19h-32c-10 0 -19 9 -19 19v211c0 76 -34 113 -90 113c-75 0 -129 -57 -129 -57v-267c0 -10 -9 -19 -19 -19h-31c-10 0 -19 9 -19 19zM-50 710
c32 0 66 -18 66 -90c0 -83 -52 -155 -84 -185c-10 -9 -18 -8 -24 -2l-14 14c-5 5 -4 15 6 24s62 53 62 126c-4 -1 -8 -1 -12 -1c-31 0 -57 26 -57 57c0 32 26 57 57 57z" />
    <glyph glyph-name="ograve" unicode="&#xf2;" 
d="M42 201c0 113 88 209 199 209s199 -96 199 -209c0 -115 -88 -211 -199 -211s-199 96 -199 211zM111 201c0 -81 57 -146 130 -146s130 65 130 146c0 79 -57 143 -130 143s-130 -64 -130 -143zM308 559l-161 67c-8 3 -10 13 -6 21l18 36c5 9 20 7 26 3l150 -84
c6 -3 10 -11 6 -19l-10 -22c-4 -8 -9 -8 -23 -2z" />
    <glyph glyph-name="oacute" unicode="&#xf3;" 
d="M42 201c0 113 88 209 199 209s199 -96 199 -209c0 -115 -88 -211 -199 -211s-199 96 -199 211zM111 201c0 -81 57 -146 130 -146s130 65 130 146c0 79 -57 143 -130 143s-130 -64 -130 -143zM151 561l-10 22c-4 8 0 16 6 19l150 84c6 4 21 6 26 -3l18 -36
c4 -8 2 -18 -6 -21l-161 -67c-14 -6 -19 -6 -23 2z" />
    <glyph glyph-name="ocircumflex" unicode="&#xf4;" 
d="M42 201c0 113 88 209 199 209s199 -96 199 -209c0 -115 -88 -211 -199 -211s-199 96 -199 211zM111 201c0 -81 57 -146 130 -146s130 65 130 146c0 79 -57 143 -130 143s-130 -64 -130 -143zM116 555l-14 18c-5 7 0 15 6 19l120 94c4 3 9 4 13 4c6 0 9 -1 13 -4l120 -94
c6 -4 11 -12 6 -19c-9 -12 -17 -36 -37 -22l-102 70l-102 -68c-12 -8 -18 -5 -23 2z" />
    <glyph glyph-name="otilde" unicode="&#xf5;" 
d="M42 201c0 113 88 209 199 209s199 -96 199 -209c0 -115 -88 -211 -199 -211s-199 96 -199 211zM111 201c0 -81 57 -146 130 -146s130 65 130 146c0 79 -57 143 -130 143s-130 -64 -130 -143zM117 575l-18 9c-8 4 -7 15 -4 22c9 18 26 84 92 84c60 0 79 -74 110 -74
c28 0 40 34 45 51c3 10 12 13 23 8l16 -8c12 -6 6 -19 4 -26c-10 -29 -34 -81 -89 -81s-82 75 -110 75c-27 0 -37 -29 -44 -50c-3 -10 -12 -17 -25 -10z" />
    <glyph glyph-name="odieresis" unicode="&#xf6;" 
d="M42 201c0 113 88 209 199 209s199 -96 199 -209c0 -115 -88 -211 -199 -211s-199 96 -199 211zM111 201c0 -81 57 -146 130 -146s130 65 130 146c0 79 -57 143 -130 143s-130 -64 -130 -143zM336 585c-26 0 -47 21 -47 47c0 27 21 48 47 48c27 0 48 -21 48 -48
c0 -26 -21 -47 -48 -47zM143 585c-26 0 -47 21 -47 47c0 27 21 48 47 48c27 0 48 -21 48 -48c0 -26 -21 -47 -48 -47z" />
    <glyph glyph-name="omacron" unicode="&#x14d;" 
d="M42 201c0 113 88 209 199 209s199 -96 199 -209c0 -115 -88 -211 -199 -211s-199 96 -199 211zM111 201c0 -81 57 -146 130 -146s130 65 130 146c0 79 -57 143 -130 143s-130 -64 -130 -143zM114 583c-11 0 -19 8 -19 18v21c0 11 8 19 19 19h256c11 0 19 -8 19 -19v-21
c0 -10 -8 -18 -19 -18h-256z" />
    <glyph glyph-name="obreve" unicode="&#x14f;" 
d="M42 201c0 113 88 209 199 209s199 -96 199 -209c0 -115 -88 -211 -199 -211s-199 96 -199 211zM111 201c0 -81 57 -146 130 -146s130 65 130 146c0 79 -57 143 -130 143s-130 -64 -130 -143zM241 531c-70 0 -126 49 -135 114c-2 11 2 20 14 20h21c11 0 16 -8 19 -17
c11 -38 41 -64 81 -64c37 0 68 29 79 64c4 11 10 17 19 17h23c11 0 16 -9 14 -20c-11 -65 -66 -114 -135 -114z" />
    <glyph glyph-name="ohungarumlaut" unicode="&#x151;" 
d="M42 201c0 113 88 209 199 209s199 -96 199 -209c0 -115 -88 -211 -199 -211s-199 96 -199 211zM111 201c0 -81 57 -146 130 -146s130 65 130 146c0 79 -57 143 -130 143s-130 -64 -130 -143zM332 521c-10 0 -22 9 -19 19l50 141c3 10 9 19 19 19h39c19 0 25 -12 18 -25
l-78 -139c-4 -8 -11 -15 -18 -15h-11zM166 521c-10 0 -22 9 -19 19l50 141c3 10 9 19 19 19h39c19 0 25 -12 18 -25l-78 -139c-4 -8 -11 -15 -18 -15h-11z" />
    <glyph glyph-name="oslash" unicode="&#xf8;" horiz-adv-x="480" 
d="M68 29c-8 7 -8 19 -1 26l16 16c-25 36 -40 83 -40 131c0 113 87 208 198 208c49 0 94 -19 128 -50l21 21c8 8 20 8 27 0l5 -5c8 -7 8 -19 0 -26l-23 -23c25 -35 40 -79 40 -125c0 -115 -87 -212 -198 -212c-49 0 -94 18 -128 48l-14 -14c-7 -8 -19 -7 -27 0zM132 120
l190 193c-22 20 -50 31 -81 31c-73 0 -129 -63 -129 -142c0 -30 7 -59 20 -82zM160 85c22 -19 50 -30 81 -30c73 0 129 66 129 147c0 28 -7 54 -20 76z" />
    <glyph glyph-name="oslashacute" unicode="&#x1ff;" horiz-adv-x="480" 
d="M68 29c-8 7 -8 19 -1 26l16 16c-25 36 -40 83 -40 131c0 113 87 208 198 208c49 0 94 -19 128 -50l21 21c8 8 20 8 27 0l5 -5c8 -7 8 -19 0 -26l-23 -23c25 -35 40 -79 40 -125c0 -115 -87 -212 -198 -212c-49 0 -94 18 -128 48l-14 -14c-7 -8 -19 -7 -27 0zM132 120
l190 193c-22 20 -50 31 -81 31c-73 0 -129 -63 -129 -142c0 -30 7 -59 20 -82zM160 85c22 -19 50 -30 81 -30c73 0 129 66 129 147c0 28 -7 54 -20 76zM150 561l-10 22c-4 8 0 16 6 19l150 84c6 4 21 6 26 -3l18 -36c4 -8 2 -18 -6 -21l-161 -67c-14 -6 -19 -6 -23 2z" />
    <glyph glyph-name="oe" unicode="&#x153;" horiz-adv-x="779" 
d="M41 202c0 113 87 208 198 208c66 0 124 -34 160 -86c35 53 91 86 161 86c100 0 181 -73 181 -183c0 -7 -1 -20 -2 -27c-1 -10 -9 -17 -18 -17h-286c9 -67 66 -129 132 -129c42 0 76 15 99 29c14 8 20 13 28 2c6 -8 11 -15 17 -23c7 -9 11 -15 -4 -26
c-24 -19 -78 -46 -147 -46c-70 0 -126 34 -161 86c-36 -52 -94 -86 -160 -86c-111 0 -198 97 -198 212zM436 238h237c-3 62 -52 108 -113 108c-67 0 -117 -46 -124 -108zM110 202c0 -81 56 -147 129 -147s129 66 129 147c0 79 -56 142 -129 142s-129 -63 -129 -142z" />
    <glyph glyph-name="racute" unicode="&#x155;" horiz-adv-x="334" 
d="M71 19v362c0 10 9 19 19 19h19c8 0 15 -5 17 -14l8 -29s37 53 120 53c30 0 80 -5 70 -33l-12 -34c-5 -13 -14 -13 -24 -9c-9 4 -24 8 -39 8c-76 0 -109 -56 -109 -56v-267c0 -10 -9 -19 -19 -19h-31c-10 0 -19 9 -19 19zM96 561l-10 22c-4 8 0 16 6 19l150 84
c6 4 21 6 26 -3l18 -36c4 -8 2 -18 -6 -21l-161 -67c-14 -6 -19 -6 -23 2z" />
    <glyph glyph-name="rcaron" unicode="&#x159;" horiz-adv-x="334" 
d="M71 19v362c0 10 9 19 19 19h19c8 0 15 -5 17 -14l8 -29s37 53 120 53c30 0 80 -5 70 -33l-12 -34c-5 -13 -14 -13 -24 -9c-9 4 -24 8 -39 8c-76 0 -109 -56 -109 -56v-267c0 -10 -9 -19 -19 -19h-31c-10 0 -19 9 -19 19zM158 546l-120 94c-6 4 -11 12 -6 19l14 18
c5 7 11 10 23 2l102 -68l102 70c12 8 18 5 23 -2l14 -20c9 -12 -11 -23 -19 -29l-107 -84c-4 -3 -7 -4 -13 -4c-4 0 -9 1 -13 4z" />
    <glyph glyph-name="rcommaaccent" unicode="&#x157;" horiz-adv-x="334" 
d="M71 19v362c0 10 9 19 19 19h19c8 0 15 -5 17 -14l8 -29s37 53 120 53c30 0 80 -5 70 -33l-12 -34c-5 -13 -14 -13 -24 -9c-9 4 -24 8 -39 8c-76 0 -109 -56 -109 -56v-267c0 -10 -9 -19 -19 -19h-31c-10 0 -19 9 -19 19zM106 -92c32 0 66 -18 66 -90
c0 -83 -52 -155 -84 -185c-10 -9 -18 -8 -24 -2l-14 14c-5 5 -4 15 6 24s62 53 62 126c-4 -1 -8 -1 -12 -1c-31 0 -57 26 -57 57c0 32 26 57 57 57z" />
    <glyph glyph-name="sacute" unicode="&#x15b;" horiz-adv-x="356" 
d="M52 35c-5 4 -8 14 -5 21c4 6 11 20 14 25c5 8 16 10 27 3c0 0 43 -35 94 -35c41 0 65 21 65 48c0 35 -30 51 -88 80c-53 26 -114 61 -114 129c0 42 34 104 127 104c52 0 92 -18 111 -31c9 -6 12 -20 6 -31l-8 -16c-6 -11 -20 -14 -29 -9c0 0 -43 24 -80 24
c-45 0 -57 -23 -57 -40c0 -33 33 -48 74 -68c69 -33 131 -64 131 -136c0 -58 -56 -113 -138 -113c-67 0 -108 28 -130 45zM102 561l-10 22c-4 8 0 16 6 19l150 84c6 4 21 6 26 -3l18 -36c4 -8 2 -18 -6 -21l-161 -67c-14 -6 -19 -6 -23 2z" />
    <glyph glyph-name="scircumflex" unicode="&#x15d;" horiz-adv-x="356" 
d="M52 35c-5 4 -8 14 -5 21c4 6 11 20 14 25c5 8 16 10 27 3c0 0 43 -35 94 -35c41 0 65 21 65 48c0 35 -30 51 -88 80c-53 26 -114 61 -114 129c0 42 34 104 127 104c52 0 92 -18 111 -31c9 -6 12 -20 6 -31l-8 -16c-6 -11 -20 -14 -29 -9c0 0 -43 24 -80 24
c-45 0 -57 -23 -57 -40c0 -33 33 -48 74 -68c69 -33 131 -64 131 -136c0 -58 -56 -113 -138 -113c-67 0 -108 28 -130 45zM59 555l-14 18c-5 7 0 15 6 19l120 94c4 3 9 4 13 4c6 0 9 -1 13 -4l120 -94c6 -4 11 -12 6 -19c-9 -12 -17 -36 -37 -22l-102 70l-102 -68
c-12 -8 -18 -5 -23 2z" />
    <glyph glyph-name="scaron" unicode="&#x161;" horiz-adv-x="356" 
d="M52 35c-5 4 -8 14 -5 21c4 6 11 20 14 25c5 8 16 10 27 3c0 0 43 -35 94 -35c41 0 65 21 65 48c0 35 -30 51 -88 80c-53 26 -114 61 -114 129c0 42 34 104 127 104c52 0 92 -18 111 -31c9 -6 12 -20 6 -31l-8 -16c-6 -11 -20 -14 -29 -9c0 0 -43 24 -80 24
c-45 0 -57 -23 -57 -40c0 -33 33 -48 74 -68c69 -33 131 -64 131 -136c0 -58 -56 -113 -138 -113c-67 0 -108 28 -130 45zM174 546l-120 94c-6 4 -11 12 -6 19l14 18c5 7 11 10 23 2l102 -68l102 70c12 8 18 5 23 -2l14 -20c9 -12 -11 -23 -19 -29l-107 -84
c-4 -3 -7 -4 -13 -4c-4 0 -9 1 -13 4z" />
    <glyph glyph-name="scedilla" unicode="&#x15f;" horiz-adv-x="358" 
d="M53 35c-5 4 -8 14 -5 21c4 6 11 20 14 25c5 8 16 10 27 3c0 0 43 -35 94 -35c41 0 65 21 65 48c0 35 -30 51 -88 80c-53 26 -114 61 -114 129c0 42 34 104 127 104c52 0 92 -18 111 -31c9 -6 12 -20 6 -31l-8 -16c-6 -11 -20 -14 -29 -9c0 0 -43 24 -80 24
c-45 0 -57 -23 -57 -40c0 -33 33 -48 74 -68c69 -33 131 -64 131 -136c0 -55 -50 -106 -123 -112v-44c61 -8 105 -45 105 -103s-46 -104 -105 -104c-30 0 -59 15 -76 35c-8 9 -7 21 0 26l14 11c7 5 18 6 23 0c12 -13 29 -18 41 -18c27 0 44 20 44 47c0 46 -49 57 -83 63
c-15 3 -17 15 -17 20v70c-45 7 -74 27 -91 41z" />
    <glyph glyph-name="scommaaccent" unicode="&#x219;" horiz-adv-x="356" 
d="M52 35c-5 4 -8 14 -5 21c4 6 11 20 14 25c5 8 16 10 27 3c0 0 43 -35 94 -35c41 0 65 21 65 48c0 35 -30 51 -88 80c-53 26 -114 61 -114 129c0 42 34 104 127 104c52 0 92 -18 111 -31c9 -6 12 -20 6 -31l-8 -16c-6 -11 -20 -14 -29 -9c0 0 -43 24 -80 24
c-45 0 -57 -23 -57 -40c0 -33 33 -48 74 -68c69 -33 131 -64 131 -136c0 -58 -56 -113 -138 -113c-67 0 -108 28 -130 45zM180 -92c32 0 66 -18 66 -90c0 -83 -52 -155 -84 -185c-10 -9 -18 -8 -24 -2l-14 14c-5 5 -4 15 6 24s62 53 62 126c-4 -1 -8 -1 -12 -1
c-31 0 -57 26 -57 57c0 32 26 57 57 57z" />
    <glyph glyph-name="germandbls" unicode="&#xdf;" horiz-adv-x="541" 
d="M72 19v392c0 198 74 299 210 299c86 0 168 -43 168 -151c0 -96 -89 -163 -89 -207c0 -41 146 -96 146 -219c0 -101 -81 -143 -164 -143c-46 0 -87 14 -97 19c-9 4 -19 9 -15 23l8 30c3 13 10 18 21 12c9 -5 47 -23 83 -23c56 0 91 34 91 83c0 88 -151 139 -151 215
c0 61 96 146 96 207s-51 92 -99 92c-92 0 -138 -80 -138 -238v-391c0 -10 -9 -19 -19 -19h-32c-10 0 -19 9 -19 19z" />
    <glyph glyph-name="tcaron" unicode="&#x165;" horiz-adv-x="342" 
d="M97 100v240h-51c-11 0 -19 9 -19 19v22c0 11 8 19 19 19h51v111c0 10 9 19 19 19l32 2c10 0 18 -9 18 -19v-113h116c11 0 19 -8 19 -19v-22c0 -10 -8 -19 -19 -19h-116v-234c0 -40 10 -48 33 -48c25 0 60 15 73 22c15 8 19 2 24 -6l15 -25c7 -12 4 -18 -7 -25
c-14 -9 -68 -34 -115 -34c-80 0 -92 48 -92 110zM372 434l-14 14c-5 5 -4 15 6 24s62 53 62 126c-4 -1 -8 -1 -12 -1c-31 0 -57 26 -57 57c0 32 26 57 57 57c32 0 66 -18 66 -90c0 -83 -52 -155 -84 -185c-10 -9 -18 -8 -24 -2z" />
    <glyph glyph-name="tcommaaccent" unicode="&#x163;" horiz-adv-x="343" 
d="M97 100v240h-51c-11 0 -19 9 -19 19v22c0 11 8 19 19 19h51v111c0 10 9 19 19 19l32 2c10 0 18 -9 18 -19v-113h116c11 0 19 -8 19 -19v-22c0 -10 -8 -19 -19 -19h-116v-234c0 -40 10 -48 33 -48c25 0 60 15 73 22c15 8 19 2 24 -6l15 -25c7 -12 4 -18 -7 -25
c-14 -9 -68 -34 -115 -34c-80 0 -92 48 -92 110zM184 -92c32 0 66 -18 66 -90c0 -83 -52 -155 -84 -185c-10 -9 -18 -8 -24 -2l-14 14c-5 5 -4 15 6 24s62 53 62 126c-4 -1 -8 -1 -12 -1c-31 0 -57 26 -57 57c0 32 26 57 57 57z" />
    <glyph glyph-name="uni021B" unicode="&#x21b;" horiz-adv-x="343" 
d="M97 100v240h-51c-11 0 -19 9 -19 19v22c0 11 8 19 19 19h51v111c0 10 9 19 19 19l32 2c10 0 18 -9 18 -19v-113h116c11 0 19 -8 19 -19v-22c0 -10 -8 -19 -19 -19h-116v-234c0 -40 10 -48 33 -48c25 0 60 15 73 22c15 8 19 2 24 -6l15 -25c7 -12 4 -18 -7 -25
c-14 -9 -68 -34 -115 -34c-80 0 -92 48 -92 110zM184 -92c32 0 66 -18 66 -90c0 -83 -52 -155 -84 -185c-10 -9 -18 -8 -24 -2l-14 14c-5 5 -4 15 6 24s62 53 62 126c-4 -1 -8 -1 -12 -1c-31 0 -57 26 -57 57c0 32 26 57 57 57z" />
    <glyph glyph-name="tbar" unicode="&#x167;" horiz-adv-x="342" 
d="M97 100v73h-41c-10 0 -18 9 -18 19v7c0 10 8 19 18 19h41v122h-51c-11 0 -19 9 -19 19v22c0 11 8 19 19 19h51v111c0 10 9 19 19 19l32 2c10 0 18 -9 18 -19v-113h116c11 0 19 -8 19 -19v-22c0 -10 -8 -19 -19 -19h-116v-122h94c11 0 19 -9 19 -19v-8
c0 -10 -8 -18 -19 -18h-94v-67c0 -40 10 -48 33 -48c25 0 60 15 73 22c15 8 19 2 24 -6l15 -25c7 -12 4 -18 -7 -25c-14 -9 -68 -34 -115 -34c-80 0 -92 48 -92 110z" />
    <glyph glyph-name="thorn" unicode="&#xfe;" 
d="M141 23v-304c0 -10 -9 -19 -19 -19h-31c-10 0 -19 9 -19 19v962c0 10 9 19 19 19h31c10 0 19 -9 19 -19v-309s38 38 110 38c115 0 189 -96 189 -211c0 -117 -82 -209 -192 -209c-66 0 -107 33 -107 33zM142 92c0 0 42 -35 97 -35c77 0 131 63 131 143
c0 78 -40 147 -126 147c-65 0 -102 -49 -102 -49v-206z" />
    <glyph glyph-name="ugrave" unicode="&#xf9;" horiz-adv-x="485" 
d="M66 171v210c0 10 9 19 19 19h32c10 0 19 -9 19 -19v-211c0 -76 34 -113 90 -113c76 0 119 57 119 57v267c0 10 9 19 19 19h31c10 0 19 -9 19 -19v-362c0 -10 -9 -19 -19 -19h-19c-11 0 -15 7 -18 17l-7 26s-47 -53 -130 -53c-116 0 -155 75 -155 181zM315 559l-161 67
c-8 3 -10 13 -6 21l18 36c5 9 20 7 26 3l150 -84c6 -3 10 -11 6 -19l-10 -22c-4 -8 -9 -8 -23 -2z" />
    <glyph glyph-name="uacute" unicode="&#xfa;" horiz-adv-x="485" 
d="M66 171v210c0 10 9 19 19 19h32c10 0 19 -9 19 -19v-211c0 -76 34 -113 90 -113c76 0 119 57 119 57v267c0 10 9 19 19 19h31c10 0 19 -9 19 -19v-362c0 -10 -9 -19 -19 -19h-19c-11 0 -15 7 -18 17l-7 26s-47 -53 -130 -53c-116 0 -155 75 -155 181zM157 561l-10 22
c-4 8 0 16 6 19l150 84c6 4 21 6 26 -3l18 -36c4 -8 2 -18 -6 -21l-161 -67c-14 -6 -19 -6 -23 2z" />
    <glyph glyph-name="ucircumflex" unicode="&#xfb;" horiz-adv-x="485" 
d="M66 171v210c0 10 9 19 19 19h32c10 0 19 -9 19 -19v-211c0 -76 34 -113 90 -113c76 0 119 57 119 57v267c0 10 9 19 19 19h31c10 0 19 -9 19 -19v-362c0 -10 -9 -19 -19 -19h-19c-11 0 -15 7 -18 17l-7 26s-47 -53 -130 -53c-116 0 -155 75 -155 181zM121 555l-14 18
c-5 7 0 15 6 19l120 94c4 3 9 4 13 4c6 0 9 -1 13 -4l120 -94c6 -4 11 -12 6 -19c-9 -12 -17 -36 -37 -22l-102 70l-102 -68c-12 -8 -18 -5 -23 2z" />
    <glyph glyph-name="utilde" unicode="&#x169;" horiz-adv-x="485" 
d="M66 171v210c0 10 9 19 19 19h32c10 0 19 -9 19 -19v-211c0 -76 34 -113 90 -113c76 0 119 57 119 57v267c0 10 9 19 19 19h31c10 0 19 -9 19 -19v-362c0 -10 -9 -19 -19 -19h-19c-11 0 -15 7 -18 17l-7 26s-47 -53 -130 -53c-116 0 -155 75 -155 181zM120 575l-18 9
c-8 4 -7 15 -4 22c9 18 26 84 92 84c60 0 79 -74 110 -74c28 0 40 34 45 51c3 10 12 13 23 8l16 -8c12 -6 6 -19 4 -26c-10 -29 -34 -81 -89 -81s-82 75 -110 75c-27 0 -37 -29 -44 -50c-3 -10 -12 -17 -25 -10z" />
    <glyph glyph-name="udieresis" unicode="&#xfc;" horiz-adv-x="485" 
d="M66 171v210c0 10 9 19 19 19h32c10 0 19 -9 19 -19v-211c0 -76 34 -113 90 -113c76 0 119 57 119 57v267c0 10 9 19 19 19h31c10 0 19 -9 19 -19v-362c0 -10 -9 -19 -19 -19h-19c-11 0 -15 7 -18 17l-7 26s-47 -53 -130 -53c-116 0 -155 75 -155 181zM339 585
c-26 0 -47 21 -47 47c0 27 21 48 47 48c27 0 48 -21 48 -48c0 -26 -21 -47 -48 -47zM146 585c-26 0 -47 21 -47 47c0 27 21 48 47 48c27 0 48 -21 48 -48c0 -26 -21 -47 -48 -47z" />
    <glyph glyph-name="umacron" unicode="&#x16b;" horiz-adv-x="485" 
d="M66 171v210c0 10 9 19 19 19h32c10 0 19 -9 19 -19v-211c0 -76 34 -113 90 -113c76 0 119 57 119 57v267c0 10 9 19 19 19h31c10 0 19 -9 19 -19v-362c0 -10 -9 -19 -19 -19h-19c-11 0 -15 7 -18 17l-7 26s-47 -53 -130 -53c-116 0 -155 75 -155 181zM113 583
c-11 0 -19 8 -19 18v21c0 11 8 19 19 19h256c11 0 19 -8 19 -19v-21c0 -10 -8 -18 -19 -18h-256z" />
    <glyph glyph-name="ubreve" unicode="&#x16d;" horiz-adv-x="485" 
d="M66 171v210c0 10 9 19 19 19h32c10 0 19 -9 19 -19v-211c0 -76 34 -113 90 -113c76 0 119 57 119 57v267c0 10 9 19 19 19h31c10 0 19 -9 19 -19v-362c0 -10 -9 -19 -19 -19h-19c-11 0 -15 7 -18 17l-7 26s-47 -53 -130 -53c-116 0 -155 75 -155 181zM245 531
c-70 0 -126 49 -135 114c-2 11 2 20 14 20h21c11 0 16 -8 19 -17c11 -38 41 -64 81 -64c37 0 68 29 79 64c4 11 10 17 19 17h23c11 0 16 -9 14 -20c-11 -65 -66 -114 -135 -114z" />
    <glyph glyph-name="uring" unicode="&#x16f;" horiz-adv-x="485" 
d="M66 171v210c0 10 9 19 19 19h32c10 0 19 -9 19 -19v-211c0 -76 34 -113 90 -113c76 0 119 57 119 57v267c0 10 9 19 19 19h31c10 0 19 -9 19 -19v-362c0 -10 -9 -19 -19 -19h-19c-11 0 -15 7 -18 17l-7 26s-47 -53 -130 -53c-116 0 -155 75 -155 181zM244 492
c-61 0 -109 48 -109 109s48 109 109 109c60 0 109 -48 109 -109s-49 -109 -109 -109zM244 540c32 0 59 29 59 61s-27 59 -59 59s-61 -27 -61 -59s29 -61 61 -61z" />
    <glyph glyph-name="uhungarumlaut" unicode="&#x171;" horiz-adv-x="485" 
d="M66 171v210c0 10 9 19 19 19h32c10 0 19 -9 19 -19v-211c0 -76 34 -113 90 -113c76 0 119 57 119 57v267c0 10 9 19 19 19h31c10 0 19 -9 19 -19v-362c0 -10 -9 -19 -19 -19h-19c-11 0 -15 7 -18 17l-7 26s-47 -53 -130 -53c-116 0 -155 75 -155 181zM326 521
c-10 0 -22 9 -19 19l50 141c3 10 9 19 19 19h39c19 0 25 -12 18 -25l-78 -139c-4 -8 -11 -15 -18 -15h-11zM160 521c-10 0 -22 9 -19 19l50 141c3 10 9 19 19 19h39c19 0 25 -12 18 -25l-78 -139c-4 -8 -11 -15 -18 -15h-11z" />
    <glyph glyph-name="uogonek" unicode="&#x173;" horiz-adv-x="485" 
d="M66 171v210c0 10 9 19 19 19h32c10 0 19 -9 19 -19v-211c0 -76 34 -113 90 -113c76 0 119 57 119 57v267c0 10 9 19 19 19h31c10 0 19 -9 19 -19v-362c0 -9 -7 -17 -15 -19c-17 -15 -48 -51 -48 -99c0 -33 27 -57 57 -57c25 0 42 9 55 16c8 4 18 -1 18 -14v-25
c0 -9 -7 -13 -14 -17c-10 -5 -37 -15 -70 -15c-56 0 -106 32 -106 102c0 76 69 120 69 120l-9 32s-47 -53 -130 -53c-116 0 -155 75 -155 181z" />
    <glyph glyph-name="wacute" unicode="&#x1e83;" horiz-adv-x="604" 
d="M144 0l-111 377c-4 14 0 23 15 23h31c9 0 16 -5 18 -11l73 -264h1l113 275c2 5 8 10 17 10h5c9 0 15 -5 17 -10l112 -276h1l72 265c2 6 9 11 17 11h31c15 0 19 -9 15 -23l-109 -377c-2 -6 -9 -10 -17 -10h-5c-9 0 -15 5 -17 10l-122 300l-118 -300c-2 -5 -8 -10 -17 -10
h-5c-9 0 -15 4 -17 10zM213 561l-10 22c-4 8 0 16 6 19l150 84c6 4 21 6 26 -3l18 -36c4 -8 2 -18 -6 -21l-161 -67c-14 -6 -19 -6 -23 2z" />
    <glyph glyph-name="wcircumflex" unicode="&#x175;" horiz-adv-x="604" 
d="M144 0l-111 377c-4 14 0 23 15 23h31c9 0 16 -5 18 -11l73 -264h1l113 275c2 5 8 10 17 10h5c9 0 15 -5 17 -10l112 -276h1l72 265c2 6 9 11 17 11h31c15 0 19 -9 15 -23l-109 -377c-2 -6 -9 -10 -17 -10h-5c-9 0 -15 5 -17 10l-122 300l-118 -300c-2 -5 -8 -10 -17 -10
h-5c-9 0 -15 4 -17 10zM176 555l-14 18c-5 7 0 15 6 19l120 94c4 3 9 4 13 4c6 0 9 -1 13 -4l120 -94c6 -4 11 -12 6 -19c-9 -12 -17 -36 -37 -22l-102 70l-102 -68c-12 -8 -18 -5 -23 2z" />
    <glyph glyph-name="wdieresis" unicode="&#x1e85;" horiz-adv-x="604" 
d="M144 0l-111 377c-4 14 0 23 15 23h31c9 0 16 -5 18 -11l73 -264h1l113 275c2 5 8 10 17 10h5c9 0 15 -5 17 -10l112 -276h1l72 265c2 6 9 11 17 11h31c15 0 19 -9 15 -23l-109 -377c-2 -6 -9 -10 -17 -10h-5c-9 0 -15 5 -17 10l-122 300l-118 -300c-2 -5 -8 -10 -17 -10
h-5c-9 0 -15 4 -17 10zM397 585c-26 0 -47 21 -47 47c0 27 21 48 47 48c27 0 48 -21 48 -48c0 -26 -21 -47 -48 -47zM204 585c-26 0 -47 21 -47 47c0 27 21 48 47 48c27 0 48 -21 48 -48c0 -26 -21 -47 -48 -47z" />
    <glyph glyph-name="wgrave" unicode="&#x1e81;" horiz-adv-x="604" 
d="M144 0l-111 377c-4 14 0 23 15 23h31c9 0 16 -5 18 -11l73 -264h1l113 275c2 5 8 10 17 10h5c9 0 15 -5 17 -10l112 -276h1l72 265c2 6 9 11 17 11h31c15 0 19 -9 15 -23l-109 -377c-2 -6 -9 -10 -17 -10h-5c-9 0 -15 5 -17 10l-122 300l-118 -300c-2 -5 -8 -10 -17 -10
h-5c-9 0 -15 4 -17 10zM368 559l-161 67c-8 3 -10 13 -6 21l18 36c5 9 20 7 26 3l150 -84c6 -3 10 -11 6 -19l-10 -22c-4 -8 -9 -8 -23 -2z" />
    <glyph glyph-name="yacute" unicode="&#xfd;" horiz-adv-x="466" 
d="M200 1l-186 377c-6 13 0 22 15 22h44c8 0 14 -5 17 -11l148 -306h1l140 306c3 6 10 11 17 11h38c15 0 22 -10 15 -23l-307 -665c-3 -6 -10 -12 -17 -12h-37c-15 0 -23 11 -16 25zM148 561l-10 22c-4 8 0 16 6 19l150 84c6 4 21 6 26 -3l18 -36c4 -8 2 -18 -6 -21
l-161 -67c-14 -6 -19 -6 -23 2z" />
    <glyph glyph-name="ycircumflex" unicode="&#x177;" horiz-adv-x="466" 
d="M200 1l-186 377c-6 13 0 22 15 22h44c8 0 14 -5 17 -11l148 -306h1l140 306c3 6 10 11 17 11h38c15 0 22 -10 15 -23l-307 -665c-3 -6 -10 -12 -17 -12h-37c-15 0 -23 11 -16 25zM114 555l-14 18c-5 7 0 15 6 19l120 94c4 3 9 4 13 4c6 0 9 -1 13 -4l120 -94
c6 -4 11 -12 6 -19c-9 -12 -17 -36 -37 -22l-102 70l-102 -68c-12 -8 -18 -5 -23 2z" />
    <glyph glyph-name="ydieresis" unicode="&#xff;" horiz-adv-x="466" 
d="M200 1l-186 377c-6 13 0 22 15 22h44c8 0 14 -5 17 -11l148 -306h1l140 306c3 6 10 11 17 11h38c15 0 22 -10 15 -23l-307 -665c-3 -6 -10 -12 -17 -12h-37c-15 0 -23 11 -16 25zM334 585c-26 0 -47 21 -47 47c0 27 21 48 47 48c27 0 48 -21 48 -48
c0 -26 -21 -47 -48 -47zM141 585c-26 0 -47 21 -47 47c0 27 21 48 47 48c27 0 48 -21 48 -48c0 -26 -21 -47 -48 -47z" />
    <glyph glyph-name="ygrave" unicode="&#x1ef3;" horiz-adv-x="466" 
d="M200 1l-186 377c-6 13 0 22 15 22h44c8 0 14 -5 17 -11l148 -306h1l140 306c3 6 10 11 17 11h38c15 0 22 -10 15 -23l-307 -665c-3 -6 -10 -12 -17 -12h-37c-15 0 -23 11 -16 25zM306 559l-161 67c-8 3 -10 13 -6 21l18 36c5 9 20 7 26 3l150 -84c6 -3 10 -11 6 -19
l-10 -22c-4 -8 -9 -8 -23 -2z" />
    <glyph glyph-name="zacute" unicode="&#x17a;" horiz-adv-x="365" 
d="M36 19v10l196 305v3h-168c-10 0 -18 9 -18 19v25c0 11 8 19 18 19h251c15 0 25 -14 17 -27l-191 -307v-3h154c11 0 19 -8 19 -19v-25c0 -10 -8 -19 -19 -19h-240c-10 0 -19 9 -19 19zM95 561l-10 22c-4 8 0 16 6 19l150 84c6 4 21 6 26 -3l18 -36c4 -8 2 -18 -6 -21
l-161 -67c-14 -6 -19 -6 -23 2z" />
    <glyph glyph-name="zcaron" unicode="&#x17e;" horiz-adv-x="365" 
d="M36 19v10l196 305v3h-168c-10 0 -18 9 -18 19v25c0 11 8 19 18 19h251c15 0 25 -14 17 -27l-191 -307v-3h154c11 0 19 -8 19 -19v-25c0 -10 -8 -19 -19 -19h-240c-10 0 -19 9 -19 19zM177 546l-120 94c-6 4 -11 12 -6 19l14 18c5 7 11 10 23 2l102 -68l102 70
c12 8 18 5 23 -2l14 -20c9 -12 -11 -23 -19 -29l-107 -84c-4 -3 -7 -4 -13 -4c-4 0 -9 1 -13 4z" />
    <glyph glyph-name="zdotaccent" unicode="&#x17c;" horiz-adv-x="365" 
d="M36 19v10l196 305v3h-168c-10 0 -18 9 -18 19v25c0 11 8 19 18 19h251c15 0 25 -14 17 -27l-191 -307v-3h154c11 0 19 -8 19 -19v-25c0 -10 -8 -19 -19 -19h-240c-10 0 -19 9 -19 19zM190 566c-31 0 -57 26 -57 57c0 32 26 57 57 57c32 0 57 -25 57 -57
c0 -31 -25 -57 -57 -57z" />
    <glyph glyph-name="IJ" unicode="&#x132;" horiz-adv-x="699" 
d="M102 19v662c0 10 9 19 19 19h40c10 0 19 -9 19 -19v-662c0 -10 -9 -19 -19 -19h-40c-10 0 -19 9 -19 19zM274 64c-5 8 -4 18 2 25l21 24c16 15 24 8 34 -3c17 -19 53 -53 97 -53c60 0 122 44 122 150v474c0 10 8 19 19 19h39c11 0 19 -9 19 -19v-472
c0 -139 -84 -219 -201 -219c-87 0 -135 53 -152 74z" />
    <glyph glyph-name="ij" unicode="&#x133;" horiz-adv-x="449" 
d="M104 585c-26 0 -47 21 -47 47c0 27 21 48 47 48c27 0 48 -21 48 -48c0 -26 -21 -47 -48 -47zM71 19v362c0 10 9 19 19 19h31c10 0 19 -9 19 -19v-362c0 -10 -9 -19 -19 -19h-31c-10 0 -19 9 -19 19zM342 585c-26 0 -47 21 -47 47c0 27 21 48 47 48c27 0 48 -21 48 -48
c0 -26 -21 -47 -48 -47zM308 -140v521c0 11 9 19 19 19h31c10 0 19 -8 19 -19v-521c0 -116 -67 -170 -153 -170c-55 0 -92 24 -110 41c-7 6 -8 16 -4 23l16 26c6 10 16 9 26 1c13 -10 48 -29 73 -29c46 0 83 31 83 108z" />
    <glyph glyph-name="grave.cap" horiz-adv-x="302" 
d="M227 781l-161 67c-8 3 -10 13 -6 21l18 36c5 9 20 7 26 3l150 -84c6 -3 10 -11 6 -19l-10 -22c-4 -8 -9 -8 -23 -2z" />
    <glyph glyph-name="acute" unicode="&#xb4;" horiz-adv-x="302" 
d="M83 561l-10 22c-4 8 0 16 6 19l150 84c6 4 21 6 26 -3l18 -36c4 -8 2 -18 -6 -21l-161 -67c-14 -6 -19 -6 -23 2z" />
    <glyph glyph-name="acute.cap" horiz-adv-x="302" 
d="M70 783l-10 22c-4 8 0 16 6 19l150 84c6 4 21 6 26 -3l18 -36c4 -8 2 -18 -6 -21l-161 -67c-14 -6 -19 -6 -23 2z" />
    <glyph glyph-name="circumflex" unicode="&#x2c6;" horiz-adv-x="373" 
d="M60 555l-14 18c-5 7 0 15 6 19l120 94c4 3 9 4 13 4c6 0 9 -1 13 -4l120 -94c6 -4 11 -12 6 -19c-9 -12 -17 -36 -37 -22l-102 70l-102 -68c-12 -8 -18 -5 -23 2z" />
    <glyph glyph-name="circumflex.cap" horiz-adv-x="373" 
d="M60 775l-14 18c-5 7 0 15 6 19l120 94c4 3 9 4 13 4c6 0 9 -1 13 -4l120 -94c6 -4 11 -12 6 -19c-9 -12 -17 -36 -37 -22l-102 70l-102 -68c-12 -8 -18 -5 -23 2z" />
    <glyph glyph-name="caron" unicode="&#x2c7;" horiz-adv-x="373" 
d="M172 546l-120 94c-6 4 -11 12 -6 19l14 18c5 7 11 10 23 2l102 -68l102 70c12 8 18 5 23 -2l14 -20c9 -12 -11 -23 -19 -29l-107 -84c-4 -3 -7 -4 -13 -4c-4 0 -9 1 -13 4z" />
    <glyph glyph-name="caron.cap" horiz-adv-x="373" 
d="M185 768c-4 0 -9 1 -13 4l-120 94c-6 4 -11 12 -6 19l14 18c5 7 11 10 23 2l102 -68l102 70c12 8 18 5 23 -2l14 -20c9 -12 -11 -23 -19 -29l-107 -84c-4 -3 -7 -4 -13 -4z" />
    <glyph glyph-name="caron.alt" horiz-adv-x="373" 
d="M175 711c32 0 66 -18 66 -90c0 -83 -52 -155 -84 -185c-10 -9 -18 -8 -24 -2l-14 14c-5 5 -4 15 6 24s62 53 62 126c-4 -1 -8 -1 -12 -1c-31 0 -57 26 -57 57c0 32 26 57 57 57z" />
    <glyph glyph-name="tilde" unicode="&#x2dc;" horiz-adv-x="380" 
d="M64 575l-18 9c-8 4 -7 15 -4 22c9 18 26 84 92 84c60 0 79 -74 110 -74c28 0 40 34 45 51c3 10 12 13 23 8l16 -8c12 -6 6 -19 4 -26c-10 -29 -34 -81 -89 -81s-82 75 -110 75c-27 0 -37 -29 -44 -50c-3 -10 -12 -17 -25 -10z" />
    <glyph glyph-name="tilde.cap" horiz-adv-x="380" 
d="M64 795l-18 9c-8 4 -7 15 -4 22c9 18 26 84 92 84c60 0 79 -74 110 -74c28 0 40 34 45 51c3 10 12 13 23 8l16 -8c12 -6 6 -19 4 -26c-10 -29 -34 -81 -89 -81s-82 75 -110 75c-27 0 -37 -29 -44 -50c-3 -10 -12 -17 -25 -10z" />
    <glyph glyph-name="dieresis" unicode="&#xa8;" horiz-adv-x="414" 
d="M320 585c-26 0 -47 21 -47 47c0 27 21 48 47 48c27 0 48 -21 48 -48c0 -26 -21 -47 -48 -47zM127 585c-26 0 -47 21 -47 47c0 27 21 48 47 48c27 0 48 -21 48 -48c0 -26 -21 -47 -48 -47z" />
    <glyph glyph-name="dieresis.cap" horiz-adv-x="474" 
d="M342 792c-26 0 -47 21 -47 47c0 27 21 48 47 48c27 0 48 -21 48 -48c0 -26 -21 -47 -48 -47zM131 792c-26 0 -47 21 -47 47c0 27 21 48 47 48c27 0 48 -21 48 -48c0 -26 -21 -47 -48 -47z" />
    <glyph glyph-name="macron" unicode="&#xaf;" horiz-adv-x="414" 
d="M79 583c-11 0 -19 8 -19 18v21c0 11 8 19 19 19h256c11 0 19 -8 19 -19v-21c0 -10 -8 -18 -19 -18h-256z" />
    <glyph glyph-name="macron.cap" horiz-adv-x="414" 
d="M79 821c-11 0 -19 8 -19 18v21c0 11 8 19 19 19h256c11 0 19 -8 19 -19v-21c0 -10 -8 -18 -19 -18h-256z" />
    <glyph glyph-name="uni02C9" unicode="&#x2c9;" horiz-adv-x="414" 
d="M79 583c-11 0 -19 8 -19 18v21c0 11 8 19 19 19h256c11 0 19 -8 19 -19v-21c0 -10 -8 -18 -19 -18h-256z" />
    <glyph glyph-name="breve" unicode="&#x2d8;" horiz-adv-x="346" 
d="M173 531c-70 0 -126 49 -135 114c-2 11 2 20 14 20h21c11 0 16 -8 19 -17c11 -38 41 -64 81 -64c37 0 68 29 79 64c4 11 10 17 19 17h23c11 0 16 -9 14 -20c-11 -65 -66 -114 -135 -114z" />
    <glyph glyph-name="breve.cap" horiz-adv-x="346" 
d="M173 771c-70 0 -126 49 -135 114c-2 11 2 20 14 20h21c11 0 16 -8 19 -17c11 -38 41 -64 81 -64c37 0 68 29 79 64c4 11 10 17 19 17h23c11 0 16 -9 14 -20c-11 -65 -66 -114 -135 -114z" />
    <glyph glyph-name="ring" unicode="&#x2da;" horiz-adv-x="290" 
d="M145 492c-61 0 -109 48 -109 109s48 109 109 109c60 0 109 -48 109 -109s-49 -109 -109 -109zM145 540c32 0 59 29 59 61s-27 59 -59 59s-61 -27 -61 -59s29 -61 61 -61z" />
    <glyph glyph-name="ring.cap" horiz-adv-x="290" 
d="M145 758c-61 0 -109 48 -109 109s48 109 109 109c60 0 109 -48 109 -109s-49 -109 -109 -109zM145 806c32 0 59 29 59 61s-27 59 -59 59s-61 -27 -61 -59s29 -61 61 -61z" />
    <glyph glyph-name="hungarumlaut" unicode="&#x2dd;" horiz-adv-x="392" 
d="M241 521c-10 0 -22 9 -19 19l50 141c3 10 9 19 19 19h39c19 0 25 -12 18 -25l-78 -139c-4 -8 -11 -15 -18 -15h-11zM75 521c-10 0 -22 9 -19 19l50 141c3 10 9 19 19 19h39c19 0 25 -12 18 -25l-78 -139c-4 -8 -11 -15 -18 -15h-11z" />
    <glyph glyph-name="hungarumlaut.cap" horiz-adv-x="392" 
d="M231 769c-10 0 -22 9 -19 19l50 141c3 10 9 19 19 19h39c19 0 25 -12 18 -25l-78 -139c-4 -8 -11 -15 -18 -15h-11zM65 769c-10 0 -22 9 -19 19l50 141c3 10 9 19 19 19h39c19 0 25 -12 18 -25l-78 -139c-4 -8 -11 -15 -18 -15h-11z" />
    <glyph glyph-name="dotaccent" unicode="&#x2d9;" horiz-adv-x="219" 
d="M108 566c-31 0 -57 26 -57 57c0 32 26 57 57 57c32 0 57 -25 57 -57c0 -31 -25 -57 -57 -57z" />
    <glyph glyph-name="dotaccent.cap" horiz-adv-x="219" 
d="M108 796c-31 0 -57 26 -57 57c0 32 26 57 57 57c32 0 57 -25 57 -57c0 -31 -25 -57 -57 -57z" />
    <glyph glyph-name="cedilla" unicode="&#xb8;" horiz-adv-x="247" 
d="M57 0h54v-53c61 -8 105 -45 105 -103s-46 -104 -105 -104c-30 0 -59 15 -76 35c-8 9 -7 21 0 26l14 11c7 5 18 6 23 0c12 -13 29 -18 41 -18c27 0 44 20 44 47c0 46 -49 57 -83 63c-15 3 -17 15 -17 20v76z" />
    <glyph glyph-name="cedilla.cap" horiz-adv-x="247" 
d="M57 0h54v-53c61 -8 105 -45 105 -103s-46 -104 -105 -104c-30 0 -59 15 -76 35c-8 9 -7 21 0 26l14 11c7 5 18 6 23 0c12 -13 29 -18 41 -18c27 0 44 20 44 47c0 46 -49 57 -83 63c-15 3 -17 15 -17 20v76z" />
    <glyph glyph-name="ogonek" unicode="&#x2db;" horiz-adv-x="276" 
d="M112 11h51s-60 -45 -60 -110c0 -33 27 -57 57 -57c25 0 42 9 55 16c8 4 18 -1 18 -14v-25c0 -9 -7 -13 -14 -17c-10 -5 -37 -15 -70 -15c-56 0 -106 32 -106 102c0 76 69 120 69 120z" />
    <glyph glyph-name="ogonek.cap" horiz-adv-x="276" 
d="M112 11h51s-60 -45 -60 -110c0 -33 27 -57 57 -57c25 0 42 9 55 16c8 4 18 -1 18 -14v-25c0 -9 -7 -13 -14 -17c-10 -5 -37 -15 -70 -15c-56 0 -106 32 -106 102c0 76 69 120 69 120z" />
    <glyph glyph-name="commaaccent" horiz-adv-x="292" 
d="M137 -92c32 0 66 -18 66 -90c0 -83 -52 -155 -84 -185c-10 -9 -18 -8 -24 -2l-14 14c-5 5 -4 15 6 24s62 53 62 126c-4 -1 -8 -1 -12 -1c-31 0 -57 26 -57 57c0 32 26 57 57 57z" />
    <glyph glyph-name="commaaccent.alt" horiz-adv-x="292" 
d="M137 -92c32 0 66 -18 66 -90c0 -83 -52 -155 -84 -185c-10 -9 -18 -8 -24 -2l-14 14c-5 5 -4 15 6 24s62 53 62 126c-4 -1 -8 -1 -12 -1c-31 0 -57 26 -57 57c0 32 26 57 57 57z" />
    <glyph glyph-name="commaaccent.cap" horiz-adv-x="292" 
d="M137 -92c32 0 66 -18 66 -90c0 -83 -52 -155 -84 -185c-10 -9 -18 -8 -24 -2l-14 14c-5 5 -4 15 6 24s62 53 62 126c-4 -1 -8 -1 -12 -1c-31 0 -57 26 -57 57c0 32 26 57 57 57z" />
    <glyph glyph-name="ellipsis" unicode="&#x2026;" horiz-adv-x="624" 
d="M450 47c0 32 26 57 57 57c32 0 57 -25 57 -57c0 -31 -25 -57 -57 -57c-31 0 -57 26 -57 57zM253 47c0 32 26 57 57 57c32 0 57 -25 57 -57c0 -31 -25 -57 -57 -57c-31 0 -57 26 -57 57zM60 47c0 32 26 57 57 57c32 0 57 -25 57 -57c0 -31 -25 -57 -57 -57
c-31 0 -57 26 -57 57z" />
    <glyph glyph-name="uni00AD" unicode="&#xad;" horiz-adv-x="347" 
d="M69 220c-11 0 -19 8 -19 18v19c0 11 8 19 19 19h209c11 0 19 -8 19 -19v-19c0 -10 -8 -18 -19 -18h-209z" />
    <glyph glyph-name="exclamdown" unicode="&#xa1;" horiz-adv-x="229" 
d="M115 296c-32 0 -57 25 -57 57c0 31 25 57 57 57c31 0 57 -26 57 -57c0 -32 -26 -57 -57 -57zM90 112c1 8 10 16 19 16h12c9 0 18 -8 19 -16l19 -279v-114c0 -10 -9 -19 -19 -19h-50c-10 0 -19 9 -19 19v112z" />
    <glyph glyph-name="questiondown" unicode="&#xbf;" horiz-adv-x="244" 
d="M129 296c-32 0 -57 25 -57 57c0 31 25 57 57 57c31 0 57 -26 57 -57c0 -32 -26 -57 -57 -57zM93 67v41c0 14 11 20 21 20h27c10 0 19 -8 19 -19v-42c0 -124 -150 -114 -150 -227c0 -47 34 -88 99 -88c81 0 118 47 138 68c9 9 17 9 26 1l19 -17c8 -7 6 -18 0 -26
c0 0 -57 -88 -183 -88c-104 0 -174 61 -174 153c0 131 158 142 158 224z" />
    <glyph glyph-name="quoteleft" unicode="&#x2018;" horiz-adv-x="204" 
d="M104 427c-32 0 -66 18 -66 90c0 83 52 155 84 185c10 9 18 8 24 2l14 -14c5 -5 4 -15 -6 -24s-62 -53 -62 -126c4 1 8 1 12 1c31 0 57 -26 57 -57c0 -32 -26 -57 -57 -57z" />
    <glyph glyph-name="quoteright" unicode="&#x2019;" horiz-adv-x="202" 
d="M60 434l-14 14c-5 5 -4 15 6 24s62 53 62 126c-4 -1 -8 -1 -12 -1c-31 0 -57 26 -57 57c0 32 26 57 57 57c32 0 66 -18 66 -90c0 -83 -52 -155 -84 -185c-10 -9 -18 -8 -24 -2z" />
    <glyph glyph-name="quotedblleft" unicode="&#x201c;" horiz-adv-x="384" 
d="M284 429c-32 0 -66 18 -66 90c0 83 52 155 84 185c10 9 18 8 24 2l14 -14c5 -5 4 -15 -6 -24s-62 -53 -62 -126c4 1 8 1 12 1c31 0 57 -26 57 -57c0 -32 -26 -57 -57 -57zM104 429c-32 0 -66 18 -66 90c0 83 52 155 84 185c10 9 18 8 24 2l14 -14c5 -5 4 -15 -6 -24
s-62 -53 -62 -126c4 1 8 1 12 1c31 0 57 -26 57 -57c0 -32 -26 -57 -57 -57z" />
    <glyph glyph-name="quotedblright" unicode="&#x201d;" horiz-adv-x="382" 
d="M240 434l-14 14c-5 5 -4 15 6 24s62 53 62 126c-4 -1 -8 -1 -12 -1c-31 0 -57 26 -57 57c0 32 26 57 57 57c32 0 66 -18 66 -90c0 -83 -52 -155 -84 -185c-10 -9 -18 -8 -24 -2zM60 434l-14 14c-5 5 -4 15 6 24s62 53 62 126c-4 -1 -8 -1 -12 -1c-31 0 -57 26 -57 57
c0 32 26 57 57 57c32 0 66 -18 66 -90c0 -83 -52 -155 -84 -185c-10 -9 -18 -8 -24 -2z" />
    <glyph glyph-name="quotesinglbase" unicode="&#x201a;" horiz-adv-x="233" 
d="M55 47c0 32 26 57 57 57c32 0 66 -18 66 -90c0 -83 -52 -155 -84 -185c-10 -9 -18 -8 -24 -2l-14 14c-5 5 -4 15 6 24s62 53 62 126c-4 -1 -8 -1 -12 -1c-31 0 -57 26 -57 57z" />
    <glyph glyph-name="quotedblbase" unicode="&#x201e;" horiz-adv-x="413" 
d="M235 47c0 32 26 57 57 57c32 0 66 -18 66 -90c0 -83 -52 -155 -84 -185c-10 -9 -18 -8 -24 -2l-14 14c-5 5 -4 15 6 24s62 53 62 126c-4 -1 -8 -1 -12 -1c-31 0 -57 26 -57 57zM55 47c0 32 26 57 57 57c32 0 66 -18 66 -90c0 -83 -52 -155 -84 -185c-10 -9 -18 -8 -24 -2
l-14 14c-5 5 -4 15 6 24s62 53 62 126c-4 -1 -8 -1 -12 -1c-31 0 -57 26 -57 57z" />
    <glyph glyph-name="guilsinglleft" unicode="&#x2039;" horiz-adv-x="252" 
d="M145 39l-104 155c-6 8 -4 18 0 24l109 148c5 7 10 12 18 12h14c17 0 23 -15 15 -31l-74 -139l71 -147c7 -16 2 -30 -15 -30h-19c-7 0 -12 4 -15 8z" />
    <glyph glyph-name="guilsinglright" unicode="&#x203a;" horiz-adv-x="252" 
d="M72 31c-17 0 -22 14 -15 30l71 147l-74 139c-8 16 -2 31 15 31h14c8 0 14 -6 18 -12l109 -148c4 -6 6 -16 0 -24l-104 -155c-3 -4 -8 -8 -15 -8h-19z" />
    <glyph glyph-name="guillemotleft" unicode="&#xab;" horiz-adv-x="415" 
d="M204 194c-6 8 -4 18 0 24l109 148c3 5 10 12 18 12h14c17 0 23 -15 15 -31l-74 -139l71 -147c8 -16 2 -30 -15 -30h-19c-7 0 -12 4 -15 8zM145 39l-104 155c-6 8 -4 18 0 24l109 148c3 5 10 12 18 12h14c17 0 23 -15 15 -31l-74 -139l71 -147c8 -16 2 -30 -15 -30h-19
c-7 0 -12 4 -15 8z" />
    <glyph glyph-name="guillemotright" unicode="&#xbb;" horiz-adv-x="415" 
d="M220 61l71 147l-74 139c-8 16 -2 31 15 31h14c8 0 15 -7 18 -12l109 -148c4 -6 6 -16 0 -24l-104 -155c-3 -4 -8 -8 -15 -8h-19c-17 0 -23 14 -15 30zM72 31c-17 0 -23 14 -15 30l71 147l-74 139c-8 16 -2 31 15 31h14c8 0 15 -7 18 -12l109 -148c4 -6 6 -16 0 -24
l-104 -155c-3 -4 -8 -8 -15 -8h-19z" />
    <glyph glyph-name="endash" unicode="&#x2013;" horiz-adv-x="577" 
d="M104 223c-11 0 -19 8 -19 18v11c0 11 8 19 19 19h369c11 0 19 -8 19 -19v-11c0 -10 -8 -18 -19 -18h-369z" />
    <glyph glyph-name="emdash" unicode="&#x2014;" horiz-adv-x="797" 
d="M104 223c-11 0 -19 8 -19 18v11c0 11 8 19 19 19h589c11 0 19 -8 19 -19v-11c0 -10 -8 -18 -19 -18h-589z" />
    <glyph glyph-name="bullet" unicode="&#x2022;" horiz-adv-x="354" 
d="M175 119c-57 0 -105 48 -105 105c0 60 48 109 105 109c60 0 109 -49 109 -109c0 -57 -49 -105 -109 -105z" />
    <glyph glyph-name="periodcentered" unicode="&#xb7;" horiz-adv-x="229" 
d="M114 204c-31 0 -57 26 -57 57c0 32 26 57 57 57c32 0 57 -25 57 -57c0 -31 -25 -57 -57 -57z" />
    <glyph glyph-name="uni2219" unicode="&#x2219;" horiz-adv-x="354" 
d="M177 204c-31 0 -57 26 -57 57c0 32 26 57 57 57c32 0 57 -25 57 -57c0 -31 -25 -57 -57 -57z" />
    <glyph glyph-name="dagger" unicode="&#x2020;" horiz-adv-x="618" 
d="M69 334c-10 0 -19 9 -19 19v28c0 10 9 19 19 19h195v281c0 10 9 19 19 19h50c10 0 19 -9 19 -19v-281h198c10 0 18 -9 18 -19v-28c0 -10 -8 -19 -18 -19h-200l-17 -618c0 -8 -10 -16 -19 -16h-12c-9 0 -19 8 -19 16l-17 618h-197z" />
    <glyph glyph-name="daggerdbl" unicode="&#x2021;" horiz-adv-x="618" 
d="M80 19v28c0 10 9 19 19 19h174l-9 333v1h-195c-10 0 -19 9 -19 19v28c0 10 9 19 19 19h195v215c0 10 9 19 19 19h50c10 0 19 -9 19 -19v-215h198c10 0 18 -9 18 -19v-28c0 -10 -8 -19 -18 -19h-198l-9 -334h177c10 0 18 -9 18 -19v-28c0 -10 -8 -19 -18 -19h-179l-8 -284
c0 -8 -10 -16 -19 -16h-12c-9 0 -19 8 -19 16l-8 284h-176c-10 0 -19 9 -19 19z" />
    <glyph glyph-name="section" unicode="&#xa7;" horiz-adv-x="527" 
d="M66 -110c8 10 19 14 30 3c6 -6 81 -76 169 -76c71 0 134 32 134 100c0 63 -60 109 -175 158c-107 45 -176 104 -176 195c0 85 80 128 80 128s-80 51 -80 144c0 68 54 168 213 168c98 0 171 -51 171 -51c6 -3 18 -15 7 -33l-15 -23c-8 -11 -17 -15 -33 -6
c-7 4 -70 46 -131 46c-108 0 -138 -58 -138 -100c0 -56 51 -97 135 -131c135 -56 222 -103 222 -202c0 -84 -85 -138 -85 -138s85 -55 85 -152c0 -104 -93 -170 -216 -170c-118 0 -198 69 -211 81c-8 7 -20 16 -6 34zM122 273c0 -83 86 -102 212 -167c0 0 65 30 65 98
c0 60 -60 93 -175 141c-14 6 -30 13 -42 19c0 0 -60 -25 -60 -91z" />
    <glyph glyph-name="paragraph" unicode="&#xb6;" horiz-adv-x="702" 
d="M233 282c-113 0 -208 92 -208 210c0 114 85 209 194 209l442 -1c10 0 19 -9 19 -19v-20c0 -11 -9 -19 -19 -19h-111v-924c0 -10 -8 -19 -19 -19h-21c-10 0 -19 9 -19 19v924h-156v-924c0 -10 -9 -19 -19 -19h-20c-10 0 -19 9 -19 19v564h-44z" />
    <glyph glyph-name="brokenbar.case" horiz-adv-x="364" 
d="M179 513c-10 0 -19 8 -19 18v330c0 11 9 19 19 19h7c10 0 18 -8 18 -19v-330c0 -10 -9 -18 -19 -18h-6zM160 169c0 11 9 19 19 19h7c10 0 18 -8 18 -19v-331c0 -10 -9 -18 -19 -18h-6c-10 0 -19 8 -19 18v331z" />
    <glyph glyph-name="copyright" unicode="&#xa9;" horiz-adv-x="826" 
d="M54 350c0 198 161 360 359 360s360 -162 360 -360s-162 -359 -360 -359s-359 161 -359 359zM114 350c0 -165 134 -299 299 -299c166 0 299 134 299 299c0 166 -133 299 -299 299c-165 0 -299 -133 -299 -299zM235 348c0 105 84 188 187 188c40 0 82 -12 115 -38
c9 -8 10 -20 2 -29l-14 -18c-8 -11 -19 -6 -27 -1c-24 16 -49 23 -74 23c-69 0 -119 -56 -119 -122c0 -69 50 -122 119 -122c25 0 50 8 71 22c11 7 21 9 29 -1l16 -19c7 -8 7 -20 -1 -28c-35 -30 -74 -42 -117 -42c-103 0 -187 84 -187 187z" />
    <glyph glyph-name="registered" unicode="&#xae;" horiz-adv-x="827" 
d="M54 350c0 198 161 360 359 360s360 -162 360 -360s-162 -359 -360 -359s-359 161 -359 359zM114 350c0 -165 134 -299 299 -299c166 0 299 134 299 299c0 166 -133 299 -299 299c-165 0 -299 -133 -299 -299zM288 187v328c0 10 8 19 19 19h142c62 0 123 -37 123 -112
s-53 -102 -81 -109c20 -39 40 -79 60 -118c7 -12 -3 -27 -17 -27h-34c-8 0 -15 8 -18 14l-56 125h-74v-120c0 -10 -8 -19 -19 -19h-26c-11 0 -19 9 -19 19zM351 365h98c37 0 60 26 60 57c0 34 -23 57 -60 57h-98v-114z" />
    <glyph glyph-name="trademark" unicode="&#x2122;" horiz-adv-x="721" 
d="M331 398c-13 0 -21 11 -19 23l52 269c2 8 10 15 19 15h4c6 0 15 -6 17 -11l81 -212l82 212c2 5 11 11 17 11h4c8 0 17 -7 19 -15l53 -270c2 -12 -7 -22 -19 -22h-12c-9 0 -17 8 -19 17l-34 165l-72 -176c-2 -5 -10 -9 -16 -9h-6c-5 0 -15 4 -17 10l-70 175l-35 -166
c-2 -8 -11 -16 -19 -16h-10zM158 398c-11 0 -19 9 -19 19v234h-70c-10 0 -19 8 -19 19v11c0 10 9 19 19 19h191c11 0 19 -9 19 -19v-11c0 -11 -8 -19 -19 -19h-70v-234c0 -10 -9 -19 -19 -19h-13z" />
    <glyph glyph-name="currency" unicode="&#xa4;" horiz-adv-x="476" 
d="M101 176l-20 19c-7 7 -7 20 0 27l41 41c-25 43 -25 95 0 138l-41 41c-7 7 -7 20 0 27l20 19c7 7 20 7 27 0l41 -41c42 26 95 27 138 1l42 42c7 7 19 6 26 -1l20 -20c7 -7 7 -19 0 -26l-41 -41c26 -42 26 -97 0 -140l41 -41c7 -7 7 -19 0 -26l-20 -20c-7 -7 -19 -8 -26 -1
l-42 42c-43 -25 -96 -25 -138 1l-41 -41c-7 -7 -20 -7 -27 0zM238 260c40 0 72 32 72 72s-32 72 -72 72s-72 -32 -72 -72s32 -72 72 -72z" />
    <glyph glyph-name="Euro" unicode="&#x20ac;" horiz-adv-x="731" 
d="M38 253c-10 0 -18 9 -18 19v7c0 10 8 19 18 19h40c-2 16 -3 33 -3 51c0 8 0 16 1 24h-38c-10 0 -18 9 -18 19v7c0 10 8 19 18 19h43c32 167 178 292 355 292c101 0 174 -35 242 -93c8 -8 9 -20 1 -28l-24 -24c-9 -9 -22 -10 -33 1c-50 47 -119 72 -187 72
c-135 0 -242 -96 -271 -220h281c11 0 19 -9 19 -19v-8c0 -10 -8 -18 -19 -18h-288c-1 -8 -1 -15 -1 -23c0 -18 1 -35 4 -52h245c11 0 19 -9 19 -19v-8c0 -10 -8 -18 -19 -18h-233c38 -109 139 -190 263 -190c86 0 139 37 192 77c7 6 15 8 24 3l29 -29c8 -6 6 -20 -1 -27
c-68 -66 -154 -97 -243 -97c-167 0 -306 110 -348 263h-50z" />
    <glyph glyph-name="cent" unicode="&#xa2;" horiz-adv-x="427" 
d="M153 7c-72 31 -123 103 -123 192c0 118 92 211 206 211c9 0 17 -1 26 -2l11 41c3 10 13 16 23 13l7 -2c10 -2 16 -12 13 -23l-11 -40c28 -12 53 -31 74 -57c7 -9 5 -21 -4 -28l-19 -16c-16 -13 -20 -4 -29 4c-10 11 -24 22 -40 30l-74 -273c7 -1 14 -1 21 -1
c55 0 83 30 106 52c12 12 19 10 30 2l11 -8c10 -7 13 -18 7 -28c-30 -48 -85 -84 -153 -84c-14 0 -27 1 -39 4l-26 -97c-2 -10 -13 -15 -23 -13l-6 2c-10 2 -16 12 -14 22zM171 72l73 269s-5 1 -9 1c-75 0 -133 -62 -133 -142c0 -56 27 -104 69 -128z" />
    <glyph glyph-name="sterling" unicode="&#xa3;" horiz-adv-x="504" 
d="M82 19v18c50 94 53 182 39 257h-44c-10 0 -18 9 -18 19v7c0 10 8 19 18 19h32c-5 25 -32 91 -32 166c0 126 92 205 209 205c86 0 142 -49 167 -71c8 -6 9 -18 2 -26l-21 -26c-11 -14 -21 -11 -29 -1c0 0 -56 58 -123 58c-77 0 -135 -56 -135 -140c0 -77 30 -146 33 -165
h164c11 0 19 -9 19 -19v-8c0 -10 -8 -18 -19 -18h-153c10 -52 9 -162 -22 -230h250c10 0 18 -8 18 -19v-26c0 -10 -8 -19 -18 -19h-318c-10 0 -19 9 -19 19z" />
    <glyph glyph-name="florin" unicode="&#x192;" horiz-adv-x="323" 
d="M103 -140v480h-61c-11 0 -19 9 -19 19v22c0 11 8 19 19 19h61v140c0 116 67 170 153 170c55 0 92 -24 110 -41c7 -6 8 -16 4 -23l-16 -26c-6 -10 -16 -9 -26 -1c-13 10 -42 29 -73 29c-46 0 -83 -31 -83 -108v-140h116c11 0 19 -8 19 -19v-22c0 -10 -8 -19 -19 -19h-116
v-480c0 -116 -67 -170 -153 -170c-55 0 -92 24 -110 41c-7 6 -8 16 -4 23l16 26c6 10 16 9 26 1c13 -10 48 -29 73 -29c46 0 83 31 83 108z" />
    <glyph glyph-name="yen" unicode="&#xa5;" horiz-adv-x="618" 
d="M138 123c-10 0 -18 9 -18 19v7c0 10 8 19 18 19h131v75h-131c-10 0 -18 9 -18 19v7c0 10 8 19 18 19h131v49l-241 334c-8 13 0 29 16 29h47c7 0 13 -5 16 -9l202 -279l202 279c3 4 9 9 16 9h47c16 0 24 -16 16 -29l-244 -333v-50h129c11 0 19 -9 19 -19v-8
c0 -10 -8 -18 -19 -18h-129v-75h129c11 0 19 -9 19 -19v-8c0 -10 -8 -18 -19 -18h-129v-104c0 -10 -9 -19 -19 -19h-39c-11 0 -19 9 -19 19v104h-131z" />
    <glyph glyph-name="ordfeminine" unicode="&#xaa;" horiz-adv-x="312" 
d="M124 404c-51 0 -89 38 -89 97c0 55 41 96 116 96c31 0 60 -10 60 -10c0 54 -5 77 -45 77c-41 0 -72 -13 -86 -18c-7 -2 -13 4 -15 11l-5 18c-2 8 1 12 7 15c4 3 42 20 103 20c94 0 90 -67 90 -132v-152c0 -8 -6 -14 -13 -14h-18c-8 0 -10 4 -12 10l-6 21
c-16 -15 -41 -39 -87 -39zM130 451c34 0 66 22 79 38v56c-10 5 -31 13 -61 13c-38 0 -68 -23 -68 -56c0 -29 21 -51 50 -51z" />
    <glyph glyph-name="ordmasculine" unicode="&#xba;" horiz-adv-x="324" 
d="M162 394c-79 0 -124 59 -124 157c0 99 45 158 124 158s124 -59 124 -158c0 -98 -45 -157 -124 -157zM162 442c44 0 69 39 69 109s-25 110 -69 110s-69 -40 -69 -110s25 -109 69 -109z" />
    <glyph glyph-name="onesuperior" unicode="&#xb9;" horiz-adv-x="190" 
d="M90 504c-6 0 -10 4 -10 9v210l-41 -11c-5 -1 -9 0 -10 4l-5 17c-1 5 -1 7 3 11l70 56h28c6 0 9 -4 9 -9v-278c0 -5 -4 -9 -9 -9h-35z" />
    <glyph glyph-name="twosuperior" unicode="&#xb2;" horiz-adv-x="307" 
d="M55 504c-5 0 -10 2 -10 9v14l127 133c20 22 32 38 32 56c0 21 -16 47 -57 47c-22 0 -46 -14 -62 -30c-5 -5 -10 -2 -12 0l-20 21c-3 3 -4 8 0 11c0 0 38 45 97 45c72 0 108 -40 108 -89c0 -32 -20 -60 -49 -90l-81 -83h121c6 0 9 -4 9 -10v-25c0 -4 -1 -9 -9 -9h-194z
" />
    <glyph glyph-name="threesuperior" unicode="&#xb3;" horiz-adv-x="298" 
d="M145 494c-62 0 -92 29 -103 41c-3 3 -3 8 1 11l21 20c5 3 9 3 13 -1c3 -2 32 -26 66 -26c31 0 60 18 60 45c0 25 -22 48 -73 48h-31c-5 0 -10 3 -10 9v25c0 6 4 9 10 9h31c45 0 65 20 65 44c0 27 -26 45 -54 45c-29 0 -46 -14 -56 -24c-3 -3 -8 -4 -13 0l-20 18
c-4 3 -4 9 0 12c0 0 38 40 93 40c58 0 105 -32 105 -83c0 -34 -29 -61 -52 -70v-2c24 -9 61 -36 61 -75c0 -49 -45 -86 -114 -86z" />
    <glyph glyph-name="fraction" unicode="&#x2044;" horiz-adv-x="119" 
d="M-79 10c-2 -4 -8 -10 -17 -10h-14c-15 0 -24 14 -17 27l343 663c4 7 9 10 17 10h16c15 0 24 -14 17 -27z" />
    <glyph glyph-name="uni2215" unicode="&#x2215;" horiz-adv-x="119" 
d="M-79 10c-2 -4 -8 -10 -17 -10h-14c-15 0 -24 14 -17 27l343 663c4 7 9 10 17 10h16c15 0 24 -14 17 -27z" />
    <glyph glyph-name="onehalf" unicode="&#xbd;" horiz-adv-x="626" 
d="M90 27l343 663c4 7 9 10 17 10h16c15 0 24 -14 17 -27l-345 -663c-2 -4 -8 -10 -17 -10h-14c-15 0 -24 14 -17 27zM104 404c-6 0 -10 4 -10 9v210l-41 -11c-5 -1 -9 0 -10 4l-5 17c-1 5 -1 7 3 11l70 56h28c6 0 9 -4 9 -9v-278c0 -5 -4 -9 -9 -9h-35zM347 9v14l127 133
c20 22 32 38 32 56c0 21 -16 47 -57 47c-22 0 -46 -14 -62 -30c-5 -5 -10 -2 -12 0l-20 21c-3 3 -4 8 0 11c0 0 38 45 97 45c72 0 108 -40 108 -89c0 -32 -20 -60 -49 -90l-81 -83h121c6 0 9 -4 9 -10v-25c0 -4 -1 -9 -9 -9h-194c-5 0 -10 2 -10 9z" />
    <glyph glyph-name="onethird" unicode="&#x2153;" horiz-adv-x="623" 
d="M103 27l343 663c4 7 9 10 17 10h16c15 0 24 -14 17 -27l-345 -663c-2 -4 -8 -10 -17 -10h-14c-15 0 -24 14 -17 27zM117 404c-6 0 -10 4 -10 9v210l-41 -11c-5 -1 -9 0 -10 4l-5 17c-1 5 -1 7 3 11l70 56h28c6 0 9 -4 9 -9v-278c0 -5 -4 -9 -9 -9h-35zM363 31
c-3 3 -3 8 1 11l21 20c5 3 9 3 13 -1c3 -2 32 -26 66 -26c31 0 60 18 60 45c0 25 -22 48 -73 48h-31c-5 0 -10 3 -10 9v25c0 6 4 9 10 9h31c45 0 65 20 65 44c0 27 -26 45 -54 45c-29 0 -46 -14 -56 -24c-3 -3 -8 -4 -13 0l-20 18c-4 3 -4 9 0 12c0 0 38 40 93 40
c58 0 105 -32 105 -83c0 -34 -29 -61 -52 -70v-2c24 -9 61 -36 61 -75c0 -49 -45 -86 -114 -86c-62 0 -92 29 -103 41z" />
    <glyph glyph-name="onequarter" unicode="&#xbc;" horiz-adv-x="633" 
d="M90 27l343 663c4 7 9 10 17 10h16c15 0 24 -14 17 -27l-345 -663c-2 -4 -8 -10 -17 -10h-14c-15 0 -24 14 -17 27zM104 404c-6 0 -10 4 -10 9v210l-41 -11c-5 -1 -9 0 -10 4l-5 17c-1 5 -1 7 3 11l70 56h28c6 0 9 -4 9 -9v-278c0 -5 -4 -9 -9 -9h-35zM317 68v29l172 196
c2 2 6 3 8 3h21c5 0 10 -4 10 -9v-185h41c5 0 9 -4 9 -8v-26c0 -4 -4 -8 -9 -8h-41v-51c0 -5 -5 -9 -10 -9h-32c-5 0 -10 4 -10 9v50h-150c-5 0 -9 4 -9 9zM372 103h106v118z" />
    <glyph glyph-name="oneeighth" unicode="&#x215b;" horiz-adv-x="623" 
d="M103 27l343 663c4 7 9 10 17 10h16c15 0 24 -14 17 -27l-345 -663c-2 -4 -8 -10 -17 -10h-14c-15 0 -24 14 -17 27zM117 404c-6 0 -10 4 -10 9v210l-41 -11c-5 -1 -9 0 -10 4l-5 17c-1 5 -1 7 3 11l70 56h28c6 0 9 -4 9 -9v-278c0 -5 -4 -9 -9 -9h-35zM378 74
c0 39 41 71 57 78v2c-20 9 -49 35 -49 70c0 50 44 82 102 82s103 -32 103 -82c0 -34 -30 -60 -50 -70v-2c22 -10 58 -39 58 -78c0 -49 -43 -84 -112 -84c-66 0 -109 35 -109 84zM439 221c0 -22 15 -39 49 -45c34 6 50 24 50 45c0 24 -22 42 -51 42c-27 0 -48 -18 -48 -42z
M432 77c0 -27 27 -44 56 -44c31 0 57 17 57 44c0 22 -20 44 -57 51c-36 -7 -56 -29 -56 -51z" />
    <glyph glyph-name="twothirds" unicode="&#x2154;" horiz-adv-x="623" 
d="M10 404c-5 0 -10 2 -10 9v14l127 133c20 22 32 38 32 56c0 21 -16 47 -57 47c-22 0 -46 -14 -62 -30c-5 -5 -10 -2 -12 0l-20 21c-3 3 -4 8 0 11c0 0 38 45 97 45c72 0 108 -40 108 -89c0 -32 -20 -60 -49 -90l-81 -83h121c6 0 9 -4 9 -10v-25c0 -4 -1 -9 -9 -9h-194z
M103 27l343 663c4 7 9 10 17 10h16c15 0 24 -14 17 -27l-345 -663c-2 -4 -8 -10 -17 -10h-14c-15 0 -24 14 -17 27zM363 31c-3 3 -3 8 1 11l21 20c5 3 9 3 13 -1c3 -2 32 -26 66 -26c31 0 60 18 60 45c0 25 -22 48 -73 48h-31c-5 0 -10 3 -10 9v25c0 6 4 9 10 9h31
c45 0 65 20 65 44c0 27 -26 45 -54 45c-29 0 -46 -14 -56 -24c-3 -3 -8 -4 -13 0l-20 18c-4 3 -4 9 0 12c0 0 38 40 93 40c58 0 105 -32 105 -83c0 -34 -29 -61 -52 -70v-2c24 -9 61 -36 61 -75c0 -49 -45 -86 -114 -86c-62 0 -92 29 -103 41z" />
    <glyph glyph-name="threequarters" unicode="&#xbe;" horiz-adv-x="678" 
d="M148 394c-62 0 -92 29 -103 41c-3 3 -3 8 1 11l21 20c5 3 9 3 13 -1c3 -2 32 -26 66 -26c31 0 60 18 60 45c0 25 -22 48 -73 48h-31c-5 0 -10 3 -10 9v25c0 6 4 9 10 9h31c45 0 65 20 65 44c0 27 -26 45 -54 45c-29 0 -46 -14 -56 -24c-3 -3 -8 -4 -13 0l-20 18
c-4 3 -4 9 0 12c0 0 38 40 93 40c58 0 105 -32 105 -83c0 -34 -29 -61 -52 -70v-2c24 -9 61 -36 61 -75c0 -49 -45 -86 -114 -86zM135 27l343 663c4 7 9 10 17 10h16c15 0 24 -14 17 -27l-345 -663c-2 -4 -8 -10 -17 -10h-14c-15 0 -24 14 -17 27zM362 68v29l172 196
c2 2 6 3 8 3h21c5 0 10 -4 10 -9v-185h41c5 0 9 -4 9 -8v-26c0 -4 -4 -8 -9 -8h-41v-51c0 -5 -5 -9 -10 -9h-32c-5 0 -10 4 -10 9v50h-150c-5 0 -9 4 -9 9zM417 103h106v118z" />
    <glyph glyph-name="threeeighths" unicode="&#x215c;" horiz-adv-x="681" 
d="M156 394c-62 0 -92 29 -103 41c-3 3 -3 8 1 11l21 20c5 3 9 3 13 -1c3 -2 32 -26 66 -26c31 0 60 18 60 45c0 25 -22 48 -73 48h-31c-5 0 -10 3 -10 9v25c0 6 4 9 10 9h31c45 0 65 20 65 44c0 27 -26 45 -54 45c-29 0 -46 -14 -56 -24c-3 -3 -8 -4 -13 0l-20 18
c-4 3 -4 9 0 12c0 0 38 40 93 40c58 0 105 -32 105 -83c0 -34 -29 -61 -52 -70v-2c24 -9 61 -36 61 -75c0 -49 -45 -86 -114 -86zM143 27l343 663c4 7 9 10 17 10h16c15 0 24 -14 17 -27l-345 -663c-2 -4 -8 -10 -17 -10h-14c-15 0 -24 14 -17 27zM418 74c0 39 41 71 57 78
v2c-20 9 -49 35 -49 70c0 50 44 82 102 82s103 -32 103 -82c0 -34 -30 -60 -50 -70v-2c22 -10 58 -39 58 -78c0 -49 -43 -84 -112 -84c-66 0 -109 35 -109 84zM479 221c0 -22 15 -39 49 -45c34 6 50 24 50 45c0 24 -22 42 -51 42c-27 0 -48 -18 -48 -42zM472 77
c0 -27 27 -44 56 -44c31 0 57 17 57 44c0 22 -20 44 -57 51c-36 -7 -56 -29 -56 -51z" />
    <glyph glyph-name="fiveeighths" unicode="&#x215d;" horiz-adv-x="681" 
d="M144 27l343 663c4 7 9 10 17 10h16c15 0 24 -14 17 -27l-345 -663c-2 -4 -8 -10 -17 -10h-14c-15 0 -24 14 -17 27zM155 394c-54 0 -85 24 -98 38c-6 7 -7 10 -1 15l21 20c4 3 8 4 12 0c3 -3 32 -27 68 -27c38 0 64 28 64 57c0 30 -22 54 -66 54h-77c-10 0 -15 8 -15 16
v124c0 5 4 9 9 9h156c5 0 9 -4 9 -9v-27c0 -4 -4 -8 -9 -8h-117v-60h48c73 0 115 -39 115 -98c0 -57 -50 -104 -119 -104zM419 74c0 39 41 71 57 78v2c-20 9 -49 35 -49 70c0 50 44 82 102 82s103 -32 103 -82c0 -34 -30 -60 -50 -70v-2c22 -10 58 -39 58 -78
c0 -49 -43 -84 -112 -84c-66 0 -109 35 -109 84zM480 221c0 -22 15 -39 49 -45c34 6 50 24 50 45c0 24 -22 42 -51 42c-27 0 -48 -18 -48 -42zM473 77c0 -27 27 -44 56 -44c31 0 57 17 57 44c0 22 -20 44 -57 51c-36 -7 -56 -29 -56 -51z" />
    <glyph glyph-name="seveneighths" unicode="&#x215e;" horiz-adv-x="681" 
d="M143 27l343 663c4 7 9 10 17 10h16c15 0 24 -14 17 -27l-345 -663c-2 -4 -8 -10 -17 -10h-14c-15 0 -24 14 -17 27zM109 404c-6 0 -9 1 -9 7v7l132 237h-143c-5 0 -9 4 -9 9v27c0 5 4 9 9 9h201c5 0 9 -4 9 -9v-11l-143 -267c-4 -7 -7 -9 -13 -9h-34zM418 74
c0 39 41 71 57 78v2c-20 9 -49 35 -49 70c0 50 44 82 102 82s103 -32 103 -82c0 -34 -30 -60 -50 -70v-2c22 -10 58 -39 58 -78c0 -49 -43 -84 -112 -84c-66 0 -109 35 -109 84zM479 221c0 -22 15 -39 49 -45c34 6 50 24 50 45c0 24 -22 42 -51 42c-27 0 -48 -18 -48 -42z
M472 77c0 -27 27 -44 56 -44c31 0 57 17 57 44c0 22 -20 44 -57 51c-36 -7 -56 -29 -56 -51z" />
    <glyph glyph-name="perthousand" unicode="&#x2030;" horiz-adv-x="986" 
d="M185 441c-75 0 -135 60 -135 135s60 135 135 135c74 0 135 -60 135 -135s-61 -135 -135 -135zM143 27l343 663c4 7 9 10 17 10h16c15 0 24 -14 17 -27l-345 -663c-2 -4 -8 -10 -17 -10h-14c-15 0 -24 14 -17 27zM185 498c41 0 76 34 76 78c0 41 -35 76 -76 76
c-44 0 -78 -35 -78 -76c0 -44 34 -78 78 -78zM676 124c0 75 60 135 135 135c74 0 135 -60 135 -135s-61 -135 -135 -135c-75 0 -135 60 -135 135zM366 124c0 75 60 135 135 135c74 0 135 -60 135 -135s-61 -135 -135 -135c-75 0 -135 60 -135 135zM733 124
c0 -44 34 -78 78 -78c41 0 76 34 76 78c0 41 -35 76 -76 76c-44 0 -78 -35 -78 -76zM423 124c0 -44 34 -78 78 -78c41 0 76 34 76 78c0 41 -35 76 -76 76c-44 0 -78 -35 -78 -76z" />
    <glyph glyph-name="minus" unicode="&#x2212;" horiz-adv-x="518" 
d="M69 314c-10 0 -19 9 -19 19v28c0 10 9 19 19 19h381c10 0 18 -9 18 -19v-28c0 -10 -8 -19 -18 -19h-381z" />
    <glyph glyph-name="plusminus" unicode="&#xb1;" horiz-adv-x="597" 
d="M266 267v117h-157c-10 0 -19 9 -19 19v28c0 10 9 19 19 19h157v148c0 10 9 18 19 18h28c10 0 19 -8 19 -18v-148h158c10 0 18 -9 18 -19v-28c0 -10 -8 -19 -18 -19h-158v-117c0 -10 -9 -18 -19 -18h-28c-10 0 -19 8 -19 18zM89 80v28c0 10 9 19 19 19h381
c10 0 18 -9 18 -19v-28c0 -10 -8 -19 -18 -19h-381c-10 0 -19 9 -19 19z" />
    <glyph glyph-name="multiply" unicode="&#xd7;" horiz-adv-x="481" 
d="M103 190l-20 20c-7 7 -7 19 0 26l111 111l-111 111c-7 7 -7 20 0 27l19 20c7 7 20 7 27 0l111 -111l112 112c7 7 19 6 26 -1l20 -20c7 -7 8 -19 1 -26l-112 -112l112 -111c7 -8 6 -20 -1 -27l-20 -19c-7 -7 -19 -8 -26 -1l-112 112l-111 -111c-7 -7 -19 -7 -26 0z" />
    <glyph glyph-name="divide" unicode="&#xf7;" horiz-adv-x="538" 
d="M266 472c-31 0 -57 26 -57 57c0 32 26 57 57 57c32 0 57 -25 57 -57c0 -31 -25 -57 -57 -57zM79 314c-10 0 -19 9 -19 19v28c0 10 9 19 19 19h381c10 0 18 -9 18 -19v-28c0 -10 -8 -19 -18 -19h-381zM209 171c0 32 26 57 57 57c32 0 57 -25 57 -57c0 -31 -25 -57 -57 -57
c-31 0 -57 26 -57 57z" />
    <glyph glyph-name="notequal" unicode="&#x2260;" horiz-adv-x="437" 
d="M122 57c-10 4 -15 15 -10 24l27 59h-70c-11 0 -19 9 -19 19v31c0 10 8 19 19 19h102l67 142h-169c-11 0 -19 9 -19 19v30c0 10 8 19 19 19h200l36 76c4 10 16 14 25 9l6 -3c10 -4 15 -15 9 -24l-27 -58h50c11 0 19 -9 19 -19v-30c0 -10 -8 -19 -19 -19h-82l-66 -142h148
c11 0 19 -9 19 -19v-31c0 -10 -8 -19 -19 -19h-180l-36 -77c-3 -10 -15 -13 -25 -9z" />
    <glyph glyph-name="approxequal" unicode="&#x2248;" horiz-adv-x="437" 
d="M57 326l-21 16c-7 5 -7 15 -2 22c0 0 39 82 110 82c40 0 69 -25 82 -36c11 -9 31 -25 53 -25c37 0 56 34 64 51c4 9 15 9 22 4l22 -16c7 -5 7 -15 2 -22c0 0 -39 -82 -110 -82c-36 0 -70 25 -82 35s-30 26 -53 26c-37 0 -57 -34 -65 -51c-4 -9 -15 -9 -22 -4zM58 122
l-22 16c-7 5 -7 15 -2 22c0 0 39 82 110 82c40 0 69 -25 82 -36c11 -9 31 -25 53 -25c37 0 56 34 64 51c4 9 15 9 22 4l22 -16c7 -5 7 -15 2 -22c0 0 -39 -82 -110 -82c-36 0 -70 25 -82 35s-30 26 -53 26c-37 0 -56 -34 -64 -51c-4 -9 -15 -9 -22 -4z" />
    <glyph glyph-name="lessequal" unicode="&#x2264;" horiz-adv-x="451" 
d="M29 382c-7 5 -10 9 -10 17v5c0 6 3 11 10 16l384 194c10 5 18 1 18 -12v-41c0 -5 -2 -11 -8 -15l-303 -144l303 -141c6 -4 8 -10 8 -15v-41c0 -13 -9 -17 -18 -12zM35 61c-10 0 -19 9 -19 19v28c0 10 9 19 19 19h381c10 0 18 -9 18 -19v-28c0 -10 -8 -19 -18 -19h-381z
" />
    <glyph glyph-name="greaterequal" unicode="&#x2265;" horiz-adv-x="451" 
d="M37 193c-9 -5 -18 -1 -18 12v41c0 5 2 11 8 15l303 141l-303 144c-6 4 -8 10 -8 15v41c0 13 8 17 18 12l384 -194c7 -5 10 -10 10 -16v-5c0 -8 -3 -12 -10 -17zM34 61c-10 0 -18 9 -18 19v28c0 10 8 19 18 19h381c10 0 19 -9 19 -19v-28c0 -10 -9 -19 -19 -19h-381z" />
    <glyph glyph-name="logicalnot" unicode="&#xac;" horiz-adv-x="520" 
d="M56 314c-10 0 -19 9 -19 19v28c0 10 9 19 19 19h380c11 0 19 -10 19 -19v-204c0 -10 -9 -18 -19 -18h-28c-10 0 -19 8 -19 18v157h-333z" />
    <glyph glyph-name="Delta" unicode="&#x2206;" horiz-adv-x="686" 
d="M48 0c-26 0 -29 17 -18 39l298 666c3 5 8 9 14 9h5c5 0 11 -3 14 -9l297 -668c7 -15 10 -37 -18 -37h-592zM123 71h439l-217 502h-2z" />
    <glyph glyph-name="uni0394" unicode="&#x394;" horiz-adv-x="686" 
d="M48 0c-26 0 -29 17 -18 39l298 666c3 5 8 9 14 9h5c5 0 11 -3 14 -9l297 -668c7 -15 10 -37 -18 -37h-592zM123 71h439l-217 502h-2z" />
    <glyph glyph-name="Omega" unicode="&#x2126;" horiz-adv-x="780" 
d="M49 15v41c0 8 7 15 15 15h111c-91 54 -146 163 -146 281c0 200 160 358 360 358s360 -158 360 -358c0 -118 -55 -227 -145 -281h111c8 0 15 -7 15 -15v-41c0 -8 -7 -15 -15 -15h-249c-8 0 -14 7 -14 15v29c0 14 6 17 17 22c122 38 210 154 210 283
c0 157 -133 290 -290 290s-289 -133 -289 -290c0 -129 88 -245 210 -283c10 -5 16 -8 16 -22v-29c0 -8 -5 -15 -14 -15h-248c-8 0 -15 7 -15 15z" />
    <glyph glyph-name="uni03A9" unicode="&#x3a9;" horiz-adv-x="780" 
d="M49 15v41c0 8 7 15 15 15h111c-91 54 -146 163 -146 281c0 200 160 358 360 358s360 -158 360 -358c0 -118 -55 -227 -145 -281h111c8 0 15 -7 15 -15v-41c0 -8 -7 -15 -15 -15h-249c-8 0 -14 7 -14 15v29c0 14 6 17 17 22c122 38 210 154 210 283
c0 157 -133 290 -290 290s-289 -133 -289 -290c0 -129 88 -245 210 -283c10 -5 16 -8 16 -22v-29c0 -8 -5 -15 -14 -15h-248c-8 0 -15 7 -15 15z" />
    <glyph glyph-name="mu" unicode="&#xb5;" horiz-adv-x="505" 
d="M142 10v-291c0 -10 -9 -19 -19 -19h-31c-10 0 -19 9 -19 19v662c0 10 9 19 19 19h32c10 0 19 -9 19 -19v-211c0 -76 34 -113 90 -113c76 0 119 57 119 57v267c0 10 9 19 19 19h31c10 0 19 -9 19 -19v-362c0 -10 -9 -19 -19 -19h-19c-11 0 -15 7 -18 17l-7 26
s-47 -53 -130 -53c-36 0 -64 7 -86 20z" />
    <glyph glyph-name="uni03BC" unicode="&#x3bc;" horiz-adv-x="505" 
d="M142 10v-291c0 -10 -9 -19 -19 -19h-31c-10 0 -19 9 -19 19v662c0 10 9 19 19 19h32c10 0 19 -9 19 -19v-211c0 -76 34 -113 90 -113c76 0 119 57 119 57v267c0 10 9 19 19 19h31c10 0 19 -9 19 -19v-362c0 -10 -9 -19 -19 -19h-19c-11 0 -15 7 -18 17l-7 26
s-47 -53 -130 -53c-36 0 -64 7 -86 20z" />
    <glyph glyph-name="pi" unicode="&#x3c0;" horiz-adv-x="631" 
d="M140 15v324h-107c-9 0 -15 8 -15 15v31c0 8 7 15 15 15h562c9 0 15 -6 15 -14v-33c0 -8 -5 -14 -15 -14h-108v-324c0 -9 -7 -15 -15 -15h-39c-8 0 -15 7 -15 15v324h-209v-324c0 -9 -8 -15 -16 -15h-38c-8 0 -15 7 -15 15z" />
    <glyph glyph-name="degree" unicode="&#xb0;" horiz-adv-x="334" 
d="M167 440c-75 0 -135 60 -135 135s60 135 135 135c74 0 135 -60 135 -135s-61 -135 -135 -135zM167 493c41 0 80 39 80 82c0 41 -39 80 -80 80c-43 0 -82 -39 -82 -80c0 -43 39 -82 82 -82z" />
    <glyph glyph-name="afii61289" unicode="&#x2113;" horiz-adv-x="505" 
d="M106 148c0 26 3 48 7 72c-19 -6 -40 -11 -52 -13c-10 -1 -14 1 -16 9l-4 22c-3 10 1 17 13 19c23 4 49 9 70 16c6 31 12 62 18 94c43 218 102 344 202 344c68 0 108 -52 108 -132c0 -176 -139 -286 -286 -341c-6 -26 -11 -56 -11 -88c0 -56 20 -110 87 -110
c84 0 139 34 157 45c11 7 16 5 20 -3l10 -16c5 -9 6 -11 -3 -20c-7 -6 -78 -56 -184 -56c-103 0 -136 76 -136 158zM176 289c121 52 227 148 227 290c0 50 -22 81 -59 81c-73 0 -117 -113 -154 -301z" />
    <glyph glyph-name="estimated" unicode="&#x212e;" horiz-adv-x="823" 
d="M144 158c53 -77 154 -122 253 -122c75 0 152 32 214 86c6 6 14 9 23 1l12 -14c7 -8 4 -14 -4 -22c-70 -66 -155 -98 -245 -98c-203 0 -363 157 -363 360s160 362 363 362c202 0 362 -159 364 -362c0 -17 -7 -24 -19 -24h-598v-167zM144 371h508v168
c-56 77 -149 124 -255 124c-105 0 -196 -45 -253 -122v-170z" />
    <glyph glyph-name="eng" unicode="&#x14b;" horiz-adv-x="496" 
d="M71 19v362c0 10 9 19 19 19h19c9 0 14 -4 16 -12l9 -31s57 53 140 53c116 0 155 -76 155 -180v-370c0 -116 -67 -170 -153 -170c-55 0 -92 24 -110 41c-7 6 -8 16 -4 23l16 26c6 10 16 9 26 1c13 -10 48 -29 73 -29c46 0 82 31 82 108v370c0 76 -34 113 -90 113
c-75 0 -129 -57 -129 -57v-267c0 -10 -9 -19 -19 -19h-31c-10 0 -19 9 -19 19z" />
    <glyph glyph-name="Eng" unicode="&#x14a;" horiz-adv-x="774" 
d="M102 19v673c0 10 9 18 19 18h25l451 -562h2v533c0 10 8 19 19 19h35c10 0 19 -9 19 -19v-821c0 -116 -67 -170 -153 -170c-55 0 -92 24 -110 41c-7 6 -8 16 -4 23l16 26c6 10 16 9 26 1c13 -10 48 -29 73 -29c46 0 80 31 80 108v171l-424 532h-1v-544
c0 -10 -8 -19 -19 -19h-35c-10 0 -19 9 -19 19z" />
    <glyph glyph-name="infinity" unicode="&#x221e;" horiz-adv-x="608" 
d="M189 157c-77 0 -139 63 -139 139c0 77 62 139 139 139c47 0 90 -28 114 -66c24 38 67 66 116 66c76 0 139 -62 139 -139c0 -76 -63 -139 -139 -139c-49 0 -92 29 -116 66c-24 -37 -67 -66 -114 -66zM334 296c0 -46 36 -83 83 -83c45 0 83 37 83 83s-38 83 -83 83
c-47 0 -83 -37 -83 -83zM190 213c45 0 83 37 83 83s-38 83 -83 83c-46 0 -83 -37 -83 -83s37 -83 83 -83z" />
    <glyph glyph-name="partialdiff" unicode="&#x2202;" horiz-adv-x="570" 
d="M58 219c0 133 102 217 215 217c86 0 152 -45 152 -45c-35 135 -212 234 -257 249c-19 6 -23 17 -18 29l11 24c4 9 12 14 22 10c101 -40 329 -162 329 -428c0 -159 -71 -285 -233 -285c-120 0 -221 103 -221 229zM129 215c0 -86 66 -159 150 -159c137 0 176 150 159 250
c0 0 -65 65 -158 65c-84 0 -151 -69 -151 -156z" />
    <glyph glyph-name="integral" unicode="&#x222b;" horiz-adv-x="393" 
d="M140 -140v680c0 116 67 170 153 170c55 0 92 -24 110 -41c7 -6 8 -16 4 -23l-16 -26c-6 -10 -16 -9 -26 -1c-13 10 -42 29 -73 29c-46 0 -83 -31 -83 -108v-680c0 -116 -67 -170 -153 -170c-55 0 -92 24 -110 41c-7 6 -8 16 -4 23l16 26c6 10 16 9 26 1
c13 -10 48 -29 73 -29c46 0 83 31 83 108z" />
    <glyph glyph-name="radical" unicode="&#x221a;" horiz-adv-x="668" 
d="M210 0l-169 383c-5 10 -1 17 10 17h51c7 0 12 -5 13 -8l111 -261h3l248 559c2 5 7 10 15 10h149c8 0 14 -7 14 -15v-35c0 -8 -6 -15 -14 -15h-111l-287 -635c-2 -6 -8 -10 -14 -10h-6c-6 0 -11 6 -13 10z" />
    <glyph glyph-name="summation" unicode="&#x2211;" horiz-adv-x="531" 
d="M49 15v20l310 322l-310 310v18c0 8 6 15 14 15h405c8 0 15 -7 15 -15v-42c0 -8 -7 -15 -15 -15h-289l240 -231c5 -5 15 -14 15 -26v-27c0 -10 -10 -19 -15 -25l-240 -248h289c8 0 15 -6 15 -14v-42c0 -8 -7 -15 -15 -15h-405c-8 0 -14 7 -14 15z" />
    <glyph glyph-name="product" unicode="&#x220f;" horiz-adv-x="658" 
d="M49 15v670c0 8 7 15 15 15h529c9 0 15 -7 15 -15v-670c0 -8 -6 -15 -15 -15h-48c-8 0 -15 7 -15 15v614h-403v-614c0 -8 -6 -15 -15 -15h-48c-8 0 -15 7 -15 15z" />
    <glyph glyph-name="lozenge" unicode="&#x25ca;" horiz-adv-x="686" 
d="M105 306c-19 26 -22 35 -20 55c1 16 5 24 22 47l221 297c3 5 8 9 14 9h5c5 0 11 -3 14 -9l220 -296c17 -24 23 -34 22 -56c-1 -18 -7 -27 -22 -50l-220 -295c-3 -6 -9 -8 -14 -8h-5c-6 0 -11 4 -14 8zM343 95h2l188 261l-188 263h-2l-188 -263z" />
    <glyph glyph-name="uniF8FF" unicode="&#xf8ff;" horiz-adv-x="599" 
d="M50 30v640c0 21 9 30 30 30h439c21 0 30 -9 30 -30v-640c0 -21 -9 -30 -30 -30h-439c-21 0 -30 9 -30 30zM262 314c0 -7 7 -12 14 -12h36c9 0 15 4 15 13v26c0 48 105 63 105 150c0 65 -54 111 -125 111c-87 0 -130 -61 -130 -61c-4 -6 -6 -13 0 -18l22 -22
c6 -4 11 -4 17 0c13 12 36 41 84 41c40 0 61 -25 61 -52c0 -63 -99 -72 -99 -147v-29zM245 156c0 -26 22 -48 48 -48c27 0 49 22 49 48s-22 48 -49 48c-26 0 -48 -22 -48 -48z" />
    <glyph glyph-name="zero.tf" horiz-adv-x="604" 
d="M302 -10c-155 0 -243 131 -243 350s88 350 243 350s243 -131 243 -350s-88 -350 -243 -350zM302 55c110 0 172 102 172 285c0 181 -62 285 -172 285s-172 -104 -172 -285c0 -183 62 -285 172 -285z" />
    <glyph glyph-name="one.tf" horiz-adv-x="604" 
d="M128 0c-11 0 -19 8 -19 18v22c0 11 8 19 19 19h154v497l-99 -77c-8 -6 -16 -7 -23 1l-19 21c-7 8 -3 17 2 22l167 157h27c10 0 18 -9 18 -19v-602h122c11 0 19 -8 19 -19v-22c0 -10 -8 -18 -19 -18h-349z" />
    <glyph glyph-name="two.tf" horiz-adv-x="604" 
d="M83 19v30c82 88 163 177 245 265c68 74 101 134 101 181c0 57 -37 127 -140 127c-62 0 -111 -42 -142 -75c-8 -8 -19 -8 -27 0l-20 19c-6 7 -8 18 -1 26c0 0 71 98 190 98c143 0 216 -91 216 -193c0 -88 -56 -153 -125 -227c-64 -68 -128 -137 -192 -205h294
c10 0 19 -9 19 -19v-27c0 -10 -9 -19 -19 -19h-380c-11 0 -19 9 -19 19z" />
    <glyph glyph-name="three.tf" horiz-adv-x="604" 
d="M82 79c-6 7 -7 18 1 24l27 23c11 8 19 6 27 -5c9 -11 63 -69 149 -69c76 0 144 46 144 125c0 68 -53 131 -177 131h-56c-11 0 -19 6 -19 22v24c0 16 5 22 21 22h55c107 0 159 55 159 121c0 79 -60 127 -131 127c-68 0 -109 -40 -131 -65c-6 -7 -16 -11 -26 -2l-24 19
c-8 7 -7 19 0 26c0 0 72 88 181 88c121 0 206 -71 206 -183c0 -77 -58 -137 -103 -158v-3c47 -20 120 -76 120 -162c0 -109 -84 -194 -222 -194c-123 0 -179 64 -201 89z" />
    <glyph glyph-name="four.tf" horiz-adv-x="604" 
d="M50 154c-11 0 -19 9 -19 19v37l379 475c3 3 6 6 15 6h20c10 0 19 -8 19 -19l1 -457h81c11 0 19 -8 19 -18v-22c0 -10 -8 -19 -19 -19h-81v-137c0 -10 -9 -19 -19 -19h-34c-10 0 -19 9 -19 19v135h-343zM115 216h282v348z" />
    <glyph glyph-name="five.tf" horiz-adv-x="604" 
d="M101 73c-13 15 -14 22 -2 34c8 7 15 15 23 22c9 8 17 10 25 -1c10 -14 58 -74 148 -74c96 0 157 85 157 164c0 78 -50 144 -157 144h-152c-20 0 -31 19 -31 35v264c0 10 8 19 19 19h302c11 0 19 -9 19 -19v-29c0 -10 -8 -19 -19 -19h-254v-184h116
c151 0 231 -79 231 -210c0 -125 -97 -229 -232 -229c-111 0 -168 53 -193 83z" />
    <glyph glyph-name="six.tf" horiz-adv-x="604" 
d="M79 275c0 266 228 388 329 428c10 4 18 -1 22 -10l11 -24c5 -12 1 -23 -18 -29c-45 -15 -222 -114 -257 -249c0 0 66 45 152 45c113 0 215 -84 215 -217c0 -126 -101 -229 -221 -229c-162 0 -233 126 -233 285zM312 56c84 0 150 73 150 159c0 87 -67 156 -151 156
c-93 0 -158 -65 -158 -65c-17 -100 22 -250 159 -250z" />
    <glyph glyph-name="seven.tf" horiz-adv-x="604" 
d="M154 19v11l279 583h-327c-10 0 -19 9 -19 19v29c0 10 9 19 19 19h402c10 0 19 -9 19 -19v-7l-292 -628c-4 -9 -14 -26 -33 -26h-29c-10 0 -19 9 -19 19z" />
    <glyph glyph-name="eight.tf" horiz-adv-x="604" 
d="M77 183c0 86 74 147 121 167v3c-45 21 -103 77 -103 154c0 110 87 183 206 183c121 0 208 -73 208 -183c0 -77 -58 -133 -103 -154v-3c47 -20 121 -81 121 -167c0 -109 -85 -193 -227 -193c-138 0 -223 84 -223 193zM302 385c92 9 133 57 133 119c0 75 -58 126 -137 126
c-72 0 -129 -51 -129 -126c0 -62 40 -110 133 -119zM152 176c0 -77 69 -126 148 -126c86 0 152 47 152 126c0 62 -55 125 -150 135c-96 -10 -150 -73 -150 -135z" />
    <glyph glyph-name="nine.tf" horiz-adv-x="604" 
d="M162 17c-5 12 -1 23 18 29c45 15 222 114 257 249c0 0 -66 -45 -152 -45c-113 0 -215 84 -215 217c0 126 101 229 221 229c162 0 233 -126 233 -285c0 -266 -228 -388 -329 -428c-10 -4 -18 1 -22 10zM292 315c93 0 158 65 158 65c17 100 -22 250 -159 250
c-84 0 -150 -73 -150 -159c0 -87 67 -156 151 -156z" />
    <glyph glyph-name="zerosuperior" unicode="&#x2070;" horiz-adv-x="348" 
d="M174 494c-79 0 -124 59 -124 157c0 99 45 158 124 158s124 -59 124 -158c0 -98 -45 -157 -124 -157zM174 542c44 0 69 39 69 109s-25 110 -69 110s-69 -40 -69 -110s25 -109 69 -109z" />
    <glyph glyph-name="foursuperior" unicode="&#x2074;" horiz-adv-x="361" 
d="M219 504c-5 0 -10 4 -10 9v50h-150c-5 0 -9 4 -9 9v29l172 196c2 2 6 3 8 3h21c5 0 10 -4 10 -9v-185h41c5 0 9 -4 9 -8v-26c0 -4 -4 -8 -9 -8h-41v-51c0 -5 -5 -9 -10 -9h-32zM105 607h106v118z" />
    <glyph glyph-name="fivesuperior" unicode="&#x2075;" horiz-adv-x="323" 
d="M155 494c-54 0 -85 24 -98 38c-6 7 -7 10 -1 15l21 20c4 3 8 4 12 0c3 -3 32 -27 68 -27c38 0 64 28 64 57c0 30 -22 54 -66 54h-77c-10 0 -15 8 -15 16v124c0 5 4 9 9 9h156c5 0 9 -4 9 -9v-27c0 -4 -4 -8 -9 -8h-117v-60h48c73 0 115 -39 115 -98
c0 -57 -50 -104 -119 -104z" />
    <glyph glyph-name="sixsuperior" unicode="&#x2076;" horiz-adv-x="324" 
d="M164 494c-76 0 -114 62 -114 134c0 121 123 175 161 187c5 2 10 -1 12 -6l10 -23c3 -6 0 -11 -9 -13c-23 -7 -99 -41 -116 -94c5 3 34 17 64 17c51 0 102 -33 102 -98c0 -57 -50 -104 -110 -104zM165 541c34 0 60 26 60 57s-28 56 -62 56c-33 0 -58 -22 -66 -34
c1 -33 23 -79 68 -79z" />
    <glyph glyph-name="sevensuperior" unicode="&#x2077;" horiz-adv-x="319" 
d="M79 504c-6 0 -9 1 -9 7v7l132 237h-143c-5 0 -9 4 -9 9v27c0 5 4 9 9 9h201c5 0 9 -4 9 -9v-11l-143 -267c-4 -7 -7 -9 -13 -9h-34z" />
    <glyph glyph-name="eightsuperior" unicode="&#x2078;" horiz-adv-x="321" 
d="M159 494c-66 0 -109 35 -109 84c0 39 41 71 57 78v2c-20 9 -49 35 -49 70c0 50 44 82 102 82s103 -32 103 -82c0 -34 -30 -60 -50 -70v-2c22 -10 58 -39 58 -78c0 -49 -43 -84 -112 -84zM160 680c34 6 50 24 50 45c0 24 -22 42 -51 42c-27 0 -48 -18 -48 -42
c0 -22 15 -39 49 -45zM160 537c31 0 57 17 57 44c0 22 -20 44 -57 51c-36 -7 -56 -29 -56 -51c0 -27 27 -44 56 -44z" />
    <glyph glyph-name="ninesuperior" unicode="&#x2079;" horiz-adv-x="324" 
d="M113 487c-5 -2 -10 1 -12 6l-10 23c-3 6 0 11 9 13c23 7 99 41 116 94c-5 -3 -34 -17 -64 -17c-51 0 -102 33 -102 98c0 57 50 104 110 104c76 0 114 -62 114 -134c0 -121 -123 -175 -161 -187zM161 648c33 0 58 22 66 34c-1 33 -23 79 -68 79c-34 0 -60 -26 -60 -57
s28 -56 62 -56z" />
    <glyph glyph-name="zeroinferior" unicode="&#x2080;" horiz-adv-x="348" 
d="M50 -3c0 99 45 158 124 158s124 -59 124 -158c0 -98 -45 -157 -124 -157s-124 59 -124 157zM105 -3c0 -70 25 -109 69 -109s69 39 69 109s-25 110 -69 110s-69 -40 -69 -110z" />
    <glyph glyph-name="oneinferior" unicode="&#x2081;" horiz-adv-x="211" 
d="M56 62l-5 17c-1 5 -1 7 3 11l70 56h28c6 0 9 -4 9 -9v-278c0 -5 -4 -9 -9 -9h-35c-6 0 -10 4 -10 9v210l-41 -11c-5 -1 -9 0 -10 4z" />
    <glyph glyph-name="twoinferior" unicode="&#x2082;" horiz-adv-x="313" 
d="M78 79l-20 21c-3 3 -4 8 0 11c0 0 38 45 97 45c72 0 108 -40 108 -89c0 -32 -20 -60 -49 -90l-81 -83h121c6 0 9 -4 9 -10v-25c0 -4 -1 -9 -9 -9h-194c-5 0 -10 2 -10 9v14l127 133c20 22 32 38 32 56c0 21 -16 47 -57 47c-22 0 -46 -14 -62 -30c-5 -5 -10 -2 -12 0z" />
    <glyph glyph-name="threeinferior" unicode="&#x2083;" horiz-adv-x="320" 
d="M100 12c0 6 4 9 10 9h31c45 0 65 20 65 44c0 27 -26 45 -54 45c-29 0 -46 -14 -56 -24c-3 -3 -8 -4 -13 0l-20 18c-4 3 -4 9 0 12c0 0 38 40 93 40c58 0 105 -32 105 -83c0 -34 -29 -61 -52 -70v-2c24 -9 61 -36 61 -75c0 -49 -45 -86 -114 -86c-62 0 -92 29 -103 41
c-3 3 -3 8 1 11l21 20c5 3 9 3 13 -1c3 -2 32 -26 66 -26c31 0 60 18 60 45c0 25 -22 48 -73 48h-31c-5 0 -10 3 -10 9v25z" />
    <glyph glyph-name="fourinferior" unicode="&#x2084;" horiz-adv-x="361" 
d="M50 -53l172 196c2 2 6 3 8 3h21c5 0 10 -4 10 -9v-185h41c5 0 9 -4 9 -8v-26c0 -4 -4 -8 -9 -8h-41v-51c0 -5 -5 -9 -10 -9h-32c-5 0 -10 4 -10 9v50h-150c-5 0 -9 4 -9 9v29zM105 -47h106v118z" />
    <glyph glyph-name="fiveinferior" unicode="&#x2085;" horiz-adv-x="323" 
d="M63 13v124c0 5 4 9 9 9h156c5 0 9 -4 9 -9v-27c0 -4 -4 -8 -9 -8h-117v-60h48c73 0 115 -39 115 -98c0 -57 -50 -104 -119 -104c-54 0 -85 24 -98 38c-6 7 -7 10 -1 15l21 20c4 3 8 4 12 0c3 -3 32 -27 68 -27c38 0 64 28 64 57c0 30 -22 54 -66 54h-77
c-10 0 -15 8 -15 16z" />
    <glyph glyph-name="sixinferior" unicode="&#x2086;" horiz-adv-x="324" 
d="M50 -26c0 121 123 175 161 187c5 2 10 -1 12 -6l10 -23c3 -6 0 -11 -9 -13c-23 -7 -99 -41 -116 -94c5 3 34 17 64 17c51 0 102 -33 102 -98c0 -57 -50 -104 -110 -104c-76 0 -114 62 -114 134zM97 -34c1 -33 23 -79 68 -79c34 0 60 26 60 57s-28 56 -62 56
c-33 0 -58 -22 -66 -34z" />
    <glyph glyph-name="seveninferior" unicode="&#x2087;" horiz-adv-x="319" 
d="M59 101c-5 0 -9 4 -9 9v27c0 5 4 9 9 9h201c5 0 9 -4 9 -9v-11l-143 -267c-4 -7 -7 -9 -13 -9h-34c-6 0 -9 1 -9 7v7l132 237h-143z" />
    <glyph glyph-name="eightinferior" unicode="&#x2088;" horiz-adv-x="321" 
d="M50 -76c0 39 41 71 57 78v2c-20 9 -49 35 -49 70c0 50 44 82 102 82s103 -32 103 -82c0 -34 -30 -60 -50 -70v-2c22 -10 58 -39 58 -78c0 -49 -43 -84 -112 -84c-66 0 -109 35 -109 84zM111 71c0 -22 15 -39 49 -45c34 6 50 24 50 45c0 24 -22 42 -51 42
c-27 0 -48 -18 -48 -42zM104 -73c0 -27 27 -44 56 -44c31 0 57 17 57 44c0 22 -20 44 -57 51c-36 -7 -56 -29 -56 -51z" />
    <glyph glyph-name="nineinferior" unicode="&#x2089;" horiz-adv-x="324" 
d="M50 50c0 57 50 104 110 104c76 0 114 -62 114 -134c0 -121 -123 -175 -161 -187c-5 -2 -10 1 -12 6l-10 23c-3 6 0 11 9 13c23 7 99 41 116 94c-5 -3 -34 -17 -64 -17c-51 0 -102 33 -102 98zM99 50c0 -31 28 -56 62 -56c33 0 58 22 66 34c-1 33 -23 79 -68 79
c-34 0 -60 -26 -60 -57z" />
    <glyph glyph-name="zero.denom" horiz-adv-x="348" 
d="M50 147c0 99 45 158 124 158s124 -59 124 -158c0 -98 -45 -157 -124 -157s-124 59 -124 157zM174 38c44 0 69 39 69 109s-25 110 -69 110s-69 -40 -69 -110s25 -109 69 -109z" />
    <glyph glyph-name="one.denom" horiz-adv-x="211" 
d="M107 9v210l-41 -11c-5 -1 -9 0 -10 4l-5 17c-1 5 -1 7 3 11l70 56h28c6 0 9 -4 9 -9v-278c0 -5 -4 -9 -9 -9h-35c-6 0 -10 4 -10 9z" />
    <glyph glyph-name="two.denom" horiz-adv-x="313" 
d="M50 9v14l127 133c20 22 32 38 32 56c0 21 -16 47 -57 47c-22 0 -46 -14 -62 -30c-5 -5 -10 -2 -12 0l-20 21c-3 3 -4 8 0 11c0 0 38 45 97 45c72 0 108 -40 108 -89c0 -32 -20 -60 -49 -90l-81 -83h121c6 0 9 -4 9 -10v-25c0 -4 -1 -9 -9 -9h-194c-5 0 -10 2 -10 9z" />
    <glyph glyph-name="three.denom" horiz-adv-x="320" 
d="M53 31c-3 3 -3 8 1 11l21 20c5 3 9 3 13 -1c3 -2 32 -26 66 -26c31 0 60 18 60 45c0 25 -22 48 -73 48h-31c-5 0 -10 3 -10 9v25c0 6 4 9 10 9h31c45 0 65 20 65 44c0 27 -26 45 -54 45c-29 0 -46 -14 -56 -24c-3 -3 -8 -4 -13 0l-20 18c-4 3 -4 9 0 12c0 0 38 40 93 40
c58 0 105 -32 105 -83c0 -34 -29 -61 -52 -70v-2c24 -9 61 -36 61 -75c0 -49 -45 -86 -114 -86c-62 0 -92 29 -103 41z" />
    <glyph glyph-name="four.denom" horiz-adv-x="361" 
d="M59 59c-5 0 -9 4 -9 9v29l172 196c2 2 6 3 8 3h21c5 0 10 -4 10 -9v-185h41c5 0 9 -4 9 -8v-26c0 -4 -4 -8 -9 -8h-41v-51c0 -5 -5 -9 -10 -9h-32c-5 0 -10 4 -10 9v50h-150zM105 103h106v118z" />
    <glyph glyph-name="five.denom" horiz-adv-x="323" 
d="M57 28c-6 7 -7 10 -1 15l21 20c4 3 8 4 12 0c3 -3 32 -27 68 -27c38 0 64 28 64 57c0 30 -22 54 -66 54h-77c-10 0 -15 8 -15 16v124c0 5 4 9 9 9h156c5 0 9 -4 9 -9v-27c0 -4 -4 -8 -9 -8h-117v-60h48c73 0 115 -39 115 -98c0 -57 -50 -104 -119 -104
c-54 0 -85 24 -98 38z" />
    <glyph glyph-name="six.denom" horiz-adv-x="324" 
d="M50 124c0 121 123 175 161 187c5 2 10 -1 12 -6l10 -23c3 -6 0 -11 -9 -13c-23 -7 -99 -41 -116 -94c5 3 34 17 64 17c51 0 102 -33 102 -98c0 -57 -50 -104 -110 -104c-76 0 -114 62 -114 134zM97 116c1 -33 23 -79 68 -79c34 0 60 26 60 57s-28 56 -62 56
c-33 0 -58 -22 -66 -34z" />
    <glyph glyph-name="seven.denom" horiz-adv-x="319" 
d="M70 7v7l132 237h-143c-5 0 -9 4 -9 9v27c0 5 4 9 9 9h201c5 0 9 -4 9 -9v-11l-143 -267c-4 -7 -7 -9 -13 -9h-34c-6 0 -9 1 -9 7z" />
    <glyph glyph-name="eight.denom" horiz-adv-x="321" 
d="M50 74c0 39 41 71 57 78v2c-20 9 -49 35 -49 70c0 50 44 82 102 82s103 -32 103 -82c0 -34 -30 -60 -50 -70v-2c22 -10 58 -39 58 -78c0 -49 -43 -84 -112 -84c-66 0 -109 35 -109 84zM160 176c34 6 50 24 50 45c0 24 -22 42 -51 42c-27 0 -48 -18 -48 -42
c0 -22 15 -39 49 -45zM104 77c0 -27 27 -44 56 -44c31 0 57 17 57 44c0 22 -20 44 -57 51c-36 -7 -56 -29 -56 -51z" />
    <glyph glyph-name="nine.denom" horiz-adv-x="324" 
d="M91 12c-3 6 0 11 9 13c23 7 99 41 116 94c-5 -3 -34 -17 -64 -17c-51 0 -102 33 -102 98c0 57 50 104 110 104c76 0 114 -62 114 -134c0 -121 -123 -175 -161 -187c-5 -2 -10 1 -12 6zM161 144c33 0 58 22 66 34c-1 33 -23 79 -68 79c-34 0 -60 -26 -60 -57
s28 -56 62 -56z" />
    <glyph glyph-name="zero.num" horiz-adv-x="348" 
d="M174 394c-79 0 -124 59 -124 157c0 99 45 158 124 158s124 -59 124 -158c0 -98 -45 -157 -124 -157zM174 442c44 0 69 39 69 109s-25 110 -69 110s-69 -40 -69 -110s25 -109 69 -109z" />
    <glyph glyph-name="one.num" horiz-adv-x="211" 
d="M117 404c-6 0 -10 4 -10 9v210l-41 -11c-5 -1 -9 0 -10 4l-5 17c-1 5 -1 7 3 11l70 56h28c6 0 9 -4 9 -9v-278c0 -5 -4 -9 -9 -9h-35z" />
    <glyph glyph-name="two.num" horiz-adv-x="313" 
d="M60 404c-5 0 -10 2 -10 9v14l127 133c20 22 32 38 32 56c0 21 -16 47 -57 47c-22 0 -46 -14 -62 -30c-5 -5 -10 -2 -12 0l-20 21c-3 3 -4 8 0 11c0 0 38 45 97 45c72 0 108 -40 108 -89c0 -32 -20 -60 -49 -90l-81 -83h121c6 0 9 -4 9 -10v-25c0 -4 -1 -9 -9 -9h-194z
" />
    <glyph glyph-name="three.num" horiz-adv-x="320" 
d="M156 394c-62 0 -92 29 -103 41c-3 3 -3 8 1 11l21 20c5 3 9 3 13 -1c3 -2 32 -26 66 -26c31 0 60 18 60 45c0 25 -22 48 -73 48h-31c-5 0 -10 3 -10 9v25c0 6 4 9 10 9h31c45 0 65 20 65 44c0 27 -26 45 -54 45c-29 0 -46 -14 -56 -24c-3 -3 -8 -4 -13 0l-20 18
c-4 3 -4 9 0 12c0 0 38 40 93 40c58 0 105 -32 105 -83c0 -34 -29 -61 -52 -70v-2c24 -9 61 -36 61 -75c0 -49 -45 -86 -114 -86z" />
    <glyph glyph-name="four.num" horiz-adv-x="361" 
d="M219 404c-5 0 -10 4 -10 9v50h-150c-5 0 -9 4 -9 9v29l172 196c2 2 6 3 8 3h21c5 0 10 -4 10 -9v-185h41c5 0 9 -4 9 -8v-26c0 -4 -4 -8 -9 -8h-41v-51c0 -5 -5 -9 -10 -9h-32zM105 507h106v118z" />
    <glyph glyph-name="five.num" horiz-adv-x="323" 
d="M155 394c-54 0 -85 24 -98 38c-6 7 -7 10 -1 15l21 20c4 3 8 4 12 0c3 -3 32 -27 68 -27c38 0 64 28 64 57c0 30 -22 54 -66 54h-77c-10 0 -15 8 -15 16v124c0 5 4 9 9 9h156c5 0 9 -4 9 -9v-27c0 -4 -4 -8 -9 -8h-117v-60h48c73 0 115 -39 115 -98
c0 -57 -50 -104 -119 -104z" />
    <glyph glyph-name="six.num" horiz-adv-x="324" 
d="M164 394c-76 0 -114 62 -114 134c0 121 123 175 161 187c5 2 10 -1 12 -6l10 -23c3 -6 0 -11 -9 -13c-23 -7 -99 -41 -116 -94c5 3 34 17 64 17c51 0 102 -33 102 -98c0 -57 -50 -104 -110 -104zM165 441c34 0 60 26 60 57s-28 56 -62 56c-33 0 -58 -22 -66 -34
c1 -33 23 -79 68 -79z" />
    <glyph glyph-name="seven.num" horiz-adv-x="319" 
d="M79 404c-6 0 -9 1 -9 7v7l132 237h-143c-5 0 -9 4 -9 9v27c0 5 4 9 9 9h201c5 0 9 -4 9 -9v-11l-143 -267c-4 -7 -7 -9 -13 -9h-34z" />
    <glyph glyph-name="eight.num" horiz-adv-x="321" 
d="M159 394c-66 0 -109 35 -109 84c0 39 41 71 57 78v2c-20 9 -49 35 -49 70c0 50 44 82 102 82s103 -32 103 -82c0 -34 -30 -60 -50 -70v-2c22 -10 58 -39 58 -78c0 -49 -43 -84 -112 -84zM160 580c34 6 50 24 50 45c0 24 -22 42 -51 42c-27 0 -48 -18 -48 -42
c0 -22 15 -39 49 -45zM160 437c31 0 57 17 57 44c0 22 -20 44 -57 51c-36 -7 -56 -29 -56 -51c0 -27 27 -44 56 -44z" />
    <glyph glyph-name="nine.num" horiz-adv-x="324" 
d="M113 387c-5 -2 -10 1 -12 6l-10 23c-3 6 0 11 9 13c23 7 99 41 116 94c-5 -3 -34 -17 -64 -17c-51 0 -102 33 -102 98c0 57 50 104 110 104c76 0 114 -62 114 -134c0 -121 -123 -175 -161 -187zM161 548c33 0 58 22 66 34c-1 33 -23 79 -68 79c-34 0 -60 -26 -60 -57
s28 -56 62 -56z" />
    <glyph glyph-name="a.alt" 
d="M410 381v-362c0 -10 -9 -19 -19 -19h-21c-9 0 -15 7 -17 16l-6 27s-48 -53 -123 -53c-102 0 -182 95 -182 210s80 210 189 210c72 0 116 -42 116 -42l7 18c3 8 8 14 19 14h18c10 0 19 -9 19 -19zM340 119v179s-37 49 -102 49c-80 0 -126 -69 -126 -147s46 -147 119 -147
c72 0 109 66 109 66z" />
    <glyph glyph-name="agrave.alt" 
d="M410 381v-362c0 -10 -9 -19 -19 -19h-21c-9 0 -15 7 -17 16l-6 27s-48 -53 -123 -53c-102 0 -182 95 -182 210s80 210 189 210c72 0 116 -42 116 -42l7 18c3 8 8 14 19 14h18c10 0 19 -9 19 -19zM340 119v179s-37 49 -102 49c-80 0 -126 -69 -126 -147s46 -147 119 -147
c72 0 109 66 109 66zM329 559l-161 67c-8 3 -10 13 -6 21l18 36c5 9 20 7 26 3l150 -84c6 -3 10 -11 6 -19l-10 -22c-4 -8 -9 -8 -23 -2z" />
    <glyph glyph-name="aacute.alt" 
d="M410 381v-362c0 -10 -9 -19 -19 -19h-21c-9 0 -15 7 -17 16l-6 27s-48 -53 -123 -53c-102 0 -182 95 -182 210s80 210 189 210c72 0 116 -42 116 -42l7 18c3 8 8 14 19 14h18c10 0 19 -9 19 -19zM340 119v179s-37 49 -102 49c-80 0 -126 -69 -126 -147s46 -147 119 -147
c72 0 109 66 109 66zM164 561l-10 22c-4 8 0 16 6 19l150 84c6 4 21 6 26 -3l18 -36c4 -8 2 -18 -6 -21l-161 -67c-14 -6 -19 -6 -23 2z" />
    <glyph glyph-name="acircumflex.alt" 
d="M410 381v-362c0 -10 -9 -19 -19 -19h-21c-9 0 -15 7 -17 16l-6 27s-48 -53 -123 -53c-102 0 -182 95 -182 210s80 210 189 210c72 0 116 -42 116 -42l7 18c3 8 8 14 19 14h18c10 0 19 -9 19 -19zM340 119v179s-37 49 -102 49c-80 0 -126 -69 -126 -147s46 -147 119 -147
c72 0 109 66 109 66zM117 555l-14 18c-5 7 0 15 6 19l120 94c4 3 9 4 13 4c6 0 9 -1 13 -4l120 -94c6 -4 11 -12 6 -19c-9 -12 -17 -36 -37 -22l-102 70l-102 -68c-12 -8 -18 -5 -23 2z" />
    <glyph glyph-name="atilde.alt" 
d="M410 381v-362c0 -10 -9 -19 -19 -19h-21c-9 0 -15 7 -17 16l-6 27s-48 -53 -123 -53c-102 0 -182 95 -182 210s80 210 189 210c72 0 116 -42 116 -42l7 18c3 8 8 14 19 14h18c10 0 19 -9 19 -19zM340 119v179s-37 49 -102 49c-80 0 -126 -69 -126 -147s46 -147 119 -147
c72 0 109 66 109 66zM120 575l-18 9c-8 4 -7 15 -4 22c9 18 26 84 92 84c60 0 79 -74 110 -74c28 0 40 34 45 51c3 10 12 13 23 8l16 -8c12 -6 6 -19 4 -26c-10 -29 -34 -81 -89 -81s-82 75 -110 75c-27 0 -37 -29 -44 -50c-3 -10 -12 -17 -25 -10z" />
    <glyph glyph-name="adieresis.alt" 
d="M410 381v-362c0 -10 -9 -19 -19 -19h-21c-9 0 -15 7 -17 16l-6 27s-48 -53 -123 -53c-102 0 -182 95 -182 210s80 210 189 210c72 0 116 -42 116 -42l7 18c3 8 8 14 19 14h18c10 0 19 -9 19 -19zM340 119v179s-37 49 -102 49c-80 0 -126 -69 -126 -147s46 -147 119 -147
c72 0 109 66 109 66zM345 585c-26 0 -47 21 -47 47c0 27 21 48 47 48c27 0 48 -21 48 -48c0 -26 -21 -47 -48 -47zM152 585c-26 0 -47 21 -47 47c0 27 21 48 47 48c27 0 48 -21 48 -48c0 -26 -21 -47 -48 -47z" />
    <glyph glyph-name="amacron.alt" 
d="M410 381v-362c0 -10 -9 -19 -19 -19h-21c-9 0 -15 7 -17 16l-6 27s-48 -53 -123 -53c-102 0 -182 95 -182 210s80 210 189 210c72 0 116 -42 116 -42l7 18c3 8 8 14 19 14h18c10 0 19 -9 19 -19zM340 119v179s-37 49 -102 49c-80 0 -126 -69 -126 -147s46 -147 119 -147
c72 0 109 66 109 66zM113 583c-11 0 -19 8 -19 18v21c0 11 8 19 19 19h256c11 0 19 -8 19 -19v-21c0 -10 -8 -18 -19 -18h-256z" />
    <glyph glyph-name="abreve.alt" 
d="M410 381v-362c0 -10 -9 -19 -19 -19h-21c-9 0 -15 7 -17 16l-6 27s-48 -53 -123 -53c-102 0 -182 95 -182 210s80 210 189 210c72 0 116 -42 116 -42l7 18c3 8 8 14 19 14h18c10 0 19 -9 19 -19zM340 119v179s-37 49 -102 49c-80 0 -126 -69 -126 -147s46 -147 119 -147
c72 0 109 66 109 66zM246 531c-70 0 -126 49 -135 114c-2 11 2 20 14 20h21c11 0 16 -8 19 -17c11 -38 41 -64 81 -64c37 0 68 29 79 64c4 11 10 17 19 17h23c11 0 16 -9 14 -20c-11 -65 -66 -114 -135 -114z" />
    <glyph glyph-name="aring.alt" 
d="M410 381v-362c0 -10 -9 -19 -19 -19h-21c-9 0 -15 7 -17 16l-6 27s-48 -53 -123 -53c-102 0 -182 95 -182 210s80 210 189 210c72 0 116 -42 116 -42l7 18c3 8 8 14 19 14h18c10 0 19 -9 19 -19zM340 119v179s-37 49 -102 49c-80 0 -126 -69 -126 -147s46 -147 119 -147
c72 0 109 66 109 66zM240 492c-61 0 -109 48 -109 109s48 109 109 109c60 0 109 -48 109 -109s-49 -109 -109 -109zM240 540c32 0 59 29 59 61s-27 59 -59 59s-61 -27 -61 -59s29 -61 61 -61z" />
    <glyph glyph-name="aringacute.alt" 
d="M410 381v-362c0 -10 -9 -19 -19 -19h-21c-9 0 -15 7 -17 16l-6 27s-48 -53 -123 -53c-102 0 -182 95 -182 210s80 210 189 210c72 0 116 -42 116 -42l7 18c3 8 8 14 19 14h18c10 0 19 -9 19 -19zM340 119v179s-37 49 -102 49c-80 0 -126 -69 -126 -147s46 -147 119 -147
c72 0 109 66 109 66zM243 436c-61 0 -109 48 -109 109s48 109 109 109c60 0 109 -48 109 -109s-49 -109 -109 -109zM243 484c32 0 59 29 59 61s-27 59 -59 59s-61 -27 -61 -59s29 -61 61 -61zM149 665l-10 22c-4 8 0 16 6 19l150 84c6 4 21 6 26 -3l18 -36
c4 -8 2 -18 -6 -21l-161 -67c-14 -6 -19 -6 -23 2z" />
    <glyph glyph-name="aogonek.alt" 
d="M410 381v-362c0 -9 -8 -18 -17 -19c-17 -16 -47 -51 -47 -99c0 -33 27 -57 57 -57c25 0 42 9 55 16c8 4 18 -1 18 -14v-25c0 -9 -7 -13 -14 -17c-10 -5 -37 -15 -70 -15c-56 0 -106 32 -106 102c0 74 64 117 68 120l-7 32s-48 -53 -123 -53c-102 0 -182 95 -182 210
s80 210 189 210c72 0 116 -42 116 -42l7 18c3 8 8 14 19 14h18c10 0 19 -9 19 -19zM340 119v179s-37 49 -102 49c-80 0 -126 -69 -126 -147s46 -147 119 -147c72 0 109 66 109 66z" />
    <glyph glyph-name="parenleft.case" horiz-adv-x="344" 
d="M294 -48c-114 6 -236 99 -236 393s122 387 236 393c11 1 17 -2 18 -10l2 -27c2 -9 -3 -16 -10 -17c-126 -25 -176 -143 -176 -339s50 -314 176 -339c7 -1 12 -8 10 -17l-2 -27c-1 -8 -7 -11 -18 -10z" />
    <glyph glyph-name="parenright.case" horiz-adv-x="344" 
d="M40 6c126 25 176 143 176 339s-50 314 -176 339c-7 1 -12 8 -10 17l2 27c1 8 7 11 18 10c114 -6 236 -99 236 -393s-122 -387 -236 -393c-11 -1 -17 2 -18 10l-2 27c-2 9 3 16 10 17z" />
    <glyph glyph-name="hyphen.case" horiz-adv-x="413" 
d="M102 310c-11 0 -19 8 -19 18v19c0 11 8 19 19 19h209c11 0 19 -8 19 -19v-19c0 -10 -8 -18 -19 -18h-209z" />
    <glyph glyph-name="bracketleft.case" horiz-adv-x="327" 
d="M146 -117h137c10 0 19 -8 19 -18v-26c0 -10 -9 -19 -19 -19h-186c-10 0 -19 9 -19 19v962c0 10 9 19 19 19h186c10 0 19 -9 19 -19v-25c0 -11 -9 -19 -19 -19h-137v-874z" />
    <glyph glyph-name="bracketright.case" horiz-adv-x="327" 
d="M44 -117h137v874h-137c-10 0 -19 8 -19 19v25c0 10 9 19 19 19h186c10 0 19 -9 19 -19v-962c0 -10 -9 -19 -19 -19h-186c-10 0 -19 9 -19 19v26c0 10 9 18 19 18z" />
    <glyph glyph-name="braceleft.case" horiz-adv-x="399" 
d="M109 49v161c0 45 -45 74 -69 78c-8 1 -15 9 -15 17v31c0 8 7 14 15 15c24 4 69 33 69 78v161c0 182 142 240 245 240c10 0 20 -5 20 -17v-19c0 -9 -5 -17 -13 -18c-95 -14 -183 -78 -183 -186v-133c0 -100 -50 -122 -79 -134v-7c29 -12 79 -34 79 -134v-133
c0 -108 88 -171 183 -185c8 -1 13 -6 13 -17v-20c0 -10 -10 -17 -20 -17c-103 0 -245 57 -245 239z" />
    <glyph glyph-name="bar.case" horiz-adv-x="198" 
d="M77 -162v1023c0 11 9 19 19 19h7c10 0 18 -8 18 -19v-1023c0 -10 -9 -18 -19 -18h-6c-10 0 -19 8 -19 18z" />
    <glyph glyph-name="braceright.case" horiz-adv-x="399" 
d="M221 182c0 100 50 122 79 134v7c-29 12 -79 34 -79 134v133c0 108 -88 172 -183 186c-8 1 -13 9 -13 18v19c0 12 10 17 20 17c103 0 245 -58 245 -240v-161c0 -45 45 -74 69 -78c8 -1 15 -7 15 -15v-31c0 -8 -7 -16 -15 -17c-24 -4 -69 -33 -69 -78v-161
c0 -182 -142 -239 -245 -239c-10 0 -20 7 -20 17v20c0 11 5 16 13 17c95 14 183 77 183 185v133z" />
    <glyph glyph-name="guilsinglleft.case" horiz-adv-x="252" 
d="M145 159l-104 155c-6 8 -4 18 0 24l109 148c5 7 10 12 18 12h14c17 0 23 -15 15 -31l-74 -139l71 -147c7 -16 2 -30 -15 -30h-19c-7 0 -12 4 -15 8z" />
    <glyph glyph-name="guilsinglright.case" horiz-adv-x="252" 
d="M72 151c-17 0 -22 14 -15 30l71 147l-74 139c-8 16 -2 31 15 31h14c8 0 14 -6 18 -12l109 -148c4 -6 6 -16 0 -24l-104 -155c-3 -4 -8 -8 -15 -8h-19z" />
    <glyph glyph-name="guillemotleft.case" horiz-adv-x="415" 
d="M204 314c-6 8 -4 18 0 24l109 148c3 5 10 12 18 12h14c17 0 23 -15 15 -31l-74 -139l71 -147c8 -16 2 -30 -15 -30h-19c-7 0 -12 4 -15 8zM145 159l-104 155c-6 8 -4 18 0 24l109 148c3 5 10 12 18 12h14c17 0 23 -15 15 -31l-74 -139l71 -147c8 -16 2 -30 -15 -30h-19
c-7 0 -12 4 -15 8z" />
    <glyph glyph-name="guillemotright.case" horiz-adv-x="415" 
d="M220 181l71 147l-74 139c-8 16 -2 31 15 31h14c8 0 15 -7 18 -12l109 -148c4 -6 6 -16 0 -24l-104 -155c-3 -4 -8 -8 -15 -8h-19c-17 0 -23 14 -15 30zM72 151c-17 0 -23 14 -15 30l71 147l-74 139c-8 16 -2 31 15 31h14c8 0 15 -7 18 -12l109 -148c4 -6 6 -16 0 -24
l-104 -155c-3 -4 -8 -8 -15 -8h-19z" />
    <glyph glyph-name="endash.case" horiz-adv-x="577" 
d="M104 313c-11 0 -19 8 -19 18v11c0 11 8 19 19 19h369c11 0 19 -8 19 -19v-11c0 -10 -8 -18 -19 -18h-369z" />
    <glyph glyph-name="emdash.case" horiz-adv-x="797" 
d="M104 313c-11 0 -19 8 -19 18v11c0 11 8 19 19 19h589c11 0 19 -8 19 -19v-11c0 -10 -8 -18 -19 -18h-589z" />
    <glyph glyph-name="bullet.case" horiz-adv-x="354" 
d="M175 209c-57 0 -105 48 -105 105c0 60 48 109 105 109c60 0 109 -49 109 -109c0 -57 -49 -105 -109 -105z" />
    <glyph glyph-name="periodcentered.case" horiz-adv-x="229" 
d="M114 294c-31 0 -57 26 -57 57c0 32 26 57 57 57c32 0 57 -25 57 -57c0 -31 -25 -57 -57 -57z" />
    <glyph glyph-name="brokenbar" unicode="&#xa6;" horiz-adv-x="364" 
d="M179 393c-10 0 -19 8 -19 18v330c0 11 9 19 19 19h7c10 0 18 -8 18 -19v-330c0 -10 -9 -18 -19 -18h-6zM160 49c0 11 9 19 19 19h7c10 0 18 -8 18 -19v-331c0 -10 -9 -18 -19 -18h-6c-10 0 -19 8 -19 18v331z" />
    <hkern g1="y,yacute,ycircumflex</font>
</defs>
</svg>
