<?xml version="1.0" standalone="no"?>
<!DOCTYPE svg PUBLIC "-//W3C//DTD SVG 1.1//EN" "http://www.w3.org/Graphics/SVG/1.1/DTD/svg11.dtd" >
<svg>
<metadata>
Created by FontForge 20090622 at Fri Feb  1 05:12:36 2019
 By deploy user
Copyright &#194;&#169; 2013 by Mattox Shuler. All rights reserved.
</metadata>
<defs>
<font id="Abolition-Round" horiz-adv-x="340" >
  <font-face 
    font-family="Abolition Round"
    font-weight="400"
    font-stretch="normal"
    units-per-em="1000"
    panose-1="0 0 5 0 0 0 0 0 0 0"
    ascent="800"
    descent="-200"
    x-height="760"
    cap-height="760"
    bbox="-47 -167 688 960"
    underline-thickness="50"
    underline-position="-50"
    unicode-range="U+0020-U+2260"
  />
<missing-glyph horiz-adv-x="500" 
d="M0 0v700h500v-700h-500zM250 395l170 255h-340zM280 350l170 -255v510zM80 50h340l-170 255zM50 605v-510l170 255z" />
    <glyph glyph-name=".notdef" horiz-adv-x="500" 
d="M0 0v700h500v-700h-500zM250 395l170 255h-340zM280 350l170 -255v510zM80 50h340l-170 255zM50 605v-510l170 255z" />
    <glyph glyph-name=".null" horiz-adv-x="0" 
 />
    <glyph glyph-name="nonmarkingreturn" horiz-adv-x="333" 
 />
    <glyph glyph-name="space" unicode=" " horiz-adv-x="160" 
 />
    <glyph glyph-name="exclam" unicode="!" horiz-adv-x="182" 
d="M124 183h-66l-20 577h106zM141 0h-100v110h100v-110z" />
    <glyph glyph-name="quotedbl" unicode="&#x22;" horiz-adv-x="283" 
d="M94 532h-40l-30 228h100zM229 532h-40l-30 228h100z" />
    <glyph glyph-name="numbersign" unicode="#" horiz-adv-x="548" 
d="M423 455l-31 -150h96v-82h-113l-47 -223h-87l47 223h-93l-47 -223h-87l47 223h-88v82h105l31 150h-96v82h113l47 223h87l-47 -223h93l47 223h87l-47 -223h88v-82h-105zM336 455h-93l-31 -150h93z" />
    <glyph glyph-name="dollar" unicode="$" horiz-adv-x="341" 
d="M122 426h88q43 0 65.5 -23t22.5 -67v-226q0 -90 -90 -90h-9v-80h-78v80h-7q-90 0 -90 90v123h96v-133h82v244h-86q-90 0 -90 90v216q0 44 23 67t67 23h5v80h78v-80h5q90 0 90 -90v-110h-96v120h-76v-234z" />
    <glyph glyph-name="percent" unicode="%" horiz-adv-x="474" 
d="M208 710v-202q0 -50 -50 -50h-92q-50 0 -50 50v202q0 50 50 50h92q50 0 50 -50zM129 0h-72l289 760h72zM83 700v-182h58v182h-58zM458 252v-202q0 -50 -50 -50h-92q-50 0 -50 50v202q0 50 50 50h92q50 0 50 -50zM333 242v-182h58v182h-58z" />
    <glyph glyph-name="ampersand" unicode="&#x26;" horiz-adv-x="367" 
d="M357 352h-48v-262q0 -90 -90 -90h-101q-90 0 -90 90v213q0 38 19.5 64t50.5 26q-31 0 -50.5 26t-19.5 64v187q0 90 90 90h101q90 0 90 -90v-100h-96v108h-89v-244h233v-82zM124 352v-270h89v270h-89z" />
    <glyph glyph-name="quotesingle" unicode="'" horiz-adv-x="148" 
d="M94 532h-40l-30 228h100z" />
    <glyph glyph-name="parenleft" unicode="(" horiz-adv-x="229" 
d="M212 -52h-89q-90 0 -90 90v684q0 44 23.5 67t66.5 23h89v-82h-83v-700h83v-82z" />
    <glyph glyph-name="parenright" unicode=")" horiz-adv-x="229" 
d="M196 722v-684q0 -90 -90 -90h-89v82h83v700h-83v82h89q44 0 67 -23t23 -67z" />
    <glyph glyph-name="asterisk" unicode="*" horiz-adv-x="336" 
d="M281 524l-59 -43l-54 106l-55 -106l-57 43l84 84l-118 20l22 67l107 -53l-19 118h73l-20 -118l107 53l22 -68l-117 -19z" />
    <glyph glyph-name="plus" unicode="+" horiz-adv-x="362" 
d="M324 349h-100v-107h-86v107h-100v74h100v107h86v-107h100v-74z" />
    <glyph glyph-name="comma" unicode="," horiz-adv-x="157" 
d="M129 10l-68 -122h-33l46 112h-45v110h100v-100z" />
    <glyph glyph-name="hyphen" unicode="-" horiz-adv-x="210" 
d="M198 339h-186v82h186v-82z" />
    <glyph glyph-name="period" unicode="." horiz-adv-x="156" 
d="M128 0h-100v110h100v-110z" />
    <glyph glyph-name="slash" unicode="/" horiz-adv-x="251" 
d="M93 -60h-82l147 880h82z" />
    <glyph glyph-name="zero" unicode="0" horiz-adv-x="337" 
d="M120 760h97q90 0 90 -90v-580q0 -90 -90 -90h-97q-90 0 -90 90v580q0 44 23 67t67 23zM126 678v-596h85v596h-85z" />
    <glyph glyph-name="one" unicode="1" horiz-adv-x="208" 
d="M79 0v678h-67v82h163v-760h-96z" />
    <glyph glyph-name="two" unicode="2" horiz-adv-x="308" 
d="M24 0v330q0 44 23 67t67 23h78v258h-70v-112h-96v104q0 90 90 90h82q90 0 90 -90v-244q0 -90 -90 -90h-78v-254h164v-82h-260z" />
    <glyph glyph-name="three" unicode="3" horiz-adv-x="328" 
d="M112 760h98q90 0 90 -90v-194q0 -38 -19.5 -64t-50.5 -26q31 0 50.5 -26t19.5 -64v-206q0 -90 -90 -90h-97q-90 0 -90 90v120h96v-130h85v264h-105v84h105v252h-86v-130h-96v120q0 90 90 90z" />
    <glyph glyph-name="four" unicode="4" horiz-adv-x="342" 
d="M280 294h50v-82h-50v-212h-94v212h-176v87l124 461h146v-466zM91 294h95v370z" />
    <glyph glyph-name="five" unicode="5" horiz-adv-x="326" 
d="M124 678v-233l36 36h50q90 0 90 -90v-301q0 -90 -90 -90h-92q-90 0 -90 90v120h96v-128h80v317h-61l-20 -20l-95 30v351h265v-82h-169z" />
    <glyph glyph-name="six" unicode="6" horiz-adv-x="334" 
d="M210 678h-84v-273l36 36h56q90 0 90 -90v-261q0 -90 -90 -90h-98q-90 0 -90 90v580q0 44 23 67t67 23h96q90 0 90 -90v-120h-96v128zM126 359v-277h86v277h-86z" />
    <glyph glyph-name="seven" unicode="7" horiz-adv-x="296" 
d="M147 0h-90l130 678h-175v82h270v-56z" />
    <glyph glyph-name="eight" unicode="8" horiz-adv-x="332" 
d="M118 760h96q90 0 90 -90v-193q0 -38 -19.5 -64t-50.5 -26q70 0 70 -90v-207q0 -90 -90 -90h-96q-90 0 -90 90v207q0 90 70 90q-30 0 -50 26.5t-20 63.5v193q0 90 90 90zM124 678v-250h84v250h-84zM124 346v-264h84v264h-84z" />
    <glyph glyph-name="nine" unicode="9" horiz-adv-x="334" 
d="M116 760h98q90 0 90 -90v-580q0 -90 -90 -90h-98q-90 0 -90 90v120h96v-128h86v273l-36 -36h-56q-90 0 -90 90v261q0 90 90 90zM122 678v-277h86v277h-86z" />
    <glyph glyph-name="colon" unicode=":" horiz-adv-x="166" 
d="M133 290h-100v130h100v-130zM133 0h-100v130h100v-130z" />
    <glyph glyph-name="semicolon" unicode=";" horiz-adv-x="171" 
d="M138 290h-100v130h100v-130zM134 10l-68 -122h-33l46 112h-45v130h100v-120z" />
    <glyph glyph-name="less" unicode="&#x3c;" horiz-adv-x="240" 
d="M214 604l-200 -170v-120l200 -170v99l-154 131l154 131v99z" />
    <glyph glyph-name="equal" unicode="=" horiz-adv-x="366" 
d="M326 431h-286v74h286v-74zM326 264h-286v74h286v-74z" />
    <glyph glyph-name="greater" unicode="&#x3e;" horiz-adv-x="240" 
d="M181 374l-154 -131v-99l200 170v120l-200 170v-99z" />
    <glyph glyph-name="question" unicode="?" horiz-adv-x="315" 
d="M104 760h107q43 0 66.5 -23t23.5 -67v-206q0 -90 -90 -90h-28v-191h-96v183q0 44 23.5 67t66.5 23h28v222h-95v-124h-96v116q0 90 90 90zM183 0h-96v110h96v-110z" />
    <glyph glyph-name="at" unicode="@" horiz-adv-x="621" 
d="M498 -72h-375q-90 0 -90 90v652q0 90 90 90h375q90 0 90 -90v-485q0 -90 -90 -90h-140v30l-30 -30h-74q-60 0 -60 60v195q0 60 60 60h69l30 -30v154h-83v-77h-70v79q0 60 60 60h103q60 0 60 -60v-379h79v531h-383v-688h379v-72zM353 157v191h-89v-191h89z" />
    <glyph glyph-name="A" unicode="A" 
d="M212 196h-88l-19 -196h-96l91 760h138l93 -760h-100zM204 278l-36 383l-37 -383h73z" />
    <glyph glyph-name="B" unicode="B" horiz-adv-x="343" 
d="M33 760h192q90 0 90 -90v-192q0 -38 -19.5 -64t-50.5 -26q31 0 50.5 -26t19.5 -64v-208q0 -90 -90 -90h-192v760zM219 426v254h-90v-254h90zM129 346v-264h90v264h-90z" />
    <glyph glyph-name="C" unicode="C" horiz-adv-x="320" 
d="M208 0h-88q-90 0 -90 90v580q0 44 23 67t67 23h88q90 0 90 -90v-141h-96v151h-76v-598h76v150h96v-142q0 -44 -23 -67t-67 -23z" />
    <glyph glyph-name="D" unicode="D" horiz-adv-x="348" 
d="M33 760h195q90 0 90 -90v-580q0 -90 -90 -90h-195v760zM222 82v596h-93v-596h93z" />
    <glyph glyph-name="E" unicode="E" horiz-adv-x="290" 
d="M33 0v760h237v-82h-141v-252h123v-82h-123v-262h143v-82h-239z" />
    <glyph glyph-name="F" unicode="F" horiz-adv-x="279" 
d="M267 760v-82h-138v-261h124v-82h-124v-335h-96v760h234z" />
    <glyph glyph-name="G" unicode="G" horiz-adv-x="335" 
d="M217 0h-97q-90 0 -90 90v580q0 44 23 67t67 23h97q90 0 90 -90v-131h-96v139h-85v-596h85v228h-48v86h144v-306q0 -44 -23.5 -67t-66.5 -23z" />
    <glyph glyph-name="H" unicode="H" horiz-adv-x="359" 
d="M129 760v-337h101v337h96v-760h-96v339h-101v-339h-96v760h96z" />
    <glyph glyph-name="I" unicode="I" horiz-adv-x="162" 
d="M33 0v760h96v-760h-96z" />
    <glyph glyph-name="J" unicode="J" horiz-adv-x="235" 
d="M107 82v678h96v-670q0 -90 -90 -90h-104v82h98z" />
    <glyph glyph-name="K" unicode="K" horiz-adv-x="354" 
d="M176 311l-47 -130v-181h-96v760h96v-405l114 405h97l-104 -337l110 -423h-100z" />
    <glyph glyph-name="L" unicode="L" horiz-adv-x="266" 
d="M256 0h-223v760h96v-678h127v-82z" />
    <glyph glyph-name="M" unicode="M" horiz-adv-x="489" 
d="M290 0h-95l-75 596v-596h-87v760h139l71 -614l71 614h142v-760h-91v596z" />
    <glyph glyph-name="N" unicode="N" horiz-adv-x="367" 
d="M33 0v760h104l110 -527v527h87v-760h-104l-110 519v-519h-87z" />
    <glyph glyph-name="O" unicode="O" horiz-adv-x="347" 
d="M120 760h107q90 0 90 -90v-580q0 -90 -90 -90h-107q-90 0 -90 90v580q0 90 90 90zM126 678v-596h95v596h-95z" />
    <glyph glyph-name="P" unicode="P" horiz-adv-x="328" 
d="M33 0v760h187q90 0 90 -90v-276q0 -90 -90 -90h-91v-304h-96zM214 384v296h-85v-296h85z" />
    <glyph glyph-name="Q" unicode="Q" horiz-adv-x="346" 
d="M120 760h106q90 0 90 -90v-580q0 -90 -90 -90h-10v-88h-86v88h-10q-90 0 -90 90v580q0 90 90 90zM126 674v-588h94v588h-94z" />
    <glyph glyph-name="R" unicode="R" horiz-adv-x="350" 
d="M322 0h-93l-59 324h-41v-324h-96v760h192q90 0 90 -90v-256q0 -68 -53 -85zM219 402v278h-90v-278h90z" />
    <glyph glyph-name="S" unicode="S" horiz-adv-x="320" 
d="M197 540v140h-75v-254h84q90 0 90 -90v-246q0 -90 -90 -90h-92q-90 0 -90 90v129h96v-139h80v264h-84q-90 0 -90 90v236q0 90 90 90h87q90 0 90 -90v-130h-96z" />
    <glyph glyph-name="T" unicode="T" horiz-adv-x="296" 
d="M287 680h-91v-680h-96v680h-91v80h278v-80z" />
    <glyph glyph-name="U" unicode="U" horiz-adv-x="345" 
d="M313 760v-670q0 -90 -90 -90h-101q-90 0 -90 90v670h96v-678h89v678h96z" />
    <glyph glyph-name="V" unicode="V" horiz-adv-x="326" 
d="M230 0h-134l-87 760h94l62 -647l62 647h90z" />
    <glyph glyph-name="W" unicode="W" horiz-adv-x="580" 
d="M474 0h-130l-52 640l-52 -640h-134l-97 760h100l57 -657l67 657h120l67 -657l57 657h94z" />
    <glyph glyph-name="X" unicode="X" horiz-adv-x="339" 
d="M216 387l113 -387h-96l-67 246l-64 -246h-92l113 387l-108 373h96l61 -238l60 238h92z" />
    <glyph glyph-name="Y" unicode="Y" horiz-adv-x="344" 
d="M219 0h-94v249l-116 511h103l60 -373l60 373h103l-116 -511v-249z" />
    <glyph glyph-name="Z" unicode="Z" horiz-adv-x="290" 
d="M272 0h-254v52l152 626h-146v82h245v-52l-146 -626h149v-82z" />
    <glyph glyph-name="bracketleft" unicode="[" horiz-adv-x="229" 
d="M33 812h179v-82h-83v-700h83v-82h-179v864z" />
    <glyph glyph-name="backslash" unicode="\" horiz-adv-x="251" 
d="M93 820l147 -880h-82l-147 880h82z" />
    <glyph glyph-name="bracketright" unicode="]" horiz-adv-x="229" 
d="M17 -52v82h83v700h-83v82h179v-864h-179z" />
    <glyph glyph-name="asciicircum" unicode="^" horiz-adv-x="377" 
d="M188 688l68 -338h83l-91 410h-120l-90 -410h83z" />
    <glyph glyph-name="underscore" unicode="_" horiz-adv-x="390" 
d="M357 -82h-324v82h324v-82z" />
    <glyph glyph-name="grave" unicode="`" horiz-adv-x="397" 
d="M310 815h-66l-117 141h112z" />
    <glyph glyph-name="a" unicode="a" 
d="M212 196h-88l-19 -196h-96l91 760h138l93 -760h-100zM204 278l-36 383l-37 -383h73z" />
    <glyph glyph-name="b" unicode="b" horiz-adv-x="343" 
d="M33 760h192q90 0 90 -90v-192q0 -38 -19.5 -64t-50.5 -26q31 0 50.5 -26t19.5 -64v-208q0 -90 -90 -90h-192v760zM219 426v254h-90v-254h90zM129 346v-264h90v264h-90z" />
    <glyph glyph-name="c" unicode="c" horiz-adv-x="320" 
d="M208 0h-88q-90 0 -90 90v580q0 44 23 67t67 23h88q90 0 90 -90v-141h-96v151h-76v-598h76v150h96v-142q0 -44 -23 -67t-67 -23z" />
    <glyph glyph-name="d" unicode="d" horiz-adv-x="348" 
d="M33 760h195q90 0 90 -90v-580q0 -90 -90 -90h-195v760zM222 82v596h-93v-596h93z" />
    <glyph glyph-name="e" unicode="e" horiz-adv-x="290" 
d="M33 0v760h237v-82h-141v-252h123v-82h-123v-262h143v-82h-239z" />
    <glyph glyph-name="f" unicode="f" horiz-adv-x="279" 
d="M267 760v-82h-138v-261h124v-82h-124v-335h-96v760h234z" />
    <glyph glyph-name="g" unicode="g" horiz-adv-x="335" 
d="M217 0h-97q-90 0 -90 90v580q0 44 23 67t67 23h97q90 0 90 -90v-131h-96v139h-85v-596h85v228h-48v86h144v-306q0 -44 -23.5 -67t-66.5 -23z" />
    <glyph glyph-name="h" unicode="h" horiz-adv-x="359" 
d="M129 760v-337h101v337h96v-760h-96v339h-101v-339h-96v760h96z" />
    <glyph glyph-name="i" unicode="i" horiz-adv-x="162" 
d="M33 0v760h96v-760h-96z" />
    <glyph glyph-name="j" unicode="j" horiz-adv-x="235" 
d="M107 82v678h96v-670q0 -90 -90 -90h-104v82h98z" />
    <glyph glyph-name="k" unicode="k" horiz-adv-x="354" 
d="M176 311l-47 -130v-181h-96v760h96v-405l114 405h97l-104 -337l110 -423h-100z" />
    <glyph glyph-name="l" unicode="l" horiz-adv-x="266" 
d="M256 0h-223v760h96v-678h127v-82z" />
    <glyph glyph-name="m" unicode="m" horiz-adv-x="489" 
d="M290 0h-95l-75 596v-596h-87v760h139l71 -614l71 614h142v-760h-91v596z" />
    <glyph glyph-name="n" unicode="n" horiz-adv-x="367" 
d="M33 0v760h104l110 -527v527h87v-760h-104l-110 519v-519h-87z" />
    <glyph glyph-name="o" unicode="o" horiz-adv-x="347" 
d="M120 760h107q90 0 90 -90v-580q0 -90 -90 -90h-107q-90 0 -90 90v580q0 90 90 90zM126 678v-596h95v596h-95z" />
    <glyph glyph-name="p" unicode="p" horiz-adv-x="328" 
d="M33 0v760h187q90 0 90 -90v-276q0 -90 -90 -90h-91v-304h-96zM214 384v296h-85v-296h85z" />
    <glyph glyph-name="q" unicode="q" horiz-adv-x="346" 
d="M120 760h106q90 0 90 -90v-580q0 -90 -90 -90h-10v-88h-86v88h-10q-90 0 -90 90v580q0 90 90 90zM126 674v-588h94v588h-94z" />
    <glyph glyph-name="r" unicode="r" horiz-adv-x="350" 
d="M322 0h-93l-59 324h-41v-324h-96v760h192q90 0 90 -90v-256q0 -68 -53 -85zM219 402v278h-90v-278h90z" />
    <glyph glyph-name="s" unicode="s" horiz-adv-x="320" 
d="M197 540v140h-75v-254h84q90 0 90 -90v-246q0 -90 -90 -90h-92q-90 0 -90 90v129h96v-139h80v264h-84q-90 0 -90 90v236q0 90 90 90h87q90 0 90 -90v-130h-96z" />
    <glyph glyph-name="t" unicode="t" horiz-adv-x="296" 
d="M287 680h-91v-680h-96v680h-91v80h278v-80z" />
    <glyph glyph-name="u" unicode="u" horiz-adv-x="345" 
d="M313 760v-670q0 -90 -90 -90h-101q-90 0 -90 90v670h96v-678h89v678h96z" />
    <glyph glyph-name="v" unicode="v" horiz-adv-x="326" 
d="M230 0h-134l-87 760h94l62 -647l62 647h90z" />
    <glyph glyph-name="w" unicode="w" horiz-adv-x="580" 
d="M474 0h-130l-52 640l-52 -640h-134l-97 760h100l57 -657l67 657h120l67 -657l57 657h94z" />
    <glyph glyph-name="x" unicode="x" horiz-adv-x="339" 
d="M216 387l113 -387h-96l-67 246l-64 -246h-92l113 387l-108 373h96l61 -238l60 238h92z" />
    <glyph glyph-name="y" unicode="y" horiz-adv-x="344" 
d="M219 0h-94v249l-116 511h103l60 -373l60 373h103l-116 -511v-249z" />
    <glyph glyph-name="z" unicode="z" horiz-adv-x="290" 
d="M272 0h-254v52l152 626h-146v82h245v-52l-146 -626h149v-82z" />
    <glyph glyph-name="braceleft" unicode="{" horiz-adv-x="264" 
d="M247 -52h-89q-90 0 -90 90v293l-60 60l60 60v271q0 44 23 67t67 23h89v-82h-83v-279l-60 -60l60 -60v-301h83v-82z" />
    <glyph glyph-name="bar" unicode="|" horiz-adv-x="152" 
d="M33 -96v952h86v-952h-86z" />
    <glyph glyph-name="braceright" unicode="}" horiz-adv-x="264" 
d="M17 30h83v301l60 60l-60 60v279h-83v82h89q90 0 90 -90v-271l60 -60l-60 -60v-293q0 -90 -90 -90h-89v82z" />
    <glyph glyph-name="asciitilde" unicode="~" horiz-adv-x="258" 
d="M63 293l25 95l51 -90h71l36 140h-51l-25 -95l-51 90h-71l-36 -140h51z" />
    <glyph glyph-name="exclamdown" unicode="&#xa1;" horiz-adv-x="182" 
d="M41 650v110h100v-110h-100zM38 0l20 577h66l20 -577h-106z" />
    <glyph glyph-name="cent" unicode="&#xa2;" horiz-adv-x="322" 
d="M124 166h82v125h96v-117q0 -90 -90 -90h-19v-84h-56v84h-19q-90 0 -90 90v412q0 90 90 90h19v84h56v-84h19q90 0 90 -90v-115h-96v123h-82v-428z" />
    <glyph glyph-name="sterling" unicode="&#xa3;" horiz-adv-x="372" 
d="M354 0h-336v82h63v258h-63v82h63v248q0 90 90 90h89q90 0 90 -90v-82h-96v90h-77v-256h115v-82h-115v-258h177v-82z" />
    <glyph glyph-name="yen" unicode="&#xa5;" horiz-adv-x="344" 
d="M239 338h86v-44h-96l-10 -45v-7h106v-44h-106v-198h-94v198h-106v44h106v7l-10 45h-96v44h86l-96 422h103l60 -373l60 373h103z" />
    <glyph glyph-name="section" unicode="&#xa7;" horiz-adv-x="320" 
d="M170 170h-54q-44 0 -67 23t-23 67v410q0 44 23 67t67 23h86q90 0 90 -90v-80h-96v88h-74v-426h48v-82zM152 426v82h54q90 0 90 -90v-410q0 -90 -90 -90h-92q-90 0 -90 90v80h96v-88h80v426h-48z" />
    <glyph glyph-name="dieresis" unicode="&#xa8;" horiz-adv-x="440" 
d="M197 815h-96v108h96v-108zM339 815h-96v108h96v-108z" />
    <glyph glyph-name="copyright" unicode="&#xa9;" horiz-adv-x="607" 
d="M120 760h367q90 0 90 -90v-580q0 -90 -90 -90h-367q-90 0 -90 90v580q0 90 90 90zM116 688v-616h375v616h-375zM341 140h-68q-43 0 -66.5 23t-23.5 67v300q0 44 23.5 67t66.5 23h68q90 0 90 -90v-89h-86v109h-76v-338h76v108h86v-90q0 -90 -90 -90z" />
    <glyph glyph-name="ordfeminine" unicode="&#xaa;" horiz-adv-x="208" 
d="M130 524v14l-14 -14h-53q-30 0 -30 30v81q0 30 30 30h51l14 -14v69h-47v-31h-45v41q0 30 30 30h79q30 0 30 -30v-206h-45zM80 624v-60h48v60h-48zM33 436v40h142v-40h-142z" />
    <glyph glyph-name="guillemotleft" unicode="&#xab;" horiz-adv-x="342" 
d="M158 554l-140 -130v-100l140 -130v97l-92 83l92 83v97zM318 554l-140 -130v-100l140 -130v97l-92 83l92 83v97z" />
    <glyph glyph-name="registered" unicode="&#xae;" horiz-adv-x="632" 
d="M120 760h392q90 0 90 -90v-580q0 -90 -90 -90h-392q-90 0 -90 90v580q0 90 90 90zM516 688h-400v-616h400v616zM268 140h-86v480h181q90 0 90 -90v-116q0 -68 -53 -85l60 -189h-86l-59 184h-47v-184zM268 394h99v156h-99v-156z" />
    <glyph glyph-name="macron" unicode="&#xaf;" horiz-adv-x="506" 
d="M150 815v82h206v-82h-206z" />
    <glyph glyph-name="degree" unicode="&#xb0;" horiz-adv-x="215" 
d="M108 760q85 0 85 -86t-85 -86q-86 0 -86 86t86 86zM64 627h87v94h-87v-94z" />
    <glyph glyph-name="acute" unicode="&#xb4;" horiz-adv-x="397" 
d="M310 956l-117 -141h-66l71 141h112z" />
    <glyph glyph-name="paragraph" unicode="&#xb6;" horiz-adv-x="493" 
d="M364 -82v760h-50v-760h-96v374h-110q-90 0 -90 90v288q0 44 23 67t67 23h352v-842h-96z" />
    <glyph glyph-name="periodcentered" unicode="&#xb7;" horiz-adv-x="156" 
d="M128 325h-100v110h100v-110z" />
    <glyph glyph-name="cedilla" unicode="&#xb8;" horiz-adv-x="352" 
d="M210 -26l-68 -141h-62l50 141h80z" />
    <glyph glyph-name="ordmasculine" unicode="&#xba;" horiz-adv-x="208" 
d="M175 730v-176q0 -30 -30 -30h-82q-30 0 -30 30v176q0 30 30 30h82q30 0 30 -30zM80 720v-156h48v156h-48zM33 436v40h142v-40h-142z" />
    <glyph glyph-name="guillemotright" unicode="&#xbb;" horiz-adv-x="342" 
d="M116 374l-92 -83v-97l140 130v100l-140 130v-97zM276 374l-92 -83v-97l140 130v100l-140 130v-97z" />
    <glyph glyph-name="questiondown" unicode="&#xbf;" horiz-adv-x="315" 
d="M132 760h96v-110h-96v110zM211 0h-107q-44 0 -67 23t-23 67v206q0 90 90 90h28v191h96v-183q0 -44 -23 -67t-67 -23h-28v-222h95v124h96v-116q0 -90 -90 -90z" />
    <glyph glyph-name="Agrave" unicode="&#xc0;" 
d="M159 815l-117 141h112l71 -141h-66zM212 196h-88l-19 -196h-96l91 760h138l93 -760h-100zM204 278l-36 383l-37 -383h73z" />
    <glyph glyph-name="Aacute" unicode="&#xc1;" 
d="M179 815h-66l71 141h112zM212 196h-88l-19 -196h-96l91 760h138l93 -760h-100zM204 278l-36 383l-37 -383h73z" />
    <glyph glyph-name="Acircumflex" unicode="&#xc2;" 
d="M111 815h-70l81 141h91l84 -141h-70l-58 96zM212 196h-88l-19 -196h-96l91 760h138l93 -760h-100zM204 278l-36 383l-37 -383h73z" />
    <glyph glyph-name="Atilde" unicode="&#xc3;" 
d="M103 815h-51l36 140h71l51 -90l25 95h51l-36 -140h-71l-51 90zM212 196h-88l-19 -196h-96l91 760h138l93 -760h-100zM204 278l-36 383l-37 -383h73z" />
    <glyph glyph-name="Adieresis" unicode="&#xc4;" 
d="M146 815h-96v108h96v-108zM288 815h-96v108h96v-108zM212 196h-88l-19 -196h-96l91 760h138l93 -760h-100zM204 278l-36 383l-37 -383h73z" />
    <glyph glyph-name="Aring" unicode="&#xc5;" 
d="M169 815q-76 0 -76 71q0 70 76 70q75 0 75 -70q0 -71 -75 -71zM135 852h67v67h-67v-67zM212 196h-88l-19 -196h-96l91 760h138l93 -760h-100zM204 278l-36 383l-37 -383h73z" />
    <glyph glyph-name="AE" unicode="&#xc6;" horiz-adv-x="490" 
d="M472 82v-82h-239v196h-101l-27 -196h-96l121 760h340v-82h-141v-252h123v-82h-123v-262h143zM233 278v400h-33l-56 -400h89z" />
    <glyph glyph-name="Ccedilla" unicode="&#xc7;" horiz-adv-x="320" 
d="M208 0h-88q-90 0 -90 90v580q0 44 23 67t67 23h88q90 0 90 -90v-141h-96v151h-76v-598h76v150h96v-142q0 -44 -23 -67t-67 -23zM207 -26l-68 -141h-62l50 141h80z" />
    <glyph glyph-name="Egrave" unicode="&#xc8;" horiz-adv-x="290" 
d="M208 815h-66l-117 141h112zM33 0v760h237v-82h-141v-252h123v-82h-123v-262h143v-82h-239z" />
    <glyph glyph-name="Eacute" unicode="&#xc9;" horiz-adv-x="290" 
d="M279 956l-117 -141h-66l71 141h112zM33 0v760h237v-82h-141v-252h123v-82h-123v-262h143v-82h-239z" />
    <glyph glyph-name="Ecircumflex" unicode="&#xca;" horiz-adv-x="290" 
d="M196 956h-91l-81 -141h70l58 96l58 -96h70zM33 0v760h237v-82h-141v-252h123v-82h-123v-262h143v-82h-239z" />
    <glyph glyph-name="Edieresis" unicode="&#xcb;" horiz-adv-x="290" 
d="M129 815h-96v108h96v-108zM271 815h-96v108h96v-108zM33 0v760h237v-82h-141v-252h123v-82h-123v-262h143v-82h-239z" />
    <glyph glyph-name="Igrave" unicode="&#xcc;" horiz-adv-x="162" 
d="M137 815h-66l-117 141h112zM33 0v760h96v-760h-96z" />
    <glyph glyph-name="Iacute" unicode="&#xcd;" horiz-adv-x="162" 
d="M208 956l-117 -141h-66l71 141h112zM33 0v760h96v-760h-96z" />
    <glyph glyph-name="Icircumflex" unicode="&#xce;" horiz-adv-x="162" 
d="M125 956h-91l-81 -141h70l58 96l58 -96h70zM33 0v760h96v-760h-96z" />
    <glyph glyph-name="Idieresis" unicode="&#xcf;" horiz-adv-x="162" 
d="M58 815h-96v108h96v-108zM200 815h-96v108h96v-108zM33 0v760h96v-760h-96z" />
    <glyph glyph-name="Eth" unicode="&#xd0;" horiz-adv-x="362" 
d="M46 760h196q90 0 90 -90v-580q0 -90 -90 -90h-196v343h-36v82h36v335zM236 678h-94v-253h58v-82h-58v-261h94v596z" />
    <glyph glyph-name="Ntilde" unicode="&#xd1;" horiz-adv-x="367" 
d="M119 815l25 95l51 -90h71l36 140h-51l-25 -95l-51 90h-71l-36 -140h51zM33 0v760h104l110 -527v527h87v-760h-104l-110 519v-519h-87z" />
    <glyph glyph-name="Ograve" unicode="&#xd2;" horiz-adv-x="347" 
d="M230 815h-66l-117 141h112zM120 760h107q90 0 90 -90v-580q0 -90 -90 -90h-107q-90 0 -90 90v580q0 90 90 90zM126 678v-596h95v596h-95z" />
    <glyph glyph-name="Oacute" unicode="&#xd3;" horiz-adv-x="347" 
d="M301 956l-117 -141h-66l71 141h112zM120 760h107q90 0 90 -90v-580q0 -90 -90 -90h-107q-90 0 -90 90v580q0 90 90 90zM126 678v-596h95v596h-95z" />
    <glyph glyph-name="Ocircumflex" unicode="&#xd4;" horiz-adv-x="347" 
d="M218 956h-91l-81 -141h70l58 96l58 -96h70zM120 760h107q90 0 90 -90v-580q0 -90 -90 -90h-107q-90 0 -90 90v580q0 90 90 90zM126 678v-596h95v596h-95z" />
    <glyph glyph-name="Otilde" unicode="&#xd5;" horiz-adv-x="347" 
d="M108 815l25 95l51 -90h71l36 140h-51l-25 -95l-51 90h-71l-36 -140h51zM120 760h107q90 0 90 -90v-580q0 -90 -90 -90h-107q-90 0 -90 90v580q0 90 90 90zM126 678v-596h95v596h-95z" />
    <glyph glyph-name="Odieresis" unicode="&#xd6;" horiz-adv-x="347" 
d="M151 815h-96v108h96v-108zM293 815h-96v108h96v-108zM120 760h107q90 0 90 -90v-580q0 -90 -90 -90h-107q-90 0 -90 90v580q0 90 90 90zM126 678v-596h95v596h-95z" />
    <glyph glyph-name="Oslash" unicode="&#xd8;" horiz-adv-x="347" 
d="M120 760h107q90 0 90 -90v-580q0 -90 -90 -90h-107q-90 0 -90 90v580q0 90 90 90zM126 678v-512l69 512h-69zM221 82v482l-65 -482h65z" />
    <glyph glyph-name="Ugrave" unicode="&#xd9;" horiz-adv-x="345" 
d="M230 815h-66l-117 141h112zM313 760v-670q0 -90 -90 -90h-101q-90 0 -90 90v670h96v-678h89v678h96z" />
    <glyph glyph-name="Uacute" unicode="&#xda;" horiz-adv-x="345" 
d="M301 956l-117 -141h-66l71 141h112zM313 760v-670q0 -90 -90 -90h-101q-90 0 -90 90v670h96v-678h89v678h96z" />
    <glyph glyph-name="Ucircumflex" unicode="&#xdb;" horiz-adv-x="345" 
d="M218 956h-91l-81 -141h70l58 96l58 -96h70zM313 760v-670q0 -90 -90 -90h-101q-90 0 -90 90v670h96v-678h89v678h96z" />
    <glyph glyph-name="Udieresis" unicode="&#xdc;" horiz-adv-x="345" 
d="M151 815h-96v108h96v-108zM293 815h-96v108h96v-108zM313 760v-670q0 -90 -90 -90h-101q-90 0 -90 90v670h96v-678h89v678h96z" />
    <glyph glyph-name="Yacute" unicode="&#xdd;" horiz-adv-x="344" 
d="M299 956l-117 -141h-66l71 141h112zM219 0h-94v249l-116 511h103l60 -373l60 373h103l-116 -511v-249z" />
    <glyph glyph-name="Thorn" unicode="&#xde;" horiz-adv-x="328" 
d="M33 0v760h96v-148h91q90 0 90 -90v-268q0 -90 -90 -90h-91v-164h-96zM214 244v288h-85v-288h85z" />
    <glyph glyph-name="germandbls" unicode="&#xdf;" horiz-adv-x="640" 
d="M197 540v140h-75v-254h84q90 0 90 -90v-246q0 -90 -90 -90h-92q-90 0 -90 90v129h96v-139h80v264h-84q-90 0 -90 90v236q0 90 90 90h87q90 0 90 -90v-130h-96zM517 540v140h-75v-254h84q90 0 90 -90v-246q0 -90 -90 -90h-92q-90 0 -90 90v129h96v-139h80v264h-84
q-90 0 -90 90v236q0 90 90 90h87q90 0 90 -90v-130h-96z" />
    <glyph glyph-name="agrave" unicode="&#xe0;" 
d="M159 815l-117 141h112l71 -141h-66zM212 196h-88l-19 -196h-96l91 760h138l93 -760h-100zM204 278l-36 383l-37 -383h73z" />
    <glyph glyph-name="aacute" unicode="&#xe1;" 
d="M179 815h-66l71 141h112zM212 196h-88l-19 -196h-96l91 760h138l93 -760h-100zM204 278l-36 383l-37 -383h73z" />
    <glyph glyph-name="acircumflex" unicode="&#xe2;" 
d="M111 815h-70l81 141h91l84 -141h-70l-58 96zM212 196h-88l-19 -196h-96l91 760h138l93 -760h-100zM204 278l-36 383l-37 -383h73z" />
    <glyph glyph-name="atilde" unicode="&#xe3;" 
d="M103 815h-51l36 140h71l51 -90l25 95h51l-36 -140h-71l-51 90zM212 196h-88l-19 -196h-96l91 760h138l93 -760h-100zM204 278l-36 383l-37 -383h73z" />
    <glyph glyph-name="adieresis" unicode="&#xe4;" 
d="M146 815h-96v108h96v-108zM288 815h-96v108h96v-108zM212 196h-88l-19 -196h-96l91 760h138l93 -760h-100zM204 278l-36 383l-37 -383h73z" />
    <glyph glyph-name="aring" unicode="&#xe5;" 
d="M169 815q-76 0 -76 71q0 70 76 70q75 0 75 -70q0 -71 -75 -71zM135 852h67v67h-67v-67zM212 196h-88l-19 -196h-96l91 760h138l93 -760h-100zM204 278l-36 383l-37 -383h73z" />
    <glyph glyph-name="ae" unicode="&#xe6;" horiz-adv-x="490" 
d="M472 82v-82h-239v196h-101l-27 -196h-96l121 760h340v-82h-141v-252h123v-82h-123v-262h143zM233 278v400h-33l-56 -400h89z" />
    <glyph glyph-name="ccedilla" unicode="&#xe7;" horiz-adv-x="320" 
d="M208 0h-88q-90 0 -90 90v580q0 44 23 67t67 23h88q90 0 90 -90v-141h-96v151h-76v-598h76v150h96v-142q0 -44 -23 -67t-67 -23zM207 -26l-68 -141h-62l50 141h80z" />
    <glyph glyph-name="egrave" unicode="&#xe8;" horiz-adv-x="290" 
d="M208 815h-66l-117 141h112zM33 0v760h237v-82h-141v-252h123v-82h-123v-262h143v-82h-239z" />
    <glyph glyph-name="eacute" unicode="&#xe9;" horiz-adv-x="290" 
d="M279 956l-117 -141h-66l71 141h112zM33 0v760h237v-82h-141v-252h123v-82h-123v-262h143v-82h-239z" />
    <glyph glyph-name="ecircumflex" unicode="&#xea;" horiz-adv-x="290" 
d="M196 956h-91l-81 -141h70l58 96l58 -96h70zM33 0v760h237v-82h-141v-252h123v-82h-123v-262h143v-82h-239z" />
    <glyph glyph-name="edieresis" unicode="&#xeb;" horiz-adv-x="290" 
d="M129 815h-96v108h96v-108zM271 815h-96v108h96v-108zM33 0v760h237v-82h-141v-252h123v-82h-123v-262h143v-82h-239z" />
    <glyph glyph-name="igrave" unicode="&#xec;" horiz-adv-x="162" 
d="M137 815h-66l-117 141h112zM33 0v760h96v-760h-96z" />
    <glyph glyph-name="iacute" unicode="&#xed;" horiz-adv-x="162" 
d="M208 956l-117 -141h-66l71 141h112zM33 0v760h96v-760h-96z" />
    <glyph glyph-name="icircumflex" unicode="&#xee;" horiz-adv-x="162" 
d="M125 956h-91l-81 -141h70l58 96l58 -96h70zM33 0v760h96v-760h-96z" />
    <glyph glyph-name="idieresis" unicode="&#xef;" horiz-adv-x="162" 
d="M58 815h-96v108h96v-108zM200 815h-96v108h96v-108zM33 0v760h96v-760h-96z" />
    <glyph glyph-name="eth" unicode="&#xf0;" horiz-adv-x="362" 
d="M46 760h196q90 0 90 -90v-580q0 -90 -90 -90h-196v343h-36v82h36v335zM236 678h-94v-253h58v-82h-58v-261h94v596z" />
    <glyph glyph-name="ntilde" unicode="&#xf1;" horiz-adv-x="367" 
d="M119 815l25 95l51 -90h71l36 140h-51l-25 -95l-51 90h-71l-36 -140h51zM33 0v760h104l110 -527v527h87v-760h-104l-110 519v-519h-87z" />
    <glyph glyph-name="ograve" unicode="&#xf2;" horiz-adv-x="347" 
d="M230 815h-66l-117 141h112zM120 760h107q90 0 90 -90v-580q0 -90 -90 -90h-107q-90 0 -90 90v580q0 90 90 90zM126 678v-596h95v596h-95z" />
    <glyph glyph-name="oacute" unicode="&#xf3;" horiz-adv-x="347" 
d="M301 956l-117 -141h-66l71 141h112zM120 760h107q90 0 90 -90v-580q0 -90 -90 -90h-107q-90 0 -90 90v580q0 90 90 90zM126 678v-596h95v596h-95z" />
    <glyph glyph-name="ocircumflex" unicode="&#xf4;" horiz-adv-x="347" 
d="M218 956h-91l-81 -141h70l58 96l58 -96h70zM120 760h107q90 0 90 -90v-580q0 -90 -90 -90h-107q-90 0 -90 90v580q0 90 90 90zM126 678v-596h95v596h-95z" />
    <glyph glyph-name="otilde" unicode="&#xf5;" horiz-adv-x="347" 
d="M108 815l25 95l51 -90h71l36 140h-51l-25 -95l-51 90h-71l-36 -140h51zM120 760h107q90 0 90 -90v-580q0 -90 -90 -90h-107q-90 0 -90 90v580q0 90 90 90zM126 678v-596h95v596h-95z" />
    <glyph glyph-name="odieresis" unicode="&#xf6;" horiz-adv-x="347" 
d="M151 815h-96v108h96v-108zM293 815h-96v108h96v-108zM120 760h107q90 0 90 -90v-580q0 -90 -90 -90h-107q-90 0 -90 90v580q0 90 90 90zM126 678v-596h95v596h-95z" />
    <glyph glyph-name="divide" unicode="&#xf7;" horiz-adv-x="429" 
d="M261 480h-92v102h92v-102zM391 352h-353v66h353v-66zM261 188h-92v102h92v-102z" />
    <glyph glyph-name="oslash" unicode="&#xf8;" horiz-adv-x="347" 
d="M120 760h107q90 0 90 -90v-580q0 -90 -90 -90h-107q-90 0 -90 90v580q0 90 90 90zM126 678v-512l69 512h-69zM221 82v482l-65 -482h65z" />
    <glyph glyph-name="ugrave" unicode="&#xf9;" horiz-adv-x="345" 
d="M230 815h-66l-117 141h112zM313 760v-670q0 -90 -90 -90h-101q-90 0 -90 90v670h96v-678h89v678h96z" />
    <glyph glyph-name="uacute" unicode="&#xfa;" horiz-adv-x="345" 
d="M301 956l-117 -141h-66l71 141h112zM313 760v-670q0 -90 -90 -90h-101q-90 0 -90 90v670h96v-678h89v678h96z" />
    <glyph glyph-name="ucircumflex" unicode="&#xfb;" horiz-adv-x="345" 
d="M218 956h-91l-81 -141h70l58 96l58 -96h70zM313 760v-670q0 -90 -90 -90h-101q-90 0 -90 90v670h96v-678h89v678h96z" />
    <glyph glyph-name="udieresis" unicode="&#xfc;" horiz-adv-x="345" 
d="M151 815h-96v108h96v-108zM293 815h-96v108h96v-108zM313 760v-670q0 -90 -90 -90h-101q-90 0 -90 90v670h96v-678h89v678h96z" />
    <glyph glyph-name="yacute" unicode="&#xfd;" horiz-adv-x="344" 
d="M299 956l-117 -141h-66l71 141h112zM219 0h-94v249l-116 511h103l60 -373l60 373h103l-116 -511v-249z" />
    <glyph glyph-name="thorn" unicode="&#xfe;" horiz-adv-x="328" 
d="M33 0v760h96v-148h91q90 0 90 -90v-268q0 -90 -90 -90h-91v-164h-96zM214 244v288h-85v-288h85z" />
    <glyph glyph-name="ydieresis" unicode="&#xff;" horiz-adv-x="344" 
d="M149 815h-96v108h96v-108zM291 815h-96v108h96v-108zM219 0h-94v249l-116 511h103l60 -373l60 373h103l-116 -511v-249z" />
    <glyph glyph-name="OE" unicode="&#x152;" horiz-adv-x="479" 
d="M461 0h-341q-90 0 -90 90v580q0 44 23 67t67 23h339v-82h-142v-252h124v-82h-124v-262h144v-82zM126 678v-596h95v596h-95z" />
    <glyph glyph-name="oe" unicode="&#x153;" horiz-adv-x="479" 
d="M461 0h-341q-90 0 -90 90v580q0 44 23 67t67 23h339v-82h-142v-252h124v-82h-124v-262h144v-82zM126 678v-596h95v596h-95z" />
    <glyph glyph-name="Scaron" unicode="&#x160;" horiz-adv-x="320" 
d="M219 956l-58 -96l-58 96h-70l81 -141h91l84 141h-70zM197 540v140h-75v-254h84q90 0 90 -90v-246q0 -90 -90 -90h-92q-90 0 -90 90v129h96v-139h80v264h-84q-90 0 -90 90v236q0 90 90 90h87q90 0 90 -90v-130h-96z" />
    <glyph glyph-name="scaron" unicode="&#x161;" horiz-adv-x="320" 
d="M219 956l-58 -96l-58 96h-70l81 -141h91l84 141h-70zM197 540v140h-75v-254h84q90 0 90 -90v-246q0 -90 -90 -90h-92q-90 0 -90 90v129h96v-139h80v264h-84q-90 0 -90 90v236q0 90 90 90h87q90 0 90 -90v-130h-96z" />
    <glyph glyph-name="Ydieresis" unicode="&#x178;" horiz-adv-x="344" 
d="M149 815h-96v108h96v-108zM291 815h-96v108h96v-108zM219 0h-94v249l-116 511h103l60 -373l60 373h103l-116 -511v-249z" />
    <glyph glyph-name="florin" unicode="&#x192;" horiz-adv-x="400" 
d="M278 678l-22 -256h83v-82h-91l-29 -336q-8 -86 -94 -86h-103v82h100l30 340h-84v82h91l22 252q8 86 94 86h103v-82h-100z" />
    <glyph glyph-name="circumflex" unicode="&#x2c6;" horiz-adv-x="436" 
d="M262 956h-91l-81 -141h70l58 96l58 -96h70z" />
    <glyph glyph-name="caron" unicode="&#x2c7;" horiz-adv-x="436" 
d="M276 956l-58 -96l-58 96h-70l81 -141h91l84 141h-70z" />
    <glyph glyph-name="ring" unicode="&#x2da;" horiz-adv-x="381" 
d="M192 956q75 0 75 -70q0 -71 -75 -71q-76 0 -76 71q0 70 76 70zM158 852h67v67h-67v-67z" />
    <glyph glyph-name="tilde" unicode="&#x2dc;" horiz-adv-x="446" 
d="M163 815l25 95l51 -90h71l36 140h-51l-25 -95l-51 90h-71l-36 -140h51z" />
    <glyph glyph-name="endash" unicode="&#x2013;" horiz-adv-x="298" 
d="M286 339h-274v82h274v-82z" />
    <glyph glyph-name="emdash" unicode="&#x2014;" horiz-adv-x="366" 
d="M354 339h-342v82h342v-82z" />
    <glyph glyph-name="quoteleft" unicode="&#x2018;" horiz-adv-x="157" 
d="M28 638l68 122h33l-46 -112h45v-110h-100v100z" />
    <glyph glyph-name="quoteright" unicode="&#x2019;" horiz-adv-x="157" 
d="M129 660l-68 -122h-33l46 112h-45v110h100v-100z" />
    <glyph glyph-name="quotesinglbase" unicode="&#x201a;" horiz-adv-x="157" 
d="M129 10l-68 -122h-33l46 112h-45v110h100v-100z" />
    <glyph glyph-name="quotedblleft" unicode="&#x201c;" horiz-adv-x="307" 
d="M28 638l68 122h33l-46 -112h45v-110h-100v100zM178 638l68 122h33l-46 -112h45v-110h-100v100z" />
    <glyph glyph-name="quotedblright" unicode="&#x201d;" horiz-adv-x="307" 
d="M129 660l-68 -122h-33l46 112h-45v110h100v-100zM279 660l-68 -122h-33l46 112h-45v110h100v-100z" />
    <glyph glyph-name="quotedblbase" unicode="&#x201e;" horiz-adv-x="307" 
d="M129 10l-68 -122h-33l46 112h-45v110h100v-100zM279 10l-68 -122h-33l46 112h-45v110h100v-100z" />
    <glyph glyph-name="dagger" unicode="&#x2020;" horiz-adv-x="330" 
d="M308 462h-100v-462h-86v462h-100v76h100v222h86v-222h100v-76z" />
    <glyph glyph-name="bullet" unicode="&#x2022;" horiz-adv-x="215" 
d="M108 468q83 0 83 -86t-83 -86q-84 0 -84 86t84 86z" />
    <glyph glyph-name="ellipsis" unicode="&#x2026;" horiz-adv-x="456" 
d="M128 0h-100v110h100v-110zM278 0h-100v110h100v-110zM428 0h-100v110h100v-110z" />
    <glyph glyph-name="perthousand" unicode="&#x2030;" horiz-adv-x="704" 
d="M208 710v-202q0 -50 -50 -50h-92q-50 0 -50 50v202q0 50 50 50h92q50 0 50 -50zM129 0h-72l289 760h72zM83 700v-182h58v182h-58zM458 252v-202q0 -50 -50 -50h-92q-50 0 -50 50v202q0 50 50 50h92q50 0 50 -50zM688 252v-202q0 -50 -50 -50h-92q-50 0 -50 50v202
q0 50 50 50h92q50 0 50 -50zM333 242v-182h58v182h-58zM563 242v-182h58v182h-58z" />
    <glyph glyph-name="guilsinglleft" unicode="&#x2039;" horiz-adv-x="182" 
d="M158 554l-140 -130v-100l140 -130v97l-92 83l92 83v97z" />
    <glyph glyph-name="guilsinglright" unicode="&#x203a;" horiz-adv-x="182" 
d="M116 374l-92 -83v-97l140 130v100l-140 130v-97z" />
    <glyph glyph-name="uni203D" unicode="&#x203d;" horiz-adv-x="373" 
d="M104 760h165q90 0 90 -90v-226q0 -90 -90 -90h-44l-8 -171h-66l-20 447h106l-9 -194h35v242h-157v-124h-92v116q0 90 90 90zM136 110h96v-110h-96v110z" />
    <glyph glyph-name="Euro" unicode="&#x20ac;" horiz-adv-x="356" 
d="M238 531v149h-76v-231h108v-44h-108v-48h108v-44h-108v-231h76v148h96v-140q0 -90 -90 -90h-88q-90 0 -90 90v223h-53v44h53v48h-53v44h53v221q0 44 23 67t67 23h88q90 0 90 -90v-139h-96z" />
    <glyph glyph-name="trademark" unicode="&#x2122;" horiz-adv-x="296" 
d="M115 732h-33v-241h-34v241h-32v28h99v-28zM219 491h-33l-27 207v-207h-31v269h50l25 -218l25 218h50v-269h-32v207z" />
    <glyph glyph-name="minus" unicode="&#x2212;" horiz-adv-x="366" 
d="M326 347h-286v74h286v-74z" />
    <glyph glyph-name="notequal" unicode="&#x2260;" horiz-adv-x="366" 
d="M225 431l-23 -93h124v-74h-142l-36 -150h-60l36 150h-84v74h102l23 93h-125v74h143l36 150h60l-36 -150h83v-74h-101z" />
    <glyph glyph-name="A.ss01" 
d="M211 207l-90 -40l-16 -167h-96l91 760h138l93 -760h-100zM203 296l-35 365l-38 -398z" />
    <glyph glyph-name="Aacute.ss01" 
d="M179 815h-66l71 141h112zM211 207l-90 -40l-16 -167h-96l91 760h138l93 -760h-100zM203 296l-35 365l-38 -398z" />
    <glyph glyph-name="Acircumflex.ss01" 
d="M111 815h-70l81 141h91l84 -141h-70l-58 96zM211 207l-90 -40l-16 -167h-96l91 760h138l93 -760h-100zM203 296l-35 365l-38 -398z" />
    <glyph glyph-name="Adieresis.ss01" 
d="M146 815h-96v108h96v-108zM288 815h-96v108h96v-108zM211 207l-90 -40l-16 -167h-96l91 760h138l93 -760h-100zM203 296l-35 365l-38 -398z" />
    <glyph glyph-name="Agrave.ss01" 
d="M159 815l-117 141h112l71 -141h-66zM211 207l-90 -40l-16 -167h-96l91 760h138l93 -760h-100zM203 296l-35 365l-38 -398z" />
    <glyph glyph-name="Aring.ss01" 
d="M169 815q-76 0 -76 71q0 70 76 70q75 0 75 -70q0 -71 -75 -71zM135 852h67v67h-67v-67zM211 207l-90 -40l-16 -167h-96l91 760h138l93 -760h-100zM203 296l-35 365l-38 -398z" />
    <glyph glyph-name="Atilde.ss01" 
d="M103 815h-51l36 140h71l51 -90l25 95h51l-36 -140h-71l-51 90zM211 207l-90 -40l-16 -167h-96l91 760h138l93 -760h-100zM203 296l-35 365l-38 -398z" />
    <glyph glyph-name="B.ss01" horiz-adv-x="343" 
d="M33 760h192q90 0 90 -90v-155q0 -45 -16 -68t-54 -40q21 9 45.5 -17t24.5 -67v-233q0 -90 -90 -90h-192v760zM219 451v229h-90v-269zM129 319v-237h90v277z" />
    <glyph glyph-name="H.ss01" horiz-adv-x="359" 
d="M129 760v-358l101 45v313h96v-760h-96v355l-101 -45v-310h-96v760h96z" />
    <glyph glyph-name="I.ss01" horiz-adv-x="262" 
d="M12 0v74h71v612h-71v74h238v-74h-71v-612h71v-74h-238z" />
    <glyph glyph-name="Iacute.ss01" horiz-adv-x="262" 
d="M258 956l-117 -141h-66l71 141h112zM12 0v74h71v612h-71v74h238v-74h-71v-612h71v-74h-238z" />
    <glyph glyph-name="Icircumflex.ss01" horiz-adv-x="262" 
d="M175 956h-91l-81 -141h70l58 96l58 -96h70zM12 0v74h71v612h-71v74h238v-74h-71v-612h71v-74h-238z" />
    <glyph glyph-name="Idieresis.ss01" horiz-adv-x="262" 
d="M108 815h-96v108h96v-108zM250 815h-96v108h96v-108zM12 0v74h71v612h-71v74h238v-74h-71v-612h71v-74h-238z" />
    <glyph glyph-name="Igrave.ss01" horiz-adv-x="262" 
d="M187 815h-66l-117 141h112zM12 0v74h71v612h-71v74h238v-74h-71v-612h71v-74h-238z" />
    <glyph glyph-name="M.ss01" horiz-adv-x="509" 
d="M295 0h-80l-80 503l-14 -503h-95l28 760h114l87 -603l85 603h115l28 -760h-95l-14 503z" />
    <glyph glyph-name="N.ss01" horiz-adv-x="367" 
d="M33 0v760h100l114 -394v394h87v-760h-100v140l-114 398v-538h-87z" />
    <glyph glyph-name="Ntilde.ss01" horiz-adv-x="367" 
d="M120 815l25 95l51 -90h71l36 140h-51l-25 -95l-51 90h-71l-36 -140h51zM33 0v760h100l114 -394v394h87v-760h-100v140l-114 398v-538h-87z" />
    <glyph glyph-name="P.ss01" horiz-adv-x="328" 
d="M33 0v760h187q90 0 90 -90v-230q0 -75 -68 -105l-113 -50v-285h-96zM214 418v262h-85v-300z" />
    <glyph glyph-name="Q.ss01" horiz-adv-x="346" 
d="M120 760h106q90 0 90 -90v-580q0 -85 -82 -90l50 -88h-90l-50 88h-24q-90 0 -90 90v580q0 90 90 90zM220 86v588h-94v-588h94z" />
    <glyph glyph-name="R.ss01" horiz-adv-x="350" 
d="M231 0l-56 310l-46 -19v-291h-96v760h192q90 0 90 -90v-226q0 -67 -55 -97l62 -347h-91zM129 386l90 38v256h-90v-294z" />
    <glyph glyph-name="S.ss01" horiz-adv-x="322" 
d="M200 540v140h-80v-235l102 -29q76 -22 76 -101v-225q0 -90 -90 -90h-94q-90 0 -90 90v129h94v-139h86v245l-102 29q-76 22 -76 101v215q0 90 90 90h88q90 0 90 -90v-130h-94z" />
    <glyph glyph-name="Scaron.ss01" horiz-adv-x="322" 
d="M219 956l-58 -96l-58 96h-70l81 -141h91l84 141h-70zM200 540v140h-80v-235l102 -29q76 -22 76 -101v-225q0 -90 -90 -90h-94q-90 0 -90 90v129h94v-139h86v245l-102 29q-76 22 -76 101v215q0 90 90 90h88q90 0 90 -90v-130h-94z" />
    <glyph glyph-name="a.ss01" 
d="M211 207l-90 -40l-16 -167h-96l91 760h138l93 -760h-100zM203 296l-35 365l-38 -398z" />
    <glyph glyph-name="aacute.ss01" 
d="M179 815h-66l71 141h112zM211 207l-90 -40l-16 -167h-96l91 760h138l93 -760h-100zM203 296l-35 365l-38 -398z" />
    <glyph glyph-name="acircumflex.ss01" 
d="M111 815h-70l81 141h91l84 -141h-70l-58 96zM211 207l-90 -40l-16 -167h-96l91 760h138l93 -760h-100zM203 296l-35 365l-38 -398z" />
    <glyph glyph-name="adieresis.ss01" 
d="M146 815h-96v108h96v-108zM288 815h-96v108h96v-108zM211 207l-90 -40l-16 -167h-96l91 760h138l93 -760h-100zM203 296l-35 365l-38 -398z" />
    <glyph glyph-name="agrave.ss01" 
d="M159 815l-117 141h112l71 -141h-66zM211 207l-90 -40l-16 -167h-96l91 760h138l93 -760h-100zM203 296l-35 365l-38 -398z" />
    <glyph glyph-name="aring.ss01" 
d="M169 815q-76 0 -76 71q0 70 76 70q75 0 75 -70q0 -71 -75 -71zM135 852h67v67h-67v-67zM211 207l-90 -40l-16 -167h-96l91 760h138l93 -760h-100zM203 296l-35 365l-38 -398z" />
    <glyph glyph-name="atilde.ss01" 
d="M103 815h-51l36 140h71l51 -90l25 95h51l-36 -140h-71l-51 90zM211 207l-90 -40l-16 -167h-96l91 760h138l93 -760h-100zM203 296l-35 365l-38 -398z" />
    <glyph glyph-name="b.ss01" horiz-adv-x="343" 
d="M33 760h192q90 0 90 -90v-155q0 -45 -16 -68t-54 -40q21 9 45.5 -17t24.5 -67v-233q0 -90 -90 -90h-192v760zM219 451v229h-90v-269zM129 319v-237h90v277z" />
    <glyph glyph-name="h.ss01" horiz-adv-x="359" 
d="M129 760v-358l101 45v313h96v-760h-96v355l-101 -45v-310h-96v760h96z" />
    <glyph glyph-name="i.ss01" horiz-adv-x="262" 
d="M12 0v74h71v612h-71v74h238v-74h-71v-612h71v-74h-238z" />
    <glyph glyph-name="iacute.ss01" horiz-adv-x="262" 
d="M258 956l-117 -141h-66l71 141h112zM12 0v74h71v612h-71v74h238v-74h-71v-612h71v-74h-238z" />
    <glyph glyph-name="icircumflex.ss01" horiz-adv-x="262" 
d="M175 956h-91l-81 -141h70l58 96l58 -96h70zM12 0v74h71v612h-71v74h238v-74h-71v-612h71v-74h-238z" />
    <glyph glyph-name="idieresis.ss01" horiz-adv-x="262" 
d="M108 815h-96v108h96v-108zM250 815h-96v108h96v-108zM12 0v74h71v612h-71v74h238v-74h-71v-612h71v-74h-238z" />
    <glyph glyph-name="igrave.ss01" horiz-adv-x="262" 
d="M187 815h-66l-117 141h112zM12 0v74h71v612h-71v74h238v-74h-71v-612h71v-74h-238z" />
    <glyph glyph-name="m.ss01" horiz-adv-x="509" 
d="M295 0h-80l-80 503l-14 -503h-95l28 760h114l87 -603l85 603h115l28 -760h-95l-14 503z" />
    <glyph glyph-name="n.ss01" horiz-adv-x="367" 
d="M33 0v760h100l114 -394v394h87v-760h-100v140l-114 398v-538h-87z" />
    <glyph glyph-name="ntilde.ss01" horiz-adv-x="367" 
d="M120 815l25 95l51 -90h71l36 140h-51l-25 -95l-51 90h-71l-36 -140h51zM33 0v760h100l114 -394v394h87v-760h-100v140l-114 398v-538h-87z" />
    <glyph glyph-name="p.ss01" horiz-adv-x="328" 
d="M33 0v760h187q90 0 90 -90v-230q0 -75 -68 -105l-113 -50v-285h-96zM214 418v262h-85v-300z" />
    <glyph glyph-name="q.ss01" horiz-adv-x="346" 
d="M120 760h106q90 0 90 -90v-580q0 -85 -82 -90l50 -88h-90l-50 88h-24q-90 0 -90 90v580q0 90 90 90zM220 86v588h-94v-588h94z" />
    <glyph glyph-name="r.ss01" horiz-adv-x="350" 
d="M231 0l-56 310l-46 -19v-291h-96v760h192q90 0 90 -90v-226q0 -67 -55 -97l62 -347h-91zM129 386l90 38v256h-90v-294z" />
    <glyph glyph-name="s.ss01" horiz-adv-x="322" 
d="M200 540v140h-80v-235l102 -29q76 -22 76 -101v-225q0 -90 -90 -90h-94q-90 0 -90 90v129h94v-139h86v245l-102 29q-76 22 -76 101v215q0 90 90 90h88q90 0 90 -90v-130h-94z" />
    <glyph glyph-name="scaron.ss01" horiz-adv-x="322" 
d="M219 956l-58 -96l-58 96h-70l81 -141h91l84 141h-70zM200 540v140h-80v-235l102 -29q76 -22 76 -101v-225q0 -90 -90 -90h-94q-90 0 -90 90v129h94v-139h86v245l-102 29q-76 22 -76 101v215q0 90 90 90h88q90 0 90 -90v-130h-94z" />
    <glyph glyph-name="germandbls.ss01" horiz-adv-x="644" 
d="M200 540v140h-80v-235l102 -29q76 -22 76 -101v-225q0 -90 -90 -90h-94q-90 0 -90 90v129h94v-139h86v245l-102 29q-76 22 -76 101v215q0 90 90 90h88q90 0 90 -90v-130h-94zM522 540v140h-80v-235l102 -29q76 -22 76 -101v-225q0 -90 -90 -90h-94q-90 0 -90 90v129h94
v-139h86v245l-102 29q-76 22 -76 101v215q0 90 90 90h88q90 0 90 -90v-130h-94z" />
    <glyph glyph-name="ampersand.ss01" horiz-adv-x="367" 
d="M311 0l-29 51q-21 -51 -87 -51h-97q-90 0 -90 90v229q0 90 72 90l-27 41t-17 36t-8 43v141q0 44 23 67t67 23h91q90 0 90 -90v-100h-96v108h-79v-162l113 -207l20 113h89l-39 -240l100 -182h-96zM214 174l-110 197v-289h94z" />
    </font>
</defs>
</svg>
