<?xml version="1.0" standalone="no"?>
<!DOCTYPE svg PUBLIC "-//W3C//DTD SVG 1.1//EN" "http://www.w3.org/Graphics/SVG/1.1/DTD/svg11.dtd" >
<svg xmlns="http://www.w3.org/2000/svg">
<metadata>
This is a custom SVG webfont generated by Font Squirrel.
</metadata>
<defs>
<font id="webfontu545ql9h" horiz-adv-x="550" >
<font-face units-per-em="1000" ascent="800" descent="-200" />
<missing-glyph horiz-adv-x="218" />
<glyph unicode=" "  horiz-adv-x="218" />
<glyph unicode="&#x09;" horiz-adv-x="218" />
<glyph unicode="&#xa0;" horiz-adv-x="218" />
<glyph unicode="!" horiz-adv-x="312" d="M283 698l-115 -549h-41l94 549h62zM169 36q0 -18 -12 -30.5t-30 -12.5t-30 12.5t-12 30.5t12 30.5t30 12.5t30 -12.5t12 -30.5z" />
<glyph unicode="&#x22;" horiz-adv-x="321" d="M348 696l-51 -206h-37l27 206h61zM205 696l-51 -206h-37l27 206h61z" />
<glyph unicode="#" d="M555 465l-7 -36h-101l-59 -200h97l-7 -36h-101l-58 -193h-44l58 193h-166l-58 -193h-44l58 193h-99l7 36h103l59 200h-99l7 36h103l54 185h44l-54 -185h166l54 185h44l-54 -185h97zM403 429h-166l-59 -200h166z" />
<glyph unicode="$" d="M481 622l-12 -50q-49 17 -112 17q-78 0 -120.5 -33t-42.5 -83q0 -36 24.5 -62.5t60 -44t70.5 -37t59.5 -52t24.5 -77.5q0 -63 -54.5 -116.5t-145.5 -64.5l-20 -104h-44l20 102q-60 0 -121 17l12 53q51 -24 129 -24q75 0 121.5 38.5t46.5 86.5q0 40 -24.5 68.5t-58.5 46.5 l-70 37q-34 18 -58.5 49t-24.5 74q0 65 53 113t140 56l18 98h44l-18 -96q55 -1 103 -12z" />
<glyph unicode="%" horiz-adv-x="725" d="M375 556q0 -91 -52 -148t-121 -57q-55 0 -82.5 27t-27.5 76q0 91 52 147.5t121 56.5q55 0 82.5 -27t27.5 -75zM697 640l-610 -659l-31 27l609 659zM664 197q0 -91 -52 -148t-121 -57q-55 0 -82.5 27t-27.5 76q0 91 52 147.5t121 56.5q55 0 82.5 -27t27.5 -75zM324 548 q0 69 -65 69q-48 0 -82 -43t-34 -112q0 -70 65 -70q47 0 81.5 43.5t34.5 112.5zM613 189q0 69 -65 69q-48 0 -82 -43t-34 -112q0 -70 65 -70q47 0 81.5 43.5t34.5 112.5z" />
<glyph unicode="&#x26;" horiz-adv-x="777" d="M694 437q-28 -186 -145 -305q64 -63 122 -109l-38 -38q-62 51 -122 111q-124 -104 -285 -104q-89 0 -134 44.5t-45 109.5q0 59 31 111.5t67 83t96 72.5q-64 103 -64 156q0 70 49 117.5t128 47.5q63 0 94 -29.5t31 -76.5q0 -34 -12.5 -64t-41 -59t-51.5 -47.5t-66 -49.5 q73 -106 209 -244q45 45 78.5 116.5t44.5 156.5h54zM425 619q0 33 -19.5 52.5t-57.5 19.5q-55 0 -86 -32t-31 -81q0 -46 54 -134q36 25 55 39.5t42 37.5t33 46.5t10 51.5zM479 128q-135 139 -214 250q-78 -55 -120 -104t-42 -114q0 -52 33.5 -87.5t102.5 -35.5q131 0 240 91 z" />
<glyph unicode="'" horiz-adv-x="178" d="M205 696l-51 -206h-37l27 206h61z" />
<glyph unicode="(" horiz-adv-x="294" d="M361 755q-100 -123 -167.5 -289.5t-67.5 -329.5q0 -188 57 -318l-41 -21q-67 159 -67 333q0 168 67.5 335.5t184.5 311.5z" />
<glyph unicode=")" horiz-adv-x="294" d="M240 444q0 -168 -67.5 -335.5t-184.5 -311.5l-34 22q100 123 167.5 289.5t67.5 329.5q0 188 -57 318l41 21q67 -159 67 -333z" />
<glyph unicode="*" horiz-adv-x="356" d="M380 639l-112 -49l92 -54l-25 -37l-86 66l-16 -118l-44 7l28 108l-97 -62l-20 40l111 49l-92 54l24 35l85 -64l17 118l44 -7l-29 -109l100 62z" />
<glyph unicode="+" d="M518 320l-9 -45h-206l-41 -215h-50l41 215h-204l9 45h204l41 214h50l-41 -214h206z" />
<glyph unicode="," horiz-adv-x="196" d="M64 79q33 0 39 -35q1 -7 1 -14q0 -49 -58 -112q-26 -27 -61 -53l-21 25q75 64 75 110q0 14 -6 26q-4 9 -4 18t5 18q10 17 30 17z" />
<glyph unicode="-" horiz-adv-x="326" d="M289 319l-9 -45h-226l9 45h226z" />
<glyph unicode="." horiz-adv-x="196" d="M107 38q0 -20 -12 -32.5t-31 -12.5q-17 0 -29 12t-12 29q0 19 12.5 32t30.5 13t29.5 -12t11.5 -29z" />
<glyph unicode="/" horiz-adv-x="405" d="M493 757l-518 -918h-50l518 918h50z" />
<glyph unicode="0" d="M520 472q0 -68 -16.5 -145.5t-49.5 -155t-94 -128.5t-139 -51q-84 0 -123.5 49.5t-39.5 136.5q0 68 16.5 145.5t49.5 155t94 128.5t139 51q84 0 123.5 -49.5t39.5 -136.5zM463 464q0 150 -115 150q-60 0 -108 -47.5t-73.5 -118.5t-38.5 -139t-13 -123q0 -73 27 -111 t90 -38q48 0 89 32t66.5 80.5t43 108t25 112t7.5 94.5z" />
<glyph unicode="1" d="M448 48l-9 -48h-404l9 48h185l105 551l-187 -69l-2 49l207 71h47l-115 -602h164z" />
<glyph unicode="2" d="M496 509q0 -71 -42 -139t-166 -167l-192 -154v-1q74 2 228 2h114l-10 -50h-411l8 42l237 196q104 86 141 141.5t37 120.5q0 51 -31.5 82.5t-90.5 31.5q-43 0 -89 -17t-77 -40l-18 43q95 58 192 58q81 0 125.5 -42t44.5 -107z" />
<glyph unicode="3" d="M498 534q0 -67 -45 -116t-119 -68l-1 -1q58 -7 89.5 -41.5t31.5 -89.5q0 -39 -17.5 -77.5t-51.5 -72.5t-92.5 -55t-132.5 -21q-64 0 -115 16l11 52q56 -21 117 -21q110 0 166 52.5t56 119.5q0 52 -40.5 81t-115.5 29q-52 0 -97 -4l9 46h16q64 0 113.5 10.5t79 26.5 t48.5 38t26 43.5t7 44.5q0 41 -31 64.5t-84 23.5q-72 0 -155 -40l-3 49q88 35 165 35q79 0 122 -34t43 -90z" />
<glyph unicode="4" d="M479 650l-84 -442h124l-10 -49h-124l-30 -159h-53l30 159h-319l5 40l389 451h72zM416 593h-1l-335 -388q112 3 262 3z" />
<glyph unicode="5" d="M516 650l-10 -52h-282l-41 -212q35 3 70 3q100 0 152 -41.5t52 -108.5q0 -100 -81.5 -173.5t-215.5 -73.5q-63 0 -115 13l10 52q52 -19 115 -19q105 0 167.5 54.5t62.5 138.5q0 113 -163 113q-63 0 -111 -8l60 314h330z" />
<glyph unicode="6" d="M508 656l-9 -48q-23 3 -52 3q-218 0 -305 -255q-4 -10 -19 -58h1q31 50 85 78t111 28q83 0 127 -42t44 -109q0 -108 -75.5 -184.5t-185.5 -76.5q-83 0 -127 50t-44 140q0 24 4 56.5t15.5 79.5t30 92t50.5 90.5t72.5 80t101 56t132.5 21.5q27 0 43 -2zM435 243 q0 54 -32.5 85t-95.5 31q-83 0 -137 -58.5t-54 -130.5q0 -62 33.5 -98t97.5 -36q78 0 133 59t55 148z" />
<glyph unicode="7" d="M567 650l-9 -47q-230 -312 -391 -603h-65q200 337 395 600q-36 -2 -270 -2h-100l10 52h430z" />
<glyph unicode="8" d="M515 534q0 -66 -41 -108.5t-136 -89.5q60 -31 93.5 -65.5t33.5 -87.5q0 -85 -71.5 -138t-168.5 -53q-84 0 -132 34.5t-48 95.5q0 63 48 113t147 97q-52 28 -81.5 59.5t-29.5 79.5q0 75 63.5 131t160.5 56q77 0 119.5 -33.5t42.5 -90.5zM458 525q0 42 -31 65t-83 23 q-71 0 -114.5 -41t-43.5 -93q0 -38 27.5 -63.5t81.5 -55.5q92 45 127.5 81t35.5 84zM408 177q0 32 -19.5 58.5t-41.5 40.5t-62 34q-106 -49 -144.5 -93t-38.5 -89q0 -41 34.5 -66t98.5 -25q69 0 121 36.5t52 103.5z" />
<glyph unicode="9" d="M516 477q0 -24 -3.5 -56t-15 -79.5t-29 -93.5t-49.5 -93.5t-72.5 -82.5t-101.5 -57.5t-134 -22.5q-41 0 -74 6l9 51q41 -9 77 -9q111 0 183 59t114 178q14 42 19 50h-1q-73 -85 -186 -85q-79 0 -121.5 41.5t-42.5 113.5q0 102 71 181.5t183 79.5q81 0 127.5 -45 t46.5 -136zM459 480q0 59 -33 96.5t-95 37.5q-80 0 -133.5 -63t-53.5 -143q0 -57 31 -87.5t89 -30.5q81 0 138 56t57 134z" />
<glyph unicode=":" horiz-adv-x="275" d="M216 338q0 -18 -12 -30.5t-30 -12.5t-30 12.5t-12 30.5t12 30.5t30 12.5t30 -12.5t12 -30.5zM158 36q0 -18 -12 -30.5t-30 -12.5t-30 12.5t-12 30.5t12 30.5t30 12.5t30 -12.5t12 -30.5z" />
<glyph unicode=";" horiz-adv-x="275" d="M216 338q0 -18 -12 -30.5t-30 -12.5t-30 12.5t-12 30.5t12 30.5t30 12.5t30 -12.5t12 -30.5zM117 79q33 0 39 -35q1 -7 1 -14q0 -49 -58 -112q-26 -27 -61 -53l-21 25q75 64 75 110q0 14 -6 26q-4 9 -4 18t5 18q10 17 30 17z" />
<glyph unicode="&#x3c;" d="M479 541l-321 -236l237 -239l-37 -34l-268 277l359 268z" />
<glyph unicode="=" d="M519 396l-8 -46h-434l8 46h434zM491 245l-9 -46h-434l9 46h434z" />
<glyph unicode="&#x3e;" d="M480 300l-359 -268l-30 36l321 236l-237 239l37 34z" />
<glyph unicode="?" horiz-adv-x="432" d="M402 527q0 -37 -17.5 -69t-42.5 -54l-55 -48q-29 -26 -52 -51.5t-35 -66.5q-9 -25 -9 -55q0 -16 3 -34h-53q-2 19 -2 36q0 40 12 73q18 49 49.5 80t64 58.5t56 59.5t23.5 69q0 47 -46.5 82.5t-121.5 46.5l16 49q96 -12 153 -62t57 -114zM188 36q0 -18 -12 -30.5 t-30 -12.5t-30 12.5t-12 30.5t12 30.5t30 12.5t30 -12.5t12 -30.5z" />
<glyph unicode="@" horiz-adv-x="966" d="M891 434q0 -133 -68 -219t-164 -86q-65 0 -89 37q-14 22 -14 48q0 17 6 36h-3q-14 -36 -64 -78.5t-100 -42.5q-85 0 -85 100q0 47 13.5 96t41 95t76 75.5t109.5 29.5q70 0 123 -10l-64 -227q-8 -28 -8 -48.5t8 -35.5q16 -28 59 -28q76 0 125.5 73.5t49.5 184.5 q0 107 -69 180.5t-210 73.5q-168 0 -292 -132.5t-124 -318.5q0 -129 76.5 -205t215.5 -76q85 0 164 23l2 -47q-79 -23 -174 -23q-158 0 -246.5 86.5t-88.5 238.5q0 135 66 250t174.5 180.5t231.5 65.5q159 0 240.5 -84t81.5 -212zM611 476q-25 7 -65 7q-71 0 -126.5 -71 t-55.5 -171q0 -63 43 -63q49 0 102.5 62.5t84.5 174.5z" />
<glyph unicode="A" horiz-adv-x="596" d="M527 0h-58l-28 177h-313l-98 -177h-61l381 675h56zM433 221l-53 303q-9 53 -13 92h-1q-20 -42 -46 -89l-168 -306h281z" />
<glyph unicode="B" horiz-adv-x="548" d="M521 553q0 -76 -44.5 -127.5t-108.5 -70.5v-1q53 -9 83.5 -44.5t30.5 -82.5q0 -98 -75 -164t-212 -66q-9 0 -144 3l128 675q15 0 68.5 1t97.5 1q92 0 134 -34t42 -90zM466 543q0 44 -29.5 67.5t-107.5 23.5q-41 0 -105 -2l-50 -260q23 -1 69 -1q99 0 161 45t62 127z M426 220q0 109 -177 109q-65 0 -83 -1l-53 -281q38 -6 98 -6q101 0 158 51.5t57 127.5z" />
<glyph unicode="C" horiz-adv-x="575" d="M595 661l-15 -49q-77 26 -155 26q-77 0 -138 -35t-97.5 -93.5t-55 -130.5t-18.5 -151q0 -89 43.5 -138.5t149.5 -49.5q90 0 171 37l8 -44q-95 -40 -194 -40q-236 0 -236 228q0 93 25 175.5t71.5 146.5t120 101.5t163.5 37.5q81 0 157 -21z" />
<glyph unicode="D" horiz-adv-x="675" d="M650 432q0 -85 -27 -161t-79 -138t-140 -99t-200 -37q-34 0 -83 1.5t-70 1.5l128 675q25 0 86.5 1.5t91.5 1.5q157 0 225 -67.5t68 -178.5zM594 425q0 210 -246 210q-34 0 -124 -3l-111 -584q54 -7 99 -7q98 0 173.5 32.5t120 88t66.5 122t22 141.5z" />
<glyph unicode="E" horiz-adv-x="499" d="M500 675l-8 -43h-268l-50 -262h256l-8 -43h-256l-53 -283h268l-9 -44h-321l128 675h321z" />
<glyph unicode="F" horiz-adv-x="462" d="M500 675l-8 -43h-268l-50 -262h254l-8 -43h-254l-62 -327h-53l128 675h321z" />
<glyph unicode="G" horiz-adv-x="675" d="M648 655l-16 -53q-80 37 -168 37q-148 0 -249.5 -111.5t-101.5 -274.5q0 -89 54.5 -152.5t167.5 -63.5q80 0 160 25l52 272h53l-59 -307q-104 -35 -215 -35q-131 0 -200.5 71t-69.5 187q0 190 121.5 311.5t295.5 121.5q97 0 175 -28z" />
<glyph unicode="H" horiz-adv-x="695" d="M676 675l-128 -675h-53l63 329h-393l-63 -329h-53l128 675h53l-57 -302h393l57 302h53z" />
<glyph unicode="I" horiz-adv-x="249" d="M232 675l-128 -675h-53l128 675h53z" />
<glyph unicode="J" horiz-adv-x="315" d="M300 675l-97 -511q-17 -88 -60 -129t-122 -41q-32 0 -68 8l10 51q35 -13 68 -13q47 0 76.5 28t42.5 96l97 511h53z" />
<glyph unicode="K" horiz-adv-x="531" d="M578 675l-349 -333l226 -342h-69l-218 345l-65 -345h-53l128 675h53l-63 -330l338 330h72z" />
<glyph unicode="L" horiz-adv-x="415" d="M371 44l-9 -44h-311l128 675h53l-119 -631h258z" />
<glyph unicode="M" horiz-adv-x="875" d="M797 675l-33 -675h-54l22 449q5 103 12 178h-1q-9 -20 -50 -100l-276 -527h-66l-71 495q-12 87 -15 132h-1q-19 -69 -52 -178l-138 -449h-58l219 675h71l71 -501q9 -64 13 -127h1q25 55 58 118l267 510h81z" />
<glyph unicode="N" horiz-adv-x="692" d="M676 675l-129 -675h-62l-215 487q-38 88 -55 140q-20 -137 -52 -309l-59 -318h-54l128 675h63l214 -486q30 -67 56 -138l49 282l62 342h54z" />
<glyph unicode="O" horiz-adv-x="692" d="M671 440q0 -190 -111 -319t-271 -129q-116 0 -175 63t-59 181q0 122 49 224.5t136.5 162.5t193.5 60q113 0 175 -63.5t62 -179.5zM612 434q0 97 -47 150.5t-140 53.5q-132 0 -221.5 -115.5t-89.5 -280.5q0 -95 47 -149.5t134 -54.5q130 0 223.5 114t93.5 282z" />
<glyph unicode="P" horiz-adv-x="505" d="M514 525q0 -109 -88.5 -179t-204.5 -70q-37 0 -65 3l-53 -279h-53l128 675q68 3 145 3q95 0 143 -41.5t48 -111.5zM458 515q0 58 -35 88.5t-114 30.5q-50 0 -86 -3l-58 -304q29 -6 70 -6q89 0 156 55.5t67 138.5z" />
<glyph unicode="Q" horiz-adv-x="693" d="M671 440q0 -190 -111 -319t-271 -129q-116 0 -175 63t-59 181q0 122 49 224.5t136.5 162.5t193.5 60q113 0 175 -63.5t62 -179.5zM621 -118l-9 -46q-27 -4 -53 -4q-39 0 -76 8q-61 14 -115 28q-34 8 -68 8l-40 -3l8 46q20 3 41 3q61 0 137 -21q77 -21 138 -21q19 0 37 2z M612 434q0 97 -47 150.5t-140 53.5q-132 0 -221.5 -115.5t-89.5 -280.5q0 -95 47 -149.5t134 -54.5q130 0 223.5 114t93.5 282z" />
<glyph unicode="R" horiz-adv-x="529" d="M503 537q0 -97 -79.5 -155t-182.5 -58q16 -24 43 -69l156 -255h-67l-193 325h-15l-61 -325h-53l128 675q59 3 137 3q187 0 187 -141zM448 533q0 53 -33 77.5t-107 24.5q-50 0 -84 -3l-50 -263q24 -2 64 -2q91 0 150.5 43t59.5 123z" />
<glyph unicode="S" horiz-adv-x="447" d="M430 674l-10 -50q-44 15 -94 15q-80 0 -124 -40.5t-44 -93.5q0 -39 22.5 -70t54.5 -53l64 -46q32 -23 54.5 -57t22.5 -78q0 -91 -71 -150t-182 -59q-62 0 -101 14l11 54q48 -20 97 -20q89 0 140 42.5t51 111.5q0 37 -22 66.5t-53 50.5l-64 44q-32 23 -54 58t-22 80 q0 79 62.5 134.5t169.5 55.5q49 0 92 -9z" />
<glyph unicode="T" horiz-adv-x="511" d="M572 675l-8 -44h-209l-121 -631h-53l121 631h-210l8 44h472z" />
<glyph unicode="U" horiz-adv-x="688" d="M671 675l-81 -428q-48 -255 -299 -255q-70 0 -116 18t-65.5 49t-25.5 73q-1 14 -1 28q0 30 8 63l86 452h53l-86 -449q-7 -34 -7 -63q0 -51 23 -81q34 -46 138 -46q102 0 160.5 49.5t80.5 169.5l80 420h52z" />
<glyph unicode="V" horiz-adv-x="595" d="M657 675l-383 -675h-57l-118 675h58l77 -472q15 -87 21 -148h1q24 56 79 153l262 467h60z" />
<glyph unicode="W" horiz-adv-x="937" d="M975 675l-308 -675h-69l-52 534q-6 72 -7 95h-1q-17 -44 -42 -97l-250 -532h-70l-52 675h55l36 -507q4 -61 4 -122h1q29 73 51 119l240 510h71l53 -520q6 -55 6 -109h1q18 49 37 92l240 537h56z" />
<glyph unicode="X" horiz-adv-x="557" d="M594 675l-271 -323l162 -352h-62l-136 308l-250 -308h-64l294 353l-150 322h60l126 -278l227 278h64z" />
<glyph unicode="Y" horiz-adv-x="502" d="M567 675l-293 -428l-47 -247h-53l47 247l-125 428h55l73 -260q16 -55 31 -123h1q22 40 85 134l164 249h62z" />
<glyph unicode="Z" horiz-adv-x="516" d="M549 675l-7 -37l-414 -520l-60 -72q24 3 186 3h180l-10 -49h-426l7 37l392 494q32 40 85 98q-80 -2 -163 -2h-190l9 48h411z" />
<glyph unicode="[" horiz-adv-x="310" d="M369 766l-8 -39h-123l-168 -880h124l-8 -40h-172l183 959h172z" />
<glyph unicode="\" horiz-adv-x="397" d="M328 -161h-47l-168 918h45z" />
<glyph unicode="]" horiz-adv-x="310" d="M310 766l-183 -959h-172l8 40h123l168 880h-124l8 39h172z" />
<glyph unicode="^" d="M472 371l-43 -22l-100 282l-201 -282l-36 21l222 305h46z" />
<glyph unicode="_" d="M471 -211l-8 -41h-550l8 41h550z" />
<glyph unicode="`" horiz-adv-x="358" d="M293 605l-35 -24l-102 122l45 31z" />
<glyph unicode="a" horiz-adv-x="534" d="M482 489l-93 -489h-55q12 61 68 245l-2 1q-12 -30 -25 -57.5t-37 -65.5t-50.5 -65.5t-64 -47t-77.5 -19.5q-106 0 -106 147q0 70 18 133t53.5 116t96 84.5t138.5 31.5q70 0 136 -14zM423 450q-44 11 -86 11q-64 0 -113 -28.5t-76 -75.5t-40.5 -100.5t-13.5 -109.5 q0 -111 63 -111q55 0 112 65t94 147.5t51 154.5z" />
<glyph unicode="b" horiz-adv-x="534" d="M494 359q0 -70 -18 -133t-53.5 -116t-96 -84.5t-138.5 -31.5q-70 0 -136 14l138 722h52l-52 -271q-7 -39 -56 -203l2 -1q43 111 107.5 181t144.5 70q106 0 106 -147zM440 350q0 111 -63 111q-55 0 -111.5 -65t-93.5 -146.5t-51 -152.5l-10 -50q41 -11 86 -11 q64 0 113 28.5t76 75.5t40.5 100.5t13.5 109.5z" />
<glyph unicode="c" horiz-adv-x="420" d="M430 485l-12 -46q-49 23 -105 23q-69 0 -120 -48.5t-73.5 -114.5t-22.5 -136q0 -54 24.5 -88.5t94.5 -34.5q66 0 126 28l8 -43q-69 -30 -146 -30q-164 0 -164 156q0 147 75.5 249.5t203.5 102.5q59 0 111 -18z" />
<glyph unicode="d" horiz-adv-x="534" d="M528 730l-105 -550l-34 -180h-54q10 59 67 245l-2 1q-12 -30 -25 -57.5t-37 -65.5t-50.5 -65.5t-64 -47t-77.5 -19.5q-106 0 -106 147q0 70 18 133t53.5 116t96 84.5t138.5 31.5q36 0 85 -7l44 234h53zM423 450q-44 11 -86 11q-64 0 -113 -28.5t-76 -75.5t-40.5 -100.5 t-13.5 -109.5q0 -111 63 -111q55 0 112 65t94 147.5t51 154.5z" />
<glyph unicode="e" horiz-adv-x="468" d="M439 400q0 -152 -332 -166q-7 -32 -7 -76q0 -71 27 -95.5t96 -24.5q70 0 134 28l5 -44q-69 -30 -160 -30q-80 0 -119.5 35.5t-39.5 118.5q0 93 29 173t90.5 133t145.5 53q63 0 97 -29.5t34 -75.5zM383 394q0 33 -22.5 51t-59.5 18q-67 0 -115 -50t-69 -131 q140 6 203 33.5t63 78.5z" />
<glyph unicode="f" horiz-adv-x="331" d="M471 725l-15 -45q-41 11 -81 11q-128 0 -155 -159l-6 -35h156l-9 -42h-155l-93 -487q-23 -122 -77 -175t-145 -53q-45 0 -85 9l14 48q37 -12 82 -12q65 0 102.5 40.5t55.5 138.5l94 491h-116l9 42h115l6 33q36 204 218 204q40 0 85 -9z" />
<glyph unicode="g" horiz-adv-x="533" d="M482 489l-105 -549q-37 -200 -270 -200q-68 0 -124 17l11 57q62 -25 130 -25q88 0 137.5 40t68.5 138q22 117 70 272l-2 1q-11 -28 -24 -54.5t-37 -64t-50 -64.5t-63.5 -46.5t-77.5 -19.5q-106 0 -106 147q0 70 18 133t53.5 116t96 84.5t138.5 31.5q70 0 136 -14z M423 450q-44 11 -86 11q-64 0 -113 -28.5t-76 -75.5t-40.5 -100.5t-13.5 -109.5q0 -111 63 -111q55 0 112 65t94 147.5t51 154.5z" />
<glyph unicode="h" horiz-adv-x="567" d="M486 334l-64 -334h-52l62 324q6 34 6 60t-6 44q-14 33 -57 33q-54 0 -111 -65t-94 -147t-50 -152l-18 -97h-52l139 730h52l-49 -256q-12 -66 -58 -213l2 -1q41 104 105.5 175t143.5 71q66 0 91 -44q16 -28 16 -70q0 -26 -6 -58z" />
<glyph unicode="i" horiz-adv-x="247" d="M242 662q0 -18 -11.5 -30t-28.5 -12q-16 0 -27 11t-11 27q0 18 11.5 30t28.5 12q16 0 27 -11t11 -27zM197 497l-95 -497h-52l95 497h52z" />
<glyph unicode="j" horiz-adv-x="251" d="M246 662q0 -18 -11.5 -30t-28.5 -12q-16 0 -27 11t-11 27q0 18 11.5 30t28.5 12q16 0 27 -11t11 -27zM201 497l-111 -579q-19 -95 -59 -136.5t-121 -41.5q-34 0 -62 7l10 49q30 -11 60 -11q57 0 81.5 32.5t42.5 123.5l107 556h52z" />
<glyph unicode="k" horiz-adv-x="447" d="M437 481l-225 -206l166 -275h-65l-158 276l-53 -276h-52l139 730h52l-86 -453l249 240z" />
<glyph unicode="l" horiz-adv-x="247" d="M241 730l-139 -730h-52l139 730h52z" />
<glyph unicode="m" horiz-adv-x="871" d="M790 334l-64 -334h-52l62 324q6 34 6 60q0 78 -59 78q-72 0 -149 -115.5t-102 -249.5l-18 -97h-52l62 324q6 34 6 60q0 78 -59 78q-72 0 -149 -115.5t-102 -249.5l-18 -97h-52l50 259l45 238h54q-15 -79 -65 -236l2 -1q39 102 103.5 174t141.5 72q49 0 73.5 -25.5 t24.5 -71.5q0 -47 -33 -148l2 -1q39 102 103.5 174t141.5 72q63 0 88 -44q15 -28 15 -69q0 -27 -6 -59z" />
<glyph unicode="n" horiz-adv-x="567" d="M486 334l-64 -334h-52l62 324q6 34 6 60t-6 44q-14 33 -57 33q-54 0 -111 -65t-94 -147t-50 -152l-18 -97h-52l50 259l45 238h54q-15 -79 -65 -236l2 -1q41 104 105.5 175t143.5 71q66 0 91 -44q16 -28 16 -70q0 -26 -6 -58z" />
<glyph unicode="o" horiz-adv-x="534" d="M495 328q0 -149 -84.5 -242.5t-197.5 -93.5q-84 0 -127.5 44.5t-43.5 130.5q0 144 78 241t200 97q87 0 131 -47.5t44 -129.5zM439 324q0 138 -127 138q-92 0 -153.5 -84.5t-61.5 -199.5q0 -142 128 -142q85 0 149.5 80t64.5 208z" />
<glyph unicode="p" horiz-adv-x="534" d="M494 359q0 -70 -18 -133t-53.5 -115.5t-96 -84t-138.5 -31.5q-40 0 -86 7l-48 -254h-52l98 510l45 239h54q-12 -64 -65 -241l2 -1q43 111 107.5 181t144.5 70q106 0 106 -147zM440 350q0 111 -63 111q-55 0 -111.5 -65t-93.5 -146.5t-51 -152.5l-9 -45q42 -15 86 -15 q63 0 112 28.5t76 75.5t40.5 100t13.5 109z" />
<glyph unicode="q" horiz-adv-x="534" d="M482 489l-141 -741h-52l48 252q16 83 65 245l-2 1q-12 -30 -25 -57.5t-37 -65.5t-50.5 -65.5t-64 -47t-77.5 -19.5q-106 0 -106 147q0 70 18 133t53.5 116t96 84.5t138.5 31.5q70 0 136 -14zM423 450q-44 11 -86 11q-64 0 -113 -28.5t-76 -75.5t-40.5 -100.5 t-13.5 -109.5q0 -111 64 -111q54 0 111 65t94 147.5t51 154.5z" />
<glyph unicode="r" horiz-adv-x="348" d="M370 505l-9 -52q-8 2 -17 2q-30 0 -62 -27q-42 -35 -73.5 -92t-54 -116t-30.5 -103l-22 -117h-52l50 259l45 238h53q-14 -76 -60 -216l2 -1q25 57 47 96t50.5 73.5t61.5 48.5q22 9 46 9q12 0 25 -2z" />
<glyph unicode="s" horiz-adv-x="385" d="M346 497l-10 -48q-38 13 -83 13q-57 0 -88.5 -26t-31.5 -66q0 -32 27 -59.5t59 -45.5t59 -49t27 -70q0 -64 -54.5 -109t-147.5 -45q-45 0 -82 6l10 54q44 -13 85 -13q61 0 98 25.5t37 73.5q0 25 -17.5 46.5t-43.5 38.5l-50 35q-26 18 -43.5 45t-17.5 61q0 61 48 101 t133 40q46 0 86 -8z" />
<glyph unicode="t" horiz-adv-x="361" d="M368 497l-9 -42h-152l-56 -295q-7 -39 -7 -64q0 -20 4 -30q11 -25 55 -25q43 0 75 9v-48q-47 -9 -84 -9q-71 0 -92 35q-13 21 -13 58q0 26 6 60l59 309h-116l9 42h116l32 170l56 15l-36 -185h153z" />
<glyph unicode="u" horiz-adv-x="567" d="M517 497l-50 -259l-45 -238h-54q15 79 65 236l-2 1q-41 -104 -105.5 -175t-143.5 -71q-66 0 -92 45q-15 27 -15 69q0 26 6 58l64 334h52l-62 -324q-6 -34 -6 -60t7 -43q13 -34 56 -34q54 0 111 65t94 147t50 152l18 97h52z" />
<glyph unicode="v" horiz-adv-x="452" d="M479 496l-272 -496h-54l-91 497h58l59 -366q7 -45 10 -75h1l243 461z" />
<glyph unicode="w" horiz-adv-x="767" d="M789 497l-252 -497h-63l-50 348q-8 56 -10 89h-1l-217 -437h-67l-57 497h57l32 -340q8 -86 8 -103h1l222 443h65l47 -339q9 -71 11 -105h1l226 464z" />
<glyph unicode="x" horiz-adv-x="502" d="M513 484l-232 -235l140 -249h-65l-113 210l-224 -232l-35 36l237 237l-132 246h63l107 -207l220 227z" />
<glyph unicode="y" horiz-adv-x="460" d="M475 500q-211 -499 -386 -673q-88 -86 -166 -86q-39 0 -66 7l10 52q27 -10 64 -10q61 0 126 73q36 40 51.5 83.5t15.5 105.5q0 194 -69 445h60q62 -250 62 -424q0 -38 -10 -81h1q127 215 259 525z" />
<glyph unicode="z" horiz-adv-x="424" d="M413 497l-7 -36l-334 -414q66 2 146 2h115l-10 -49h-322l7 37l334 415q-74 -2 -143 -2h-108l10 47h312z" />
<glyph unicode="{" horiz-adv-x="315" d="M383 766l-7 -39q-54 0 -80.5 -28t-39.5 -97l-28 -146q-24 -125 -119 -137v-2q43 -7 60 -42q10 -21 10 -50q0 -19 -4 -41l-41 -213q-6 -32 -6 -55q0 -27 8 -42q15 -27 68 -27l-7 -40h-15q-103 0 -103 107q0 27 7 61l42 214q4 21 4 37q0 29 -12 44q-19 23 -80 27l9 46 q66 4 92.5 26.5t37.5 81.5l28 147q32 168 159 168h17z" />
<glyph unicode="|" horiz-adv-x="276" d="M254 748l-190 -1000h-41l190 1000h41z" />
<glyph unicode="}" horiz-adv-x="316" d="M310 343l-9 -46q-66 -4 -92.5 -26.5t-37.5 -81.5l-40 -213q-16 -86 -53 -127t-106 -41h-17l8 40q54 0 80 27.5t39 96.5l40 212q23 125 119 137v2q-43 7 -60 42q-10 21 -10 50q0 19 4 41l29 147q7 33 7 56q0 26 -9 41q-15 28 -68 28l7 39h12q70 0 92 -47q13 -29 13 -66 q0 -25 -6 -55l-30 -148q-4 -21 -4 -37q0 -29 12 -44q19 -23 80 -27z" />
<glyph unicode="~" d="M541 565q-3 -60 -37.5 -98t-88.5 -38q-30 0 -52.5 12t-36.5 29t-26.5 34t-30 29t-40.5 12q-36 0 -57 -28t-24 -69h-40q3 60 37.5 98t88.5 38q30 0 52.5 -12t36.5 -29t26.5 -34t30 -29t40.5 -12q36 0 57 28t24 69h40z" />
<glyph unicode="&#xa1;" horiz-adv-x="312" d="M227 461q0 -18 -12 -30.5t-30 -12.5t-30 12.5t-12 30.5t12 30.5t30 12.5t30 -12.5t12 -30.5zM185 348l-94 -549h-62l115 549h41z" />
<glyph unicode="&#xa2;" d="M510 532l-18 -45q-57 28 -120 28q-98 0 -160.5 -67t-62.5 -174q0 -121 143 -121q71 0 146 35l7 -45q-71 -32 -140 -36l-20 -107h-45l20 107q-81 6 -123.5 43.5t-42.5 113.5q0 131 72 206t180 87l18 93h45l-18 -91q60 -2 119 -27z" />
<glyph unicode="&#xa3;" d="M517 640l-18 -46q-56 21 -106 21q-41 0 -70 -17t-45 -41.5t-25 -63.5t-11.5 -72.5t-2.5 -78.5h169l-8 -42h-161q0 -91 -29 -145.5t-102 -108.5q44 2 85 2h239l-9 -48h-393l7 38q97 74 123 122t26 140h-117l8 42h109q0 67 8 117t29.5 98.5t67 74.5t113.5 26q64 0 113 -18z " />
<glyph unicode="&#xa4;" d="M546 557l-103 -104q18 -26 18 -72q0 -104 -71 -171l69 -110l-39 -28l-63 113q-50 -31 -104 -31q-53 0 -79 17l-93 -99l-33 30l95 94q-24 30 -24 84q0 113 79 180l-63 100l40 27l57 -105q43 23 94 23q59 0 91 -23l100 105zM410 372q0 91 -94 91q-68 0 -106.5 -53.5 t-38.5 -121.5q0 -92 93 -92q61 0 103.5 54.5t42.5 121.5z" />
<glyph unicode="&#xa5;" d="M581 650l-265 -377h162l-8 -41h-175l-15 -81h174l-7 -41h-175l-21 -110h-53l21 110h-174l8 41h174l15 81h-174l8 41h162l-114 377h57l69 -235q16 -54 31 -124h1q34 62 84 134l155 225h60z" />
<glyph unicode="&#xa6;" horiz-adv-x="276" d="M254 748l-70 -368h-41l70 368h41zM135 126l-71 -378h-41l71 378h41z" />
<glyph unicode="&#xa7;" horiz-adv-x="500" d="M426 725l-10 -46q-33 11 -60 11q-61 0 -88.5 -37t-27.5 -78q0 -31 25 -72t54.5 -75t54.5 -83t25 -95q0 -96 -107 -167q21 -39 21 -77q0 -67 -49 -117.5t-124 -50.5q-42 0 -75 11l10 46q38 -13 70 -13q56 0 85.5 37t29.5 78q0 27 -16.5 58.5t-39.5 61.5l-46 62 q-23 32 -39.5 70.5t-16.5 75.5q0 93 107 168q-23 45 -23 79q0 24 9.5 50t28.5 52t54 43t81 17q39 0 67 -9zM346 243q0 26 -12 55t-26 50t-39 55t-37 52q-77 -47 -77 -124q0 -26 12 -55t25.5 -49.5t39 -54.5t36.5 -51q78 47 78 122z" />
<glyph unicode="&#xa8;" horiz-adv-x="535" d="M418 662q0 -18 -11.5 -29.5t-28.5 -11.5q-16 0 -27 11t-11 26q0 18 11.5 29.5t28.5 11.5q16 0 27 -11t11 -26zM236 662q0 -18 -11.5 -29.5t-28.5 -11.5q-16 0 -27 11t-11 26q0 18 11.5 29.5t28.5 11.5q16 0 27 -11t11 -26z" />
<glyph unicode="&#xa9;" horiz-adv-x="735" d="M710 351q0 -145 -101 -244t-240 -99q-138 0 -228 90.5t-90 223.5q0 144 101.5 243t240.5 99q134 0 225.5 -90.5t91.5 -222.5zM664 350q0 111 -79.5 191t-193.5 80q-120 0 -206.5 -85.5t-86.5 -211.5q0 -113 79.5 -193.5t193.5 -80.5q120 0 206.5 86t86.5 214zM507 503 l-11 -43q-33 15 -77 15q-39 0 -68.5 -18.5t-45 -48t-22.5 -60.5t-7 -61q0 -87 84 -87q46 0 90 15v-41q-45 -15 -96 -15q-129 0 -129 118q0 102 55 169.5t146 67.5q42 0 81 -11z" />
<glyph unicode="&#xaa;" horiz-adv-x="368" d="M386 671q-49 -253 -58 -310h-48q5 31 32 111h-1q-52 -116 -143 -116q-79 0 -79 94q0 95 53 161.5t147 66.5q51 0 97 -7zM344 289l-8 -43h-265l8 43h265zM334 634q-25 6 -55 6q-65 0 -103.5 -54t-38.5 -125q0 -64 41 -64q50 0 91.5 60.5t58.5 145.5z" />
<glyph unicode="&#xab;" horiz-adv-x="468" d="M431 434l-132 -139l88 -140l-42 -26l-103 168l154 165zM255 434l-124 -139l80 -140l-42 -26l-95 168l146 165z" />
<glyph unicode="&#xac;" d="M488 320l-40 -209h-45l31 164h-385l9 45h430z" />
<glyph unicode="&#xad;" horiz-adv-x="326" d="M289 319l-9 -45h-226l9 45h226z" />
<glyph unicode="&#xae;" d="M532 537q0 -90 -65 -153.5t-149 -63.5q-83 0 -138.5 56t-55.5 138q0 93 64.5 156.5t150.5 63.5q83 0 138 -56t55 -141zM489 535q0 65 -44 112.5t-108 47.5q-68 0 -118.5 -50.5t-50.5 -123.5q0 -66 44 -114t108 -48q68 0 118.5 51t50.5 125zM416 597q0 -33 -22.5 -54 t-54.5 -25q4 -6 17 -32l36 -74h-42l-47 104h-5l-20 -104h-36l44 233h63q67 0 67 -48zM378 592q0 23 -32 23h-29l-14 -73h17q27 0 42.5 14.5t15.5 35.5z" />
<glyph unicode="&#xaf;" horiz-adv-x="387" d="M390 675l-8 -42h-230l8 42h230z" />
<glyph unicode="&#xb0;" horiz-adv-x="357" d="M373 626q0 -56 -37 -89.5t-87 -33.5q-52 0 -81.5 29.5t-29.5 77.5q0 56 37 89.5t87 33.5q52 0 81.5 -29.5t29.5 -77.5zM326 622q0 28 -15.5 50.5t-52.5 22.5q-31 0 -52 -22t-21 -59q0 -33 18 -53t50 -20q31 0 52 22t21 59z" />
<glyph unicode="&#xb1;" d="M527 370l-8 -45h-205l-40 -209h-50l40 209h-205l8 45h205l40 208h50l-40 -208h205zM466 45l-9 -45h-460l9 45h460z" />
<glyph unicode="&#xb2;" horiz-adv-x="306" d="M299 583q0 -66 -80 -126l-71 -54h132l-9 -44h-202l6 33l103 82q40 32 55.5 54.5t15.5 47.5q0 17 -12 28.5t-35 11.5q-34 0 -61 -21l-19 37q45 25 89 25q43 0 65.5 -20.5t22.5 -53.5z" />
<glyph unicode="&#xb3;" horiz-adv-x="674" d="M286 595q0 -57 -59 -83q44 -7 44 -53q0 -48 -39.5 -77.5t-102.5 -29.5q-31 0 -55 7l12 42q30 -8 50 -8q84 0 84 62q0 35 -63 35q-16 0 -36 -2l6 37h25q44 0 65 17.5t21 43.5q0 32 -44 32q-25 0 -55 -12l-12 35q35 16 77 16q41 0 61.5 -17.5t20.5 -44.5z" />
<glyph unicode="&#xb4;" horiz-adv-x="376" d="M301 697l-136 -116l-26 29l128 124z" />
<glyph unicode="&#xb5;" horiz-adv-x="611" d="M550 69q-38 -77 -99 -77q-62 0 -62 66q0 36 20 99l-2 1q-19 -53 -86 -109.5t-132 -56.5q-54 0 -85 38l-46 -282h-56l143 749h52l-62 -324q-5 -27 -5 -49q0 -32 10 -52q19 -36 58 -36q66 0 140.5 87t99.5 224l28 150h52l-70 -367q-6 -33 -6 -53q0 -10 2 -17q5 -17 24 -17 q29 0 51 42z" />
<glyph unicode="&#xb6;" horiz-adv-x="547" d="M559 675l-6 -39h-75l-140 -732h-127l7 39h75l139 732h127zM360 675l-78 -411h-4q-81 0 -122 43q-43 44 -43 116q0 95 67.5 173.5t179.5 78.5z" />
<glyph unicode="&#xb7;" horiz-adv-x="200" d="M155 299q0 -20 -14.5 -34t-33.5 -14q-18 0 -31 13t-13 31q0 20 14.5 34t33.5 14q18 0 31 -13t13 -31z" />
<glyph unicode="&#xb8;" horiz-adv-x="392" d="M198 -41q20 -31 20 -63t-16.5 -63t-48.5 -69h-54q34 38 50 64.5t16 52.5t-18 54z" />
<glyph unicode="&#xb9;" horiz-adv-x="294" d="M260 650l-55 -291h-48l46 244l-80 -36l-6 40l101 43h42z" />
<glyph unicode="&#xba;" horiz-adv-x="405" d="M401 570q0 -103 -56.5 -158.5t-130.5 -55.5q-114 0 -114 110q0 87 49.5 151.5t129.5 64.5q122 0 122 -112zM333 289l-9 -43h-250l9 43h250zM345 562q0 76 -70 76q-41 0 -69.5 -28t-39 -63t-10.5 -70q0 -76 66 -76q53 0 88 46t35 115z" />
<glyph unicode="&#xbb;" horiz-adv-x="468" d="M428 295l-146 -165l-35 28l124 139l-80 140l42 26zM260 295l-154 -165l-35 28l132 139l-88 140l42 26z" />
<glyph unicode="&#xbc;" horiz-adv-x="676" d="M260 650l-55 -291h-48l46 244l-80 -36l-6 40l101 43h42zM650 640l-610 -659l-31 27l609 659zM585 102l-8 -40h-55l-12 -62h-47l12 62h-145l5 36l157 193h74l-37 -189h56zM511 252l-121 -150h92z" />
<glyph unicode="&#xbd;" horiz-adv-x="682" d="M591 224q0 -66 -80 -126l-71 -54h132l-9 -44h-202l6 33l103 82q40 32 55.5 54.5t15.5 47.5q0 17 -12 28.5t-35 11.5q-34 0 -61 -21l-19 37q45 25 89 25q43 0 65.5 -20.5t22.5 -53.5zM650 640l-610 -659l-31 27l609 659zM260 650l-55 -291h-48l46 244l-80 -36l-6 40 l101 43h42z" />
<glyph unicode="&#xbe;" horiz-adv-x="674" d="M510 252l-121 -150h92zM584 102l-8 -40h-55l-12 -62h-47l12 62h-145l5 36l157 193h74l-37 -189h56zM647 640l-610 -659l-31 27l609 659zM286 595q0 -57 -59 -83q44 -7 44 -53q0 -48 -39.5 -77.5t-102.5 -29.5q-31 0 -55 7l12 42q30 -8 50 -8q84 0 84 62q0 35 -63 35 q-16 0 -36 -2l6 37h25q44 0 65 17.5t21 43.5q0 32 -44 32q-25 0 -55 -12l-12 35q35 16 77 16q41 0 61.5 -17.5t20.5 -44.5z" />
<glyph unicode="&#xbf;" horiz-adv-x="432" d="M328 461q0 -18 -12 -30.5t-30 -12.5t-30 12.5t-12 30.5t12 30.5t30 12.5t30 -12.5t12 -30.5zM291 348q2 -19 2 -36q0 -40 -12 -74q-18 -48 -49.5 -79t-64 -58.5t-56 -59.5t-23.5 -69q0 -47 46.5 -82.5t121.5 -46.5l-16 -49q-96 12 -153 62t-57 114q0 37 17.5 69t42.5 53 l55 48q29 27 52 52.5t35 65.5q9 26 9 56q0 16 -3 34h53z" />
<glyph unicode="&#xc0;" horiz-adv-x="596" d="M527 0h-58l-28 177h-313l-98 -177h-61l381 675h56zM433 221l-53 303q-9 53 -13 92h-1q-20 -42 -46 -89l-168 -306h281zM425 768l-15 -34l-171 59l24 48z" />
<glyph unicode="&#xc1;" horiz-adv-x="596" d="M527 0h-58l-28 177h-313l-98 -177h-61l381 675h56zM433 221l-53 303q-9 53 -13 92h-1q-20 -42 -46 -89l-168 -306h281zM512 793l-172 -59l-13 34l168 73z" />
<glyph unicode="&#xc2;" horiz-adv-x="596" d="M527 0h-58l-28 177h-313l-98 -177h-61l381 675h56zM433 221l-53 303q-9 53 -13 92h-1q-20 -42 -46 -89l-168 -306h281zM529 770l-23 -38l-118 66l-139 -66l-18 35l162 83z" />
<glyph unicode="&#xc3;" horiz-adv-x="596" d="M527 0h-58l-28 177h-313l-98 -177h-61l381 675h56zM433 221l-53 303q-9 53 -13 92h-1q-20 -42 -46 -89l-168 -306h281zM551 807q-40 -65 -101 -65q-35 0 -72.5 28.5t-58.5 28.5q-37 0 -69 -47l-28 23q38 65 100 65q35 0 72.5 -28.5t58.5 -28.5q36 0 69 47z" />
<glyph unicode="&#xc4;" horiz-adv-x="596" d="M527 0h-58l-28 177h-313l-98 -177h-61l381 675h56zM433 221l-53 303q-9 53 -13 92h-1q-20 -42 -46 -89l-168 -306h281zM531 777q0 -17 -11.5 -28.5t-28.5 -11.5t-27.5 10.5t-10.5 27.5t11.5 28.5t28.5 11.5t27.5 -10.5t10.5 -27.5zM324 777q0 -17 -12 -28.5t-28 -11.5 t-27 10.5t-11 27.5t12 28.5t28 11.5t27 -10.5t11 -27.5z" />
<glyph unicode="&#xc5;" horiz-adv-x="596" d="M527 0h-58l-28 177h-313l-98 -177h-61l367 651q-49 23 -49 81q0 45 32.5 75t73.5 30q40 0 66 -26t26 -65q0 -34 -21 -61.5t-53 -38.5zM444 743q0 24 -15 40.5t-39 16.5q-25 0 -43.5 -19t-18.5 -46q0 -24 15 -40.5t39 -16.5q25 0 43.5 19t18.5 46zM433 221l-53 303 q-9 53 -13 92h-1q-20 -42 -46 -89l-168 -306h281z" />
<glyph unicode="&#xc6;" horiz-adv-x="751" d="M752 675l-8 -43h-262l-50 -262h252l-8 -43h-252l-55 -283h274l-8 -44h-327l34 177h-244l-130 -177h-62l502 675h344zM428 629h-3q-39 -59 -93 -132l-202 -276h221z" />
<glyph unicode="&#xc7;" horiz-adv-x="575" d="M595 661l-15 -49q-77 26 -155 26q-77 0 -138 -35t-97.5 -93.5t-55 -130.5t-18.5 -151q0 -89 43.5 -138.5t149.5 -49.5q90 0 171 37l8 -44q-95 -40 -194 -40q-236 0 -236 228q0 93 25 175.5t71.5 146.5t120 101.5t163.5 37.5q81 0 157 -21zM288 -41q20 -31 20 -63 t-16.5 -63t-48.5 -69h-54q34 38 50 64.5t16 52.5t-18 54z" />
<glyph unicode="&#xc8;" horiz-adv-x="499" d="M500 675l-8 -43h-268l-50 -262h256l-8 -43h-256l-53 -283h268l-9 -44h-321l128 675h321zM399 768l-15 -34l-171 59l24 48z" />
<glyph unicode="&#xc9;" horiz-adv-x="499" d="M500 675l-8 -43h-268l-50 -262h256l-8 -43h-256l-53 -283h268l-9 -44h-321l128 675h321zM469 793l-172 -59l-13 34l168 73z" />
<glyph unicode="&#xca;" horiz-adv-x="499" d="M500 675l-8 -43h-268l-50 -262h256l-8 -43h-256l-53 -283h268l-9 -44h-321l128 675h321zM503 770l-23 -38l-118 66l-139 -66l-18 35l162 83z" />
<glyph unicode="&#xcb;" horiz-adv-x="499" d="M500 675l-8 -43h-268l-50 -262h256l-8 -43h-256l-53 -283h268l-9 -44h-321l128 675h321zM488 777q0 -17 -12 -28.5t-28 -11.5t-27 10.5t-11 27.5t12 28.5t28 11.5t27 -10.5t11 -27.5zM281 777q0 -17 -11.5 -28.5t-28.5 -11.5t-27.5 10.5t-10.5 27.5t11.5 28.5t28.5 11.5 t27.5 -10.5t10.5 -27.5z" />
<glyph unicode="&#xcc;" horiz-adv-x="249" d="M232 675l-128 -675h-53l128 675h53zM256 768l-15 -34l-171 59l24 48z" />
<glyph unicode="&#xcd;" horiz-adv-x="249" d="M232 675l-128 -675h-53l128 675h53zM359 793l-172 -59l-13 34l168 73z" />
<glyph unicode="&#xce;" horiz-adv-x="249" d="M232 675l-128 -675h-53l128 675h53zM368 770l-23 -38l-118 66l-139 -66l-18 35l162 83z" />
<glyph unicode="&#xcf;" horiz-adv-x="249" d="M232 675l-128 -675h-53l128 675h53zM363 777q0 -17 -11.5 -28.5t-28.5 -11.5t-27.5 10.5t-10.5 27.5t11.5 28.5t28.5 11.5t27.5 -10.5t10.5 -27.5zM156 777q0 -17 -12 -28.5t-28 -11.5t-27 10.5t-11 27.5t12 28.5t28 11.5t27 -10.5t11 -27.5z" />
<glyph unicode="&#xd0;" horiz-adv-x="685" d="M660 432q0 -85 -27 -161t-79 -138t-140 -99t-200 -37q-34 0 -83 1.5t-70 1.5l62 329h-113l8 42h113l58 304q25 0 86.5 1.5t91.5 1.5q157 0 225 -67.5t68 -178.5zM604 425q0 210 -246 210q-34 0 -124 -3l-50 -261h159l-8 -42h-159l-53 -281q54 -7 99 -7q98 0 173.5 32.5 t120 88t66.5 122t22 141.5z" />
<glyph unicode="&#xd1;" horiz-adv-x="692" d="M676 675l-129 -675h-62l-215 487q-38 88 -55 140q-20 -137 -52 -309l-59 -318h-54l128 675h63l214 -486q30 -67 56 -138l49 282l62 342h54zM608 807q-40 -65 -101 -65q-35 0 -72.5 28.5t-58.5 28.5q-37 0 -69 -47l-28 23q38 65 100 65q35 0 72.5 -28.5t58.5 -28.5 q36 0 69 47z" />
<glyph unicode="&#xd2;" horiz-adv-x="692" d="M671 440q0 -190 -111 -319t-271 -129q-116 0 -175 63t-59 181q0 122 49 224.5t136.5 162.5t193.5 60q113 0 175 -63.5t62 -179.5zM612 434q0 97 -47 150.5t-140 53.5q-132 0 -221.5 -115.5t-89.5 -280.5q0 -95 47 -149.5t134 -54.5q130 0 223.5 114t93.5 282zM487 768 l-15 -34l-171 59l24 48z" />
<glyph unicode="&#xd3;" horiz-adv-x="692" d="M671 440q0 -190 -111 -319t-271 -129q-116 0 -175 63t-59 181q0 122 49 224.5t136.5 162.5t193.5 60q113 0 175 -63.5t62 -179.5zM612 434q0 97 -47 150.5t-140 53.5q-132 0 -221.5 -115.5t-89.5 -280.5q0 -95 47 -149.5t134 -54.5q130 0 223.5 114t93.5 282zM597 793 l-172 -59l-13 34l168 73z" />
<glyph unicode="&#xd4;" horiz-adv-x="692" d="M671 440q0 -190 -111 -319t-271 -129q-116 0 -175 63t-59 181q0 122 49 224.5t136.5 162.5t193.5 60q113 0 175 -63.5t62 -179.5zM612 434q0 97 -47 150.5t-140 53.5q-132 0 -221.5 -115.5t-89.5 -280.5q0 -95 47 -149.5t134 -54.5q130 0 223.5 114t93.5 282zM609 770 l-23 -38l-118 66l-139 -66l-18 35l162 83z" />
<glyph unicode="&#xd5;" horiz-adv-x="692" d="M671 440q0 -190 -111 -319t-271 -129q-116 0 -175 63t-59 181q0 122 49 224.5t136.5 162.5t193.5 60q113 0 175 -63.5t62 -179.5zM612 434q0 97 -47 150.5t-140 53.5q-132 0 -221.5 -115.5t-89.5 -280.5q0 -95 47 -149.5t134 -54.5q130 0 223.5 114t93.5 282zM635 807 q-40 -65 -101 -65q-35 0 -72.5 28.5t-58.5 28.5q-37 0 -69 -47l-28 23q38 65 100 65q35 0 72.5 -28.5t58.5 -28.5q36 0 69 47z" />
<glyph unicode="&#xd6;" horiz-adv-x="692" d="M671 440q0 -190 -111 -319t-271 -129q-116 0 -175 63t-59 181q0 122 49 224.5t136.5 162.5t193.5 60q113 0 175 -63.5t62 -179.5zM612 434q0 97 -47 150.5t-140 53.5q-132 0 -221.5 -115.5t-89.5 -280.5q0 -95 47 -149.5t134 -54.5q130 0 223.5 114t93.5 282zM608 777 q0 -17 -12 -28.5t-28 -11.5t-27 10.5t-11 27.5t12 28.5t28 11.5t27 -10.5t11 -27.5zM401 777q0 -17 -11.5 -28.5t-28.5 -11.5t-27.5 10.5t-10.5 27.5t11.5 28.5t28.5 11.5t27.5 -10.5t10.5 -27.5z" />
<glyph unicode="&#xd7;" d="M530 476l-215 -181l146 -181l-35 -29l-146 181l-215 -181l-28 33l216 181l-147 181l35 29l147 -181l215 181z" />
<glyph unicode="&#xd8;" horiz-adv-x="692" d="M671 440q0 -190 -111 -319t-271 -129q-49 0 -93 13l-57 -102l-39 21l55 99q-100 57 -100 213q0 122 49 224.5t136.5 162.5t193.5 60q44 0 85 -11l53 95l39 -21l-51 -91q111 -55 111 -215zM612 434q0 126 -77 176l-313 -560q32 -12 73 -12q130 0 223.5 114t93.5 282z M494 629q-30 9 -69 9q-132 0 -221.5 -115.5t-89.5 -280.5q0 -120 69 -170z" />
<glyph unicode="&#xd9;" horiz-adv-x="688" d="M671 675l-81 -428q-48 -255 -299 -255q-70 0 -116 18t-65.5 49t-25.5 73q-1 14 -1 28q0 30 8 63l86 452h53l-86 -449q-7 -34 -7 -63q0 -51 23 -81q34 -46 138 -46q102 0 160.5 49.5t80.5 169.5l80 420h52zM475 768l-15 -34l-171 59l24 48z" />
<glyph unicode="&#xda;" horiz-adv-x="688" d="M671 675l-81 -428q-48 -255 -299 -255q-70 0 -116 18t-65.5 49t-25.5 73q-1 14 -1 28q0 30 8 63l86 452h53l-86 -449q-7 -34 -7 -63q0 -51 23 -81q34 -46 138 -46q102 0 160.5 49.5t80.5 169.5l80 420h52zM581 793l-172 -59l-13 34l168 73z" />
<glyph unicode="&#xdb;" horiz-adv-x="688" d="M671 675l-81 -428q-48 -255 -299 -255q-70 0 -116 18t-65.5 49t-25.5 73q-1 14 -1 28q0 30 8 63l86 452h53l-86 -449q-7 -34 -7 -63q0 -51 23 -81q34 -46 138 -46q102 0 160.5 49.5t80.5 169.5l80 420h52zM588 770l-23 -38l-118 66l-139 -66l-18 35l162 83z" />
<glyph unicode="&#xdc;" horiz-adv-x="688" d="M671 675l-81 -428q-48 -255 -299 -255q-70 0 -116 18t-65.5 49t-25.5 73q-1 14 -1 28q0 30 8 63l86 452h53l-86 -449q-7 -34 -7 -63q0 -51 23 -81q34 -46 138 -46q102 0 160.5 49.5t80.5 169.5l80 420h52zM573 777q0 -17 -11.5 -28.5t-28.5 -11.5t-27.5 10.5t-10.5 27.5 t11.5 28.5t28.5 11.5t27.5 -10.5t10.5 -27.5zM366 777q0 -17 -12 -28.5t-28 -11.5t-27 10.5t-11 27.5t12 28.5t28 11.5t27 -10.5t11 -27.5z" />
<glyph unicode="&#xdd;" horiz-adv-x="502" d="M567 675l-293 -428l-47 -247h-53l47 247l-125 428h55l73 -260q16 -55 31 -123h1q22 40 85 134l164 249h62zM485 793l-172 -59l-13 34l168 73z" />
<glyph unicode="&#xde;" horiz-adv-x="503" d="M512 408q0 -106 -83.5 -184.5t-227.5 -78.5q-42 0 -70 4l-28 -149h-53l128 675h53l-20 -110q47 3 99 3q102 0 152 -44.5t50 -115.5zM455 399q0 124 -164 124q-51 0 -90 -6l-61 -322q38 -5 76 -5q113 0 176 61t63 148z" />
<glyph unicode="&#xdf;" horiz-adv-x="546" d="M514 631q0 -37 -13.5 -65t-33.5 -43.5t-43 -30.5l-44 -28q-20 -13 -33.5 -34t-13.5 -48t14 -51t33 -43l40 -38q20 -19 34 -46t14 -58q0 -66 -54.5 -110t-138.5 -44q-43 0 -80 6l10 54q44 -13 79 -13q60 0 94.5 26.5t34.5 72.5q0 32 -21 61.5t-46 49.5t-46 52.5t-21 70.5 q0 41 18.5 70.5t45.5 47.5l53 34q27 16 45.5 40t18.5 57q0 32 -22.5 51t-64.5 19q-68 0 -111 -43t-61 -138l-104 -545q-24 -127 -75.5 -176t-142.5 -49q-32 0 -69 7l12 49q33 -10 73 -10q64 0 96.5 37t52.5 141l103 541q23 120 80 174.5t154 54.5q63 0 98 -29t35 -74z" />
<glyph unicode="&#xe0;" horiz-adv-x="534" d="M482 489l-93 -489h-55q12 61 68 245l-2 1q-12 -30 -25 -57.5t-37 -65.5t-50.5 -65.5t-64 -47t-77.5 -19.5q-106 0 -106 147q0 70 18 133t53.5 116t96 84.5t138.5 31.5q70 0 136 -14zM423 450q-44 11 -86 11q-64 0 -113 -28.5t-76 -75.5t-40.5 -100.5t-13.5 -109.5 q0 -111 63 -111q55 0 112 65t94 147.5t51 154.5zM400 605l-35 -24l-102 122l45 31z" />
<glyph unicode="&#xe1;" horiz-adv-x="534" d="M482 489l-93 -489h-55q12 61 68 245l-2 1q-12 -30 -25 -57.5t-37 -65.5t-50.5 -65.5t-64 -47t-77.5 -19.5q-106 0 -106 147q0 70 18 133t53.5 116t96 84.5t138.5 31.5q70 0 136 -14zM423 450q-44 11 -86 11q-64 0 -113 -28.5t-76 -75.5t-40.5 -100.5t-13.5 -109.5 q0 -111 63 -111q55 0 112 65t94 147.5t51 154.5zM492 697l-136 -116l-26 29l128 124z" />
<glyph unicode="&#xe2;" horiz-adv-x="534" d="M482 489l-93 -489h-55q12 61 68 245l-2 1q-12 -30 -25 -57.5t-37 -65.5t-50.5 -65.5t-64 -47t-77.5 -19.5q-106 0 -106 147q0 70 18 133t53.5 116t96 84.5t138.5 31.5q70 0 136 -14zM423 450q-44 11 -86 11q-64 0 -113 -28.5t-76 -75.5t-40.5 -100.5t-13.5 -109.5 q0 -111 63 -111q55 0 112 65t94 147.5t51 154.5zM482 609l-31 -28l-80 88l-108 -88l-26 26l143 127z" />
<glyph unicode="&#xe3;" horiz-adv-x="534" d="M482 489l-93 -489h-55q12 61 68 245l-2 1q-12 -30 -25 -57.5t-37 -65.5t-50.5 -65.5t-64 -47t-77.5 -19.5q-106 0 -106 147q0 70 18 133t53.5 116t96 84.5t138.5 31.5q70 0 136 -14zM423 450q-44 11 -86 11q-64 0 -113 -28.5t-76 -75.5t-40.5 -100.5t-13.5 -109.5 q0 -111 63 -111q55 0 112 65t94 147.5t51 154.5zM518 675q-38 -66 -99 -66q-34 0 -69 29t-55 29q-33 0 -66 -48l-29 24q38 66 97 66q34 0 70.5 -29t56.5 -29q34 0 64 48z" />
<glyph unicode="&#xe4;" horiz-adv-x="534" d="M482 489l-93 -489h-55q12 61 68 245l-2 1q-12 -30 -25 -57.5t-37 -65.5t-50.5 -65.5t-64 -47t-77.5 -19.5q-106 0 -106 147q0 70 18 133t53.5 116t96 84.5t138.5 31.5q70 0 136 -14zM423 450q-44 11 -86 11q-64 0 -113 -28.5t-76 -75.5t-40.5 -100.5t-13.5 -109.5 q0 -111 63 -111q55 0 112 65t94 147.5t51 154.5zM476 662q0 -18 -11.5 -29.5t-28.5 -11.5q-16 0 -27 11t-11 26q0 18 11.5 29.5t28.5 11.5q16 0 27 -11t11 -26zM294 662q0 -18 -11.5 -29.5t-28.5 -11.5q-16 0 -27 11t-11 26q0 18 11.5 29.5t28.5 11.5q16 0 27 -11t11 -26z " />
<glyph unicode="&#xe5;" horiz-adv-x="534" d="M482 489l-93 -489h-55q12 61 68 245l-2 1q-12 -30 -25 -57.5t-37 -65.5t-50.5 -65.5t-64 -47t-77.5 -19.5q-106 0 -106 147q0 70 18 133t53.5 116t96 84.5t138.5 31.5q70 0 136 -14zM423 450q-44 11 -86 11q-64 0 -113 -28.5t-76 -75.5t-40.5 -100.5t-13.5 -109.5 q0 -111 63 -111q55 0 112 65t94 147.5t51 154.5zM479 665q0 -43 -32.5 -74t-73.5 -31q-39 0 -65.5 25.5t-26.5 65.5q0 45 32.5 75t73.5 30q40 0 66 -26t26 -65zM438 662q0 24 -15 40.5t-39 16.5q-25 0 -43.5 -19t-18.5 -46q0 -24 15 -40.5t39 -16.5q25 0 43.5 19t18.5 46z " />
<glyph unicode="&#xe6;" horiz-adv-x="764" d="M735 400q0 -34 -14 -59.5t-49 -48t-102.5 -37t-167.5 -21.5q-6 -36 -6 -76q0 -71 27 -95.5t96 -24.5q72 0 136 29v-46q-66 -29 -157 -29q-77 0 -110.5 32.5t-42.5 92.5q-25 -49 -81.5 -87t-123.5 -38q-58 0 -88 25t-30 70q0 43 18.5 75t47 51.5t75 33t90 19.5t104.5 11 l8 39q7 33 7 58q0 33 -12 52q-20 36 -86 36q-78 0 -155 -46v51q86 38 162 38q72 0 102.5 -24.5t38.5 -67.5q29 39 76.5 65.5t105.5 26.5q63 0 97 -29.5t34 -75.5zM679 394q0 33 -22.5 51t-59.5 18q-67 0 -114.5 -50t-69.5 -131q66 5 109.5 11t82 18t56.5 32.5t18 50.5z M348 231q-42 -3 -73.5 -7t-64 -10t-55 -15.5t-40.5 -22.5t-27 -32t-9 -42q0 -29 20 -47t50 -18q71 0 127 57t72 137z" />
<glyph unicode="&#xe7;" horiz-adv-x="420" d="M430 485l-12 -46q-49 23 -105 23q-69 0 -120 -48.5t-73.5 -114.5t-22.5 -136q0 -54 24.5 -88.5t94.5 -34.5q66 0 126 28l8 -43q-69 -30 -146 -30q-164 0 -164 156q0 147 75.5 249.5t203.5 102.5q59 0 111 -18zM191 -41q20 -31 20 -63t-16.5 -63t-48.5 -69h-54 q34 38 50 64.5t16 52.5t-18 54z" />
<glyph unicode="&#xe8;" horiz-adv-x="468" d="M439 400q0 -152 -332 -166q-7 -32 -7 -76q0 -71 27 -95.5t96 -24.5q70 0 134 28l5 -44q-69 -30 -160 -30q-80 0 -119.5 35.5t-39.5 118.5q0 93 29 173t90.5 133t145.5 53q63 0 97 -29.5t34 -75.5zM383 394q0 33 -22.5 51t-59.5 18q-67 0 -115 -50t-69 -131 q140 6 203 33.5t63 78.5zM368 605l-35 -24l-102 122l45 31z" />
<glyph unicode="&#xe9;" horiz-adv-x="468" d="M439 400q0 -152 -332 -166q-7 -32 -7 -76q0 -71 27 -95.5t96 -24.5q70 0 134 28l5 -44q-69 -30 -160 -30q-80 0 -119.5 35.5t-39.5 118.5q0 93 29 173t90.5 133t145.5 53q63 0 97 -29.5t34 -75.5zM383 394q0 33 -22.5 51t-59.5 18q-67 0 -115 -50t-69 -131 q140 6 203 33.5t63 78.5zM451 697l-136 -116l-26 29l128 124z" />
<glyph unicode="&#xea;" horiz-adv-x="468" d="M439 400q0 -152 -332 -166q-7 -32 -7 -76q0 -71 27 -95.5t96 -24.5q70 0 134 28l5 -44q-69 -30 -160 -30q-80 0 -119.5 35.5t-39.5 118.5q0 93 29 173t90.5 133t145.5 53q63 0 97 -29.5t34 -75.5zM383 394q0 33 -22.5 51t-59.5 18q-67 0 -115 -50t-69 -131 q140 6 203 33.5t63 78.5zM442 609l-31 -28l-80 88l-108 -88l-26 26l143 127z" />
<glyph unicode="&#xeb;" horiz-adv-x="468" d="M439 400q0 -152 -332 -166q-7 -32 -7 -76q0 -71 27 -95.5t96 -24.5q70 0 134 28l5 -44q-69 -30 -160 -30q-80 0 -119.5 35.5t-39.5 118.5q0 93 29 173t90.5 133t145.5 53q63 0 97 -29.5t34 -75.5zM383 394q0 33 -22.5 51t-59.5 18q-67 0 -115 -50t-69 -131 q140 6 203 33.5t63 78.5zM465 662q0 -18 -11.5 -29.5t-28.5 -11.5q-16 0 -27 11t-11 26q0 18 11.5 29.5t28.5 11.5q16 0 27 -11t11 -26zM283 662q0 -18 -11.5 -29.5t-28.5 -11.5q-16 0 -27 11t-11 26q0 18 11.5 29.5t28.5 11.5q16 0 27 -11t11 -26z" />
<glyph unicode="&#xec;" horiz-adv-x="247" d="M197 497l-95 -497h-52l95 497h52zM239 605l-35 -24l-102 122l45 31z" />
<glyph unicode="&#xed;" horiz-adv-x="247" d="M197 497l-95 -497h-52l95 497h52zM292 697l-136 -116l-26 29l128 124z" />
<glyph unicode="&#xee;" horiz-adv-x="247" d="M197 497l-95 -497h-52l95 497h52zM310 609l-31 -28l-80 88l-108 -88l-26 26l143 127z" />
<glyph unicode="&#xef;" horiz-adv-x="247" d="M197 497l-95 -497h-52l95 497h52zM329 662q0 -18 -11.5 -29.5t-28.5 -11.5q-16 0 -27 11t-11 26q0 18 11.5 29.5t28.5 11.5q16 0 27 -11t11 -26zM147 662q0 -18 -11.5 -29.5t-28.5 -11.5q-16 0 -27 11t-11 26q0 18 11.5 29.5t28.5 11.5q16 0 27 -11t11 -26z" />
<glyph unicode="&#xf0;" horiz-adv-x="527" d="M525 676l-113 -47q80 -125 80 -272q0 -92 -29.5 -173t-94.5 -136.5t-154 -55.5q-85 0 -130.5 44.5t-45.5 132.5q0 85 31 160t96 125.5t150 50.5q98 0 122 -60q-1 5 -22 62q-25 59 -54 101l-121 -50l-18 37l113 47q-19 23 -67 71l53 25q38 -37 67 -74l120 49zM435 330 q0 61 -32.5 96.5t-94.5 35.5q-96 0 -155.5 -86t-59.5 -193q0 -70 34 -108.5t95 -38.5q57 0 101 32t67 80.5t34 95t11 86.5z" />
<glyph unicode="&#xf1;" horiz-adv-x="567" d="M486 334l-64 -334h-52l62 324q6 34 6 60t-6 44q-14 33 -57 33q-54 0 -111 -65t-94 -147t-50 -152l-18 -97h-52l50 259l45 238h54q-15 -79 -65 -236l2 -1q41 104 105.5 175t143.5 71q66 0 91 -44q16 -28 16 -70q0 -26 -6 -58zM520 675q-38 -66 -99 -66q-34 0 -69 29 t-55 29q-33 0 -66 -48l-29 24q38 66 97 66q34 0 70.5 -29t56.5 -29q34 0 64 48z" />
<glyph unicode="&#xf2;" horiz-adv-x="534" d="M495 328q0 -149 -84.5 -242.5t-197.5 -93.5q-84 0 -127.5 44.5t-43.5 130.5q0 144 78 241t200 97q87 0 131 -47.5t44 -129.5zM439 324q0 138 -127 138q-92 0 -153.5 -84.5t-61.5 -199.5q0 -142 128 -142q85 0 149.5 80t64.5 208zM388 605l-35 -24l-102 122l45 31z" />
<glyph unicode="&#xf3;" horiz-adv-x="534" d="M495 328q0 -149 -84.5 -242.5t-197.5 -93.5q-84 0 -127.5 44.5t-43.5 130.5q0 144 78 241t200 97q87 0 131 -47.5t44 -129.5zM439 324q0 138 -127 138q-92 0 -153.5 -84.5t-61.5 -199.5q0 -142 128 -142q85 0 149.5 80t64.5 208zM469 697l-136 -116l-26 29l128 124z" />
<glyph unicode="&#xf4;" horiz-adv-x="534" d="M495 328q0 -149 -84.5 -242.5t-197.5 -93.5q-84 0 -127.5 44.5t-43.5 130.5q0 144 78 241t200 97q87 0 131 -47.5t44 -129.5zM439 324q0 138 -127 138q-92 0 -153.5 -84.5t-61.5 -199.5q0 -142 128 -142q85 0 149.5 80t64.5 208zM476 609l-31 -28l-80 88l-108 -88l-26 26 l143 127z" />
<glyph unicode="&#xf5;" horiz-adv-x="534" d="M495 328q0 -149 -84.5 -242.5t-197.5 -93.5q-84 0 -127.5 44.5t-43.5 130.5q0 144 78 241t200 97q87 0 131 -47.5t44 -129.5zM439 324q0 138 -127 138q-92 0 -153.5 -84.5t-61.5 -199.5q0 -142 128 -142q85 0 149.5 80t64.5 208zM506 675q-38 -66 -99 -66q-34 0 -69 29 t-55 29q-33 0 -66 -48l-29 24q38 66 97 66q34 0 70.5 -29t56.5 -29q34 0 64 48z" />
<glyph unicode="&#xf6;" horiz-adv-x="534" d="M495 328q0 -149 -84.5 -242.5t-197.5 -93.5q-84 0 -127.5 44.5t-43.5 130.5q0 144 78 241t200 97q87 0 131 -47.5t44 -129.5zM439 324q0 138 -127 138q-92 0 -153.5 -84.5t-61.5 -199.5q0 -142 128 -142q85 0 149.5 80t64.5 208zM482 662q0 -18 -11.5 -29.5t-28.5 -11.5 q-16 0 -27 11t-11 26q0 18 11.5 29.5t28.5 11.5q16 0 27 -11t11 -26zM300 662q0 -18 -11.5 -29.5t-28.5 -11.5q-16 0 -27 11t-11 26q0 18 11.5 29.5t28.5 11.5q16 0 27 -11t11 -26z" />
<glyph unicode="&#xf7;" d="M362 499q0 -18 -12 -30.5t-30 -12.5t-30 12.5t-12 30.5t12 30.5t30 12.5t30 -12.5t12 -30.5zM518 320l-9 -45h-460l9 45h460zM283 95q0 -18 -12 -30.5t-30 -12.5t-30 12.5t-12 30.5t12 30.5t30 12.5t30 -12.5t12 -30.5z" />
<glyph unicode="&#xf8;" horiz-adv-x="534" d="M495 328q0 -149 -84.5 -242.5t-197.5 -93.5q-40 0 -69 10l-58 -102l-39 21l57 101q-62 43 -62 145q0 144 78 241t200 97q29 0 53 -6l54 97l39 -21l-51 -91q80 -41 80 -156zM439 324q0 84 -49 117l-222 -396q24 -9 57 -9q85 0 149.5 80t64.5 208zM349 458q-15 4 -37 4 q-92 0 -153.5 -84.5t-61.5 -199.5q0 -73 33 -109z" />
<glyph unicode="&#xf9;" horiz-adv-x="567" d="M517 497l-50 -259l-45 -238h-54q15 79 65 236l-2 1q-41 -104 -105.5 -175t-143.5 -71q-66 0 -92 45q-15 27 -15 69q0 26 6 58l64 334h52l-62 -324q-6 -34 -6 -60t7 -43q13 -34 56 -34q54 0 111 65t94 147t50 152l18 97h52zM382 605l-35 -24l-102 122l45 31z" />
<glyph unicode="&#xfa;" horiz-adv-x="567" d="M517 497l-50 -259l-45 -238h-54q15 79 65 236l-2 1q-41 -104 -105.5 -175t-143.5 -71q-66 0 -92 45q-15 27 -15 69q0 26 6 58l64 334h52l-62 -324q-6 -34 -6 -60t7 -43q13 -34 56 -34q54 0 111 65t94 147t50 152l18 97h52zM472 697l-136 -116l-26 29l128 124z" />
<glyph unicode="&#xfb;" horiz-adv-x="567" d="M517 497l-50 -259l-45 -238h-54q15 79 65 236l-2 1q-41 -104 -105.5 -175t-143.5 -71q-66 0 -92 45q-15 27 -15 69q0 26 6 58l64 334h52l-62 -324q-6 -34 -6 -60t7 -43q13 -34 56 -34q54 0 111 65t94 147t50 152l18 97h52zM472 609l-31 -28l-80 88l-108 -88l-26 26 l143 127z" />
<glyph unicode="&#xfc;" horiz-adv-x="567" d="M517 497l-50 -259l-45 -238h-54q15 79 65 236l-2 1q-41 -104 -105.5 -175t-143.5 -71q-66 0 -92 45q-15 27 -15 69q0 26 6 58l64 334h52l-62 -324q-6 -34 -6 -60t7 -43q13 -34 56 -34q54 0 111 65t94 147t50 152l18 97h52zM486 662q0 -18 -11.5 -29.5t-28.5 -11.5 q-16 0 -27 11t-11 26q0 18 11.5 29.5t28.5 11.5q16 0 27 -11t11 -26zM304 662q0 -18 -11.5 -29.5t-28.5 -11.5q-16 0 -27 11t-11 26q0 18 11.5 29.5t28.5 11.5q16 0 27 -11t11 -26z" />
<glyph unicode="&#xfd;" horiz-adv-x="460" d="M475 500q-211 -499 -386 -673q-88 -86 -166 -86q-39 0 -66 7l10 52q27 -10 64 -10q61 0 126 73q36 40 51.5 83.5t15.5 105.5q0 194 -69 445h60q62 -250 62 -424q0 -38 -10 -81h1q127 215 259 525zM404 697l-136 -116l-26 29l128 124z" />
<glyph unicode="&#xfe;" horiz-adv-x="534" d="M494 359q0 -70 -18 -133t-53.5 -115.5t-96 -84t-138.5 -31.5q-40 0 -86 7l-48 -254h-52l188 982h52l-45 -233q-15 -82 -63 -241l2 -1q43 111 107.5 181t144.5 70q106 0 106 -147zM440 350q0 111 -63 111q-55 0 -111.5 -65t-93.5 -146.5t-51 -152.5l-9 -45q42 -15 86 -15 q63 0 112 28.5t76 75.5t40.5 100t13.5 109z" />
<glyph unicode="&#xff;" horiz-adv-x="460" d="M475 500q-211 -499 -386 -673q-88 -86 -166 -86q-39 0 -66 7l10 52q27 -10 64 -10q61 0 126 73q36 40 51.5 83.5t15.5 105.5q0 194 -69 445h60q62 -250 62 -424q0 -38 -10 -81h1q127 215 259 525zM407 662q0 -18 -11.5 -29.5t-28.5 -11.5q-16 0 -27 11t-11 26 q0 18 11.5 29.5t28.5 11.5q16 0 27 -11t11 -26zM225 662q0 -18 -11.5 -29.5t-28.5 -11.5q-16 0 -27 11t-11 26q0 18 11.5 29.5t28.5 11.5q16 0 27 -11t11 -26z" />
<glyph unicode="&#x131;" horiz-adv-x="247" d="M197 497l-95 -497h-52l95 497h52z" />
<glyph unicode="&#x152;" horiz-adv-x="849" d="M850 675l-8 -43h-269l-50 -262h256l-8 -43h-256l-53 -283h268l-9 -44h-321q-61 -8 -111 -8q-116 0 -175 63t-59 181q0 122 49 224.5t136.5 162.5t193.5 60q51 0 96 -8h320zM518 624q-47 14 -93 14q-132 0 -221.5 -115.5t-89.5 -280.5q0 -95 47 -149.5t134 -54.5 q64 0 115 12z" />
<glyph unicode="&#x153;" horiz-adv-x="845" d="M816 400q0 -152 -332 -166q-7 -42 -7 -76q0 -71 27 -95.5t96 -24.5q70 0 134 28l5 -44q-69 -30 -160 -30q-139 0 -155 114q-37 -53 -93.5 -83.5t-117.5 -30.5q-84 0 -127.5 44.5t-43.5 130.5q0 144 78 241t200 97q133 0 166 -114q75 114 199 114q63 0 97 -29.5t34 -75.5z M760 394q0 33 -22.5 51t-59.5 18q-66 0 -114.5 -50.5t-69.5 -130.5q140 6 203 33.5t63 78.5zM439 324q0 138 -127 138q-92 0 -153.5 -84.5t-61.5 -199.5q0 -142 128 -142q85 0 149.5 80t64.5 208z" />
<glyph unicode="&#x178;" horiz-adv-x="502" d="M567 675l-293 -428l-47 -247h-53l47 247l-125 428h55l73 -260q16 -55 31 -123h1q22 40 85 134l164 249h62zM483 777q0 -17 -11.5 -28.5t-28.5 -11.5t-27.5 10.5t-10.5 27.5t11.5 28.5t28.5 11.5t27.5 -10.5t10.5 -27.5zM276 777q0 -17 -12 -28.5t-28 -11.5t-27 10.5 t-11 27.5t12 28.5t28 11.5t27 -10.5t11 -27.5z" />
<glyph unicode="&#x2c6;" horiz-adv-x="431" d="M373 609l-31 -28l-80 88l-108 -88l-26 26l143 127z" />
<glyph unicode="&#x2da;" horiz-adv-x="392" d="M381 665q0 -43 -32.5 -74t-73.5 -31q-39 0 -65.5 25.5t-26.5 65.5q0 45 32.5 75t73.5 30q40 0 66 -26t26 -65zM340 662q0 24 -15 40.5t-39 16.5q-25 0 -43.5 -19t-18.5 -46q0 -24 15 -40.5t39 -16.5q25 0 43.5 19t18.5 46z" />
<glyph unicode="&#x2dc;" horiz-adv-x="514" d="M449 675q-38 -66 -99 -66q-34 0 -69 29t-55 29q-33 0 -66 -48l-29 24q38 66 97 66q34 0 70.5 -29t56.5 -29q34 0 64 48z" />
<glyph unicode="&#x3bc;" horiz-adv-x="611" d="M550 69q-38 -77 -99 -77q-62 0 -62 66q0 36 20 99l-2 1q-19 -53 -86 -109.5t-132 -56.5q-54 0 -85 38l-46 -282h-56l143 749h52l-62 -324q-5 -27 -5 -49q0 -32 10 -52q19 -36 58 -36q66 0 140.5 87t99.5 224l28 150h52l-70 -367q-6 -33 -6 -53q0 -10 2 -17q5 -17 24 -17 q29 0 51 42z" />
<glyph unicode="&#x2000;" horiz-adv-x="425" />
<glyph unicode="&#x2001;" horiz-adv-x="850" />
<glyph unicode="&#x2002;" horiz-adv-x="425" />
<glyph unicode="&#x2003;" horiz-adv-x="850" />
<glyph unicode="&#x2004;" horiz-adv-x="283" />
<glyph unicode="&#x2005;" horiz-adv-x="212" />
<glyph unicode="&#x2006;" horiz-adv-x="141" />
<glyph unicode="&#x2007;" horiz-adv-x="141" />
<glyph unicode="&#x2008;" horiz-adv-x="106" />
<glyph unicode="&#x2009;" horiz-adv-x="170" />
<glyph unicode="&#x200a;" horiz-adv-x="47" />
<glyph unicode="&#x2010;" horiz-adv-x="326" d="M289 319l-9 -45h-226l9 45h226z" />
<glyph unicode="&#x2011;" horiz-adv-x="326" d="M289 319l-9 -45h-226l9 45h226z" />
<glyph unicode="&#x2013;" d="M563 320l-9 -45h-550l9 45h550z" />
<glyph unicode="&#x2014;" horiz-adv-x="1000" d="M888 320l-9 -45h-750l9 45h750z" />
<glyph unicode="&#x2018;" horiz-adv-x="217" d="M263 719q-75 -64 -75 -110q0 -14 6 -26q5 -9 5 -18t-5 -18q-11 -17 -31 -17q-33 0 -39 35q-1 7 -1 14q0 49 58 112q26 27 61 53z" />
<glyph unicode="&#x2019;" horiz-adv-x="217" d="M199 739q33 0 39 -35q1 -7 1 -14q0 -49 -58 -112q-26 -27 -61 -53l-21 25q75 63 75 111q0 13 -6 25q-4 9 -4 18t5 18q10 17 30 17z" />
<glyph unicode="&#x201a;" horiz-adv-x="217" d="M65 79q33 0 39 -35q1 -7 1 -14q0 -49 -58 -112q-26 -27 -61 -53l-21 25q75 64 75 110q0 14 -6 26q-4 9 -4 18t5 18q10 17 30 17z" />
<glyph unicode="&#x201c;" horiz-adv-x="375" d="M422 719q-75 -64 -75 -110q0 -14 6 -26q4 -9 4 -18t-5 -18q-10 -17 -30 -17q-33 0 -39 35q-1 7 -1 14q0 49 58 112q26 27 61 53zM263 719q-75 -64 -75 -110q0 -14 6 -26q4 -9 4 -18t-5 -18q-10 -17 -30 -17q-33 0 -39 35q-1 7 -1 14q0 49 58 112q26 27 61 53z" />
<glyph unicode="&#x201d;" horiz-adv-x="375" d="M357 739q33 0 39 -35q1 -7 1 -14q0 -49 -58 -112q-26 -27 -61 -53l-21 25q75 64 75 110q0 14 -6 26q-4 9 -4 18t5 18q10 17 30 17zM199 739q33 0 39 -35q1 -7 1 -14q0 -49 -58 -112q-26 -27 -61 -53l-21 25q75 64 75 110q0 14 -6 26q-4 9 -4 18t5 18q10 17 30 17z" />
<glyph unicode="&#x201e;" horiz-adv-x="375" d="M224 79q33 0 39 -35q1 -7 1 -14q0 -49 -58 -112q-26 -27 -61 -53l-21 25q75 64 75 110q0 14 -6 26q-4 9 -4 18t5 18q10 17 30 17zM65 79q33 0 39 -35q1 -7 1 -14q0 -49 -58 -112q-26 -27 -61 -53l-21 25q75 64 75 110q0 14 -6 26q-4 9 -4 18t5 18q10 17 30 17z" />
<glyph unicode="&#x2022;" horiz-adv-x="418" d="M312 302q0 -42 -28.5 -70.5t-68.5 -28.5q-38 0 -64.5 26.5t-26.5 62.5q0 42 28.5 70.5t68.5 28.5q38 0 64.5 -26.5t26.5 -62.5z" />
<glyph unicode="&#x2026;" horiz-adv-x="596" d="M495 39q0 -20 -13.5 -33t-31.5 -13q-17 0 -28 12t-11 28q0 20 13.5 33t31.5 13q17 0 28 -12t11 -28zM302 39q0 -20 -13.5 -33t-31.5 -13q-17 0 -28 12t-11 28q0 20 13.5 33t31.5 13q17 0 28 -12t11 -28zM109 39q0 -20 -13.5 -33t-31.5 -13q-17 0 -28 12t-11 28 q0 20 13.5 33t31.5 13q17 0 28 -12t11 -28z" />
<glyph unicode="&#x202f;" horiz-adv-x="170" />
<glyph unicode="&#x2039;" horiz-adv-x="308" d="M259 432l-129 -137l81 -138l-40 -28l-97 170l150 163z" />
<glyph unicode="&#x203a;" horiz-adv-x="308" d="M256 292l-150 -163l-35 30l129 137l-81 138l40 28z" />
<glyph unicode="&#x205f;" horiz-adv-x="212" />
<glyph unicode="&#x20ac;" d="M566 630l-17 -46q-56 30 -120 30q-162 0 -234 -193h216l-8 -41h-221q-13 -48 -20 -105h221l-7 -41h-218q-1 -16 -1 -31q0 -73 27 -113q34 -50 131 -50q65 0 141 31l11 -44q-80 -35 -163 -35q-121 0 -165 64q-38 54 -38 147q0 15 1 31h-94l7 41h91q7 60 21 105h-92l8 41 h97q24 67 60 117t98.5 85t142.5 35q67 0 125 -28z" />
<glyph unicode="&#x2122;" horiz-adv-x="694" d="M668 675l-13 -281h-44l7 173l4 60l-23 -50l-92 -183h-51l-20 185l-4 48l-11 -38l-65 -195h-42l94 281h64l19 -184l3 -51l17 45l95 190h62zM341 675l-6 -34h-78l-47 -247h-47l48 247h-79l6 34h203z" />
</font>
</defs>
</svg>
