<?xml version="1.0" standalone="no"?>
<!DOCTYPE svg PUBLIC "-//W3C//DTD SVG 1.1//EN" "http://www.w3.org/Graphics/SVG/1.1/DTD/svg11.dtd" >
<svg xmlns="http://www.w3.org/2000/svg">
<metadata>
This is a custom SVG webfont generated by Font Squirrel.
</metadata>
<defs>
<font id="webfontSE1N7nbU" horiz-adv-x="550" >
<font-face units-per-em="1000" ascent="800" descent="-200" />
<missing-glyph horiz-adv-x="218" />
<glyph unicode=" "  horiz-adv-x="218" />
<glyph unicode="&#x09;" horiz-adv-x="218" />
<glyph unicode="&#xa0;" horiz-adv-x="218" />
<glyph unicode="!" horiz-adv-x="319" d="M214 701l-14 -541h-62l-14 541h90zM222 44q0 -22 -15.5 -37t-37.5 -15t-37.5 15t-15.5 37t15 37.5t38 15.5t38 -15.5t15 -37.5z" />
<glyph unicode="&#x22;" horiz-adv-x="351" d="M295 698l-13 -220h-55l-13 220h81zM137 698l-14 -220h-54l-14 220h82z" />
<glyph unicode="#" d="M517 419h-97l-18 -181h91v-51h-96l-20 -187h-59l20 187h-154l-20 -187h-58l20 187h-93v51h98l18 181h-92v51h98l19 180h59l-20 -180h155l19 180h58l-19 -180h91v-51zM362 419h-154l-18 -181h154z" />
<glyph unicode="$" d="M455 198q0 -68 -45 -117t-124 -61v-105h-57v101q-76 2 -127 15l9 71q58 -22 129 -22q61 0 99 26.5t38 80.5q0 38 -30 63.5t-72.5 41t-85 33.5t-72.5 54t-30 89q0 63 45 109t117 56v97h58v-94q65 -2 108 -12l-8 -68q-55 18 -113 18q-68 0 -100 -28.5t-32 -68.5 q0 -31 21.5 -54t54.5 -36t70.5 -29.5t70.5 -33.5t54.5 -49.5t21.5 -76.5z" />
<glyph unicode="%" horiz-adv-x="746" d="M699 152q0 -71 -40 -116t-107 -45q-137 0 -137 152q0 69 40 114t107 45q137 0 137 -150zM644 633l-495 -653l-50 35l496 653zM331 509q0 -71 -40 -116t-107 -45q-137 0 -137 152q0 70 39.5 114.5t107.5 44.5q137 0 137 -150zM635 145q0 53 -19 78.5t-60 25.5 q-34 0 -55.5 -27.5t-21.5 -72.5q0 -106 81 -106q33 0 54 28.5t21 73.5zM267 503q0 104 -79 104q-34 0 -55.5 -28t-21.5 -72q0 -106 80 -106q34 0 55 28t21 74z" />
<glyph unicode="&#x26;" horiz-adv-x="794" d="M733 41l-48 -58q-82 55 -144 108q-112 -100 -266 -100q-102 0 -159 54t-57 140q0 65 36.5 115t108.5 106q-55 63 -76 103t-21 80q0 62 45.5 104t124.5 42q72 0 112 -36.5t40 -94.5q0 -51 -29 -98t-97 -99q113 -121 236 -221v-1q72 99 72 226q0 16 -1 32h76v-17 q0 -164 -93 -281q81 -64 140 -104zM355 596q0 35 -21.5 58t-64.5 23q-38 0 -62.5 -23.5t-24.5 -60.5q0 -52 79 -143q49 39 71.5 72.5t22.5 73.5zM490 131q-138 114 -244 231q-59 -47 -84.5 -85.5t-25.5 -81.5q0 -59 42.5 -99.5t111.5 -40.5q113 0 200 76z" />
<glyph unicode="'" horiz-adv-x="192" d="M137 698l-14 -220h-54l-14 220h82z" />
<glyph unicode="(" horiz-adv-x="302" d="M278 -179l-55 -27q-83 131 -114 249t-31 241q0 264 146 495l52 -27q-126 -214 -126 -463q0 -256 128 -468z" />
<glyph unicode=")" horiz-adv-x="302" d="M231 289q0 -262 -147 -495l-52 27q126 213 126 463q0 256 -127 467l55 28q83 -132 114 -250t31 -240z" />
<glyph unicode="*" horiz-adv-x="369" d="M322 537l-29 -51l-93 65l10 -113h-58l10 113l-93 -65l-28 50l103 48l-103 48l29 49l92 -64l-9 113h57l-9 -113l93 64l28 -49l-103 -47z" />
<glyph unicode="+" d="M507 266h-197v-207h-71v207h-196v63h196v206h71v-206h197v-63z" />
<glyph unicode="," horiz-adv-x="217" d="M106 99q38 0 50 -40q4 -14 4 -30q0 -51 -49 -117q-22 -30 -53 -59l-33 29q56 61 56 104q0 20 -12 36q-11 14 -11 29q0 11 5 21q13 27 43 27z" />
<glyph unicode="-" horiz-adv-x="328" d="M280 260h-232v62h232v-62z" />
<glyph unicode="." horiz-adv-x="217" d="M163 46q0 -23 -16 -38.5t-39 -15.5q-22 0 -38 16t-16 38t16 38t38 16q23 0 39 -15.5t16 -38.5z" />
<glyph unicode="/" horiz-adv-x="428" d="M429 757l-350 -918h-71l350 918h71z" />
<glyph unicode="0" d="M497 332q0 -175 -66.5 -258t-162.5 -83q-109 0 -162.5 79t-53.5 259q0 164 62.5 247t166.5 83q101 0 158.5 -74t57.5 -253zM416 326q0 146 -34 208t-108 62q-65 0 -103 -62.5t-38 -198.5q0 -144 32 -212t109 -68q67 0 104.5 69.5t37.5 201.5z" />
<glyph unicode="1" d="M492 0h-414v68h179v507l-166 -65l-14 70l195 70h62v-582h158v-68z" />
<glyph unicode="2" d="M481 0h-420v60l161 159q95 93 124.5 141t29.5 101q0 57 -37 94.5t-101 37.5q-83 0 -150 -53l-21 64q85 55 182 55q98 0 152.5 -54t54.5 -132q0 -67 -32.5 -125t-126.5 -147l-137 -131v-1q80 2 213 2h108v-71z" />
<glyph unicode="3" d="M469 196q0 -94 -71.5 -149.5t-194.5 -55.5q-68 0 -122 16l10 69q58 -20 122 -20q83 0 129 35t46 94q0 58 -44.5 91.5t-126.5 33.5q-51 0 -95 -4v61h20q232 0 232 128q0 47 -35 74.5t-93 27.5q-71 0 -145 -38l-8 67q80 33 164 33q94 0 145 -43t51 -111q0 -58 -33.5 -97.5 t-94.5 -56.5v-1q61 -4 102.5 -49t41.5 -105z" />
<glyph unicode="4" d="M528 154h-115v-154h-74v154h-308l-6 59l287 437h101v-428h115v-68zM340 222v353h-1l-236 -356q65 3 237 3z" />
<glyph unicode="5" d="M470 211q0 -99 -72.5 -159.5t-192.5 -60.5q-62 0 -117 13v71q57 -19 125 -19q84 0 130.5 39t46.5 106q0 63 -48 97t-130 34q-59 0 -109 -8v326h343v-72h-273v-187q38 2 61 2q113 0 174.5 -51.5t61.5 -130.5z" />
<glyph unicode="6" d="M500 218q0 -102 -60.5 -164.5t-160.5 -62.5q-104 0 -162.5 72t-58.5 198q0 204 88.5 301t239.5 97q34 0 52 -3v-66q-36 4 -60 4q-199 0 -240 -228q-3 -14 -8 -52h1q25 44 69.5 68.5t99.5 24.5q94 0 147 -53.5t53 -135.5zM424 204q0 64 -36 102t-103 38q-63 0 -103 -42 t-40 -91q0 -68 38.5 -113t106.5 -45q64 0 100.5 41.5t36.5 109.5z" />
<glyph unicode="7" d="M493 585q-157 -289 -261 -585h-88q124 324 263 579q-42 -2 -260 -2h-89v73h435v-65z" />
<glyph unicode="8" d="M490 162q0 -76 -62.5 -123.5t-158.5 -47.5q-95 0 -152.5 43.5t-57.5 115.5q0 58 39 99t109 80q-66 32 -98.5 70.5t-32.5 93.5q0 72 56.5 119t147.5 47q90 0 141.5 -43t51.5 -113q0 -52 -34.5 -90t-96.5 -73q70 -35 109 -74.5t39 -103.5zM395 496q0 48 -33.5 75t-88.5 27 q-54 0 -86.5 -28.5t-32.5 -70.5t28 -69t97 -61q56 31 86 60t30 67zM411 154q0 28 -10.5 50t-33 39.5t-43.5 29.5t-55 27q-31 -17 -50 -29.5t-40 -31t-31 -39t-10 -44.5q0 -46 37 -74.5t103 -28.5q57 0 95 27t38 74z" />
<glyph unicode="9" d="M488 389q0 -107 -24.5 -185t-70 -124t-104 -67.5t-131.5 -21.5q-41 0 -76 7v69q45 -10 88 -10q198 0 231 213q5 32 9 51h-1q-52 -81 -162 -81q-93 0 -145 54.5t-52 141.5q0 100 61 161.5t158 61.5q103 0 161 -66.5t58 -203.5zM404 439q0 70 -37.5 114t-104.5 44 q-63 0 -99.5 -42t-36.5 -106q0 -66 36 -105t99 -39q66 0 104.5 38.5t38.5 95.5z" />
<glyph unicode=":" horiz-adv-x="282" d="M211 343q0 -23 -15.5 -39t-38.5 -16t-39 16t-16 39q0 22 16 38t39 16t38.5 -15.5t15.5 -38.5zM211 46q0 -22 -15.5 -38t-38.5 -16t-39 16t-16 38t16 38t39 16t38.5 -16t15.5 -38z" />
<glyph unicode=";" horiz-adv-x="282" d="M211 343q0 -23 -15.5 -39t-38.5 -16t-39 16t-16 39q0 22 16 38t39 16t38.5 -15.5t15.5 -38.5zM156 99q38 0 50 -40q4 -14 4 -30q0 -51 -49 -117q-22 -30 -53 -59l-33 29q56 61 56 104q0 20 -12 36q-11 14 -11 29q0 11 5 21q13 27 43 27z" />
<glyph unicode="&#x3c;" d="M438 76l-47 -52l-316 279l315 279l48 -48l-267 -230z" />
<glyph unicode="=" d="M493 347h-436v63h436v-63zM493 185h-436v62h436v-62z" />
<glyph unicode="&#x3e;" d="M475 304l-315 -280l-48 48l267 231l-267 228l47 51z" />
<glyph unicode="?" horiz-adv-x="443" d="M378 518q0 -38 -15 -70.5t-36.5 -52.5t-45 -45t-40.5 -47.5t-23 -60.5q-1 -10 -1 -21q0 -29 10 -61h-73q-13 38 -13 71q0 9 1 17q4 39 20 64.5t38.5 50.5t43.5 44.5t36 46.5t15 56q0 52 -56.5 88t-148.5 40l10 69q126 -4 202 -59t76 -130zM244 44q0 -22 -15.5 -37 t-37.5 -15t-37.5 15t-15.5 37t15 37.5t38 15.5t38 -15.5t15 -37.5z" />
<glyph unicode="@" horiz-adv-x="981" d="M884 403q0 -128 -62.5 -201t-158.5 -73q-60 0 -87 34q-20 27 -20 61q0 9 1 19h-3q-13 -37 -58 -75.5t-95 -38.5q-96 0 -96 131q0 116 58 192.5t165 76.5q67 0 122 -12l-40 -219q-3 -19 -3 -35q0 -71 69 -71q61 0 100 54.5t39 152.5q0 53 -16.5 100t-50.5 86.5t-92.5 63 t-135.5 23.5q-152 0 -256.5 -107.5t-104.5 -272.5q0 -147 83 -231.5t235 -84.5q83 0 166 24l10 -62q-82 -26 -185 -26q-177 0 -278.5 99.5t-101.5 269.5q0 194 128 322.5t309 128.5q117 0 200 -47t121 -120t38 -162zM577 468q-24 7 -64 7q-68 0 -105 -64.5t-37 -135.5 q0 -82 48 -82q43 0 84.5 57.5t62.5 161.5z" />
<glyph unicode="A" horiz-adv-x="611" d="M598 0h-87l-59 166h-300l-60 -166h-79l251 675h83zM431 227l-98 272q-20 56 -30 91h-2q-13 -48 -29 -90l-99 -273h258z" />
<glyph unicode="B" horiz-adv-x="566" d="M511 199q0 -25 -6 -49.5t-23.5 -53t-44.5 -49.5t-74.5 -35.5t-108.5 -14.5q-18 0 -44.5 0.5t-62 1.5t-56.5 1v675q138 3 187 3q105 0 158.5 -42t53.5 -118q0 -56 -32.5 -98.5t-89.5 -61.5v-2q71 -11 107 -55t36 -102zM410 505q0 53 -32.5 82t-113.5 29q-38 0 -96 -2v-235 q21 -1 64 -1q89 0 133.5 33t44.5 94zM431 197q0 123 -198 123q-49 0 -65 -1v-254q36 -6 92 -6q86 0 128.5 37.5t42.5 100.5z" />
<glyph unicode="C" horiz-adv-x="590" d="M544 30q-87 -37 -190 -37q-152 0 -228.5 87.5t-76.5 241.5q0 162 81.5 261t246.5 99q81 0 158 -22l-13 -71q-82 28 -158 28q-117 0 -174.5 -79t-57.5 -203q0 -133 60 -204t182 -71q83 0 155 36z" />
<glyph unicode="D" horiz-adv-x="683" d="M633 344q0 -169 -103 -258t-275 -89q-37 0 -90 1.5t-74 1.5v675q24 0 91 1.5t104 1.5q168 0 257.5 -82.5t89.5 -251.5zM553 339q0 277 -275 277q-29 0 -110 -3v-546q47 -7 97 -7q133 0 210.5 70t77.5 209z" />
<glyph unicode="E" horiz-adv-x="505" d="M431 0h-340v675h340v-62h-263v-234h250v-62h-250v-253h263v-64z" />
<glyph unicode="F" horiz-adv-x="470" d="M429 612h-261v-236h247v-62h-247v-314h-77v675h338v-63z" />
<glyph unicode="G" horiz-adv-x="685" d="M599 29q-103 -38 -220 -38q-152 0 -242.5 89t-90.5 245q0 157 97 258t261 101q90 0 185 -29l-17 -70q-87 34 -176 34q-114 0 -191.5 -73.5t-77.5 -210.5q0 -131 71.5 -204.5t192.5 -73.5q69 0 131 20v263h77v-311z" />
<glyph unicode="H" horiz-adv-x="702" d="M611 0h-76v318h-367v-318h-77v675h77v-293h367v293h76v-675z" />
<glyph unicode="I" horiz-adv-x="259" d="M168 0h-77v675h77v-675z" />
<glyph unicode="J" horiz-adv-x="327" d="M236 171q0 -88 -38.5 -133t-124.5 -45q-32 0 -72 8v69q33 -12 72 -12q45 0 66 25.5t21 93.5v498h76v-504z" />
<glyph unicode="K" horiz-adv-x="579" d="M561 0h-106l-287 339v-339h-77v675h77v-323l288 323h95l-300 -327z" />
<glyph unicode="L" horiz-adv-x="425" d="M418 0h-327v675h77v-610h250v-65z" />
<glyph unicode="M" horiz-adv-x="892" d="M837 0h-81l-60 416q-11 79 -21 169h-2q-15 -60 -33 -113l-158 -472h-87l-150 442q-26 77 -43 143h-1q-2 -42 -18 -177l-49 -408h-79l96 675h97l154 -456q20 -57 39 -131h1q22 78 37 124l158 463h100z" />
<glyph unicode="N" horiz-adv-x="711" d="M620 0h-102l-281 448q-40 64 -77 138q6 -154 6 -379v-207h-75v675h102l276 -438q32 -52 83 -144q-7 157 -7 397v185h75v-675z" />
<glyph unicode="O" horiz-adv-x="705" d="M660 345q0 -164 -90.5 -259t-225.5 -95q-148 0 -223.5 90.5t-75.5 248.5q0 165 90.5 259.5t226.5 94.5q139 0 218.5 -89t79.5 -250zM578 333q0 136 -59.5 210.5t-166.5 74.5q-94 0 -159.5 -73.5t-65.5 -200.5q0 -131 57 -208.5t168 -77.5q94 0 160 73.5t66 201.5z" />
<glyph unicode="P" horiz-adv-x="521" d="M485 486q0 -98 -73.5 -160.5t-185.5 -62.5q-31 0 -58 3v-266h-77v675q72 3 159 3q112 0 173.5 -52t61.5 -140zM405 475q0 140 -165 140q-51 0 -72 -1v-283q36 -4 61 -4q81 1 128.5 41t47.5 107z" />
<glyph unicode="Q" horiz-adv-x="704" d="M660 345q0 -164 -90.5 -259t-225.5 -95q-148 0 -223.5 90.5t-75.5 248.5q0 165 90.5 259.5t226.5 94.5q139 0 218.5 -89t79.5 -250zM704 -178q-32 -4 -62 -4q-38 0 -74 6q-66 13 -125 26q-37 9 -73 9q-21 0 -42 -3v69q25 3 50 3q26 0 53 -4q51 -6 86 -16.5t85 -17.5 q25 -3 49 -3q27 0 53 4v-69zM578 333q0 136 -59.5 210.5t-166.5 74.5q-94 0 -159.5 -73.5t-65.5 -200.5q0 -131 57 -208.5t168 -77.5q94 0 160 73.5t66 201.5z" />
<glyph unicode="R" horiz-adv-x="548" d="M516 0h-99l-237 312h-12v-312h-77v675q65 3 159 3q223 0 223 -170q0 -86 -61 -136.5t-150 -54.5q53 -61 60 -70zM393 497q0 64 -39.5 92t-120.5 28q-35 0 -65 -3v-243q22 -2 61 -2q77 0 120.5 35.5t43.5 92.5z" />
<glyph unicode="S" horiz-adv-x="504" d="M450 194q0 -89 -67 -146t-178 -57q-78 0 -146 20l11 74q68 -27 140 -27q70 0 114.5 31t44.5 96q0 44 -32.5 72.5t-78.5 46t-92 37t-78.5 58.5t-32.5 98q0 83 60.5 135t168.5 52q61 0 121 -13l-9 -69q-59 18 -117 18q-72 0 -108.5 -30.5t-36.5 -83.5q0 -36 23.5 -62.5 t58.5 -40.5l76 -32q41 -18 76 -36.5t58.5 -54.5t23.5 -86z" />
<glyph unicode="T" horiz-adv-x="519" d="M500 611h-203v-611h-76v611h-202v64h481v-64z" />
<glyph unicode="U" horiz-adv-x="697" d="M606 256q0 -130 -67.5 -197.5t-198.5 -67.5q-75 0 -126.5 19.5t-77 54.5t-35.5 73t-10 86v451h77v-444q0 -83 38.5 -130t139.5 -47q95 0 140 45t45 151v425h75v-419z" />
<glyph unicode="V" horiz-adv-x="613" d="M598 675l-253 -675h-84l-247 675h86l158 -449q29 -78 46 -141h2q17 59 49 147l163 443h80z" />
<glyph unicode="W" horiz-adv-x="952" d="M914 675l-180 -675h-95l-140 486q-15 53 -25 108h-1q-9 -52 -24 -108l-137 -486h-93l-181 675h82l122 -466q19 -73 28 -127h1q14 70 28 121l133 472h90l140 -478q16 -55 27 -114h1q8 51 22 102l127 490h75z" />
<glyph unicode="X" horiz-adv-x="587" d="M567 0h-95l-183 291l-181 -291h-88l224 349l-210 326h88l169 -267l166 267h86l-206 -322z" />
<glyph unicode="Y" horiz-adv-x="527" d="M515 675l-216 -430v-245h-76v244l-211 431h84l115 -241q23 -49 52 -119h1q14 35 59 130l111 230h81z" />
<glyph unicode="Z" horiz-adv-x="540" d="M495 0h-449v56l299 465l60 88q-72 -2 -158 -2h-190v68h435v-57l-315 -486q-8 -13 -23.5 -35.5t-19.5 -29.5q22 3 177 3h184v-70z" />
<glyph unicode="[" horiz-adv-x="319" d="M281 -196h-189v965h189v-57h-120v-850h120v-58z" />
<glyph unicode="\" horiz-adv-x="427" d="M434 -161h-71l-350 918h71z" />
<glyph unicode="]" horiz-adv-x="319" d="M228 -196h-189v58h119v850h-119v57h189v-965z" />
<glyph unicode="^" d="M469 375l-57 -30l-149 272l-143 -272l-52 28l166 302h62z" />
<glyph unicode="_" d="M550 -250h-550v59h550v-59z" />
<glyph unicode="`" horiz-adv-x="368" d="M272 614l-35 -39l-138 116l44 49z" />
<glyph unicode="a" horiz-adv-x="520" d="M430 0h-74q0 76 5 105h-2q-19 -49 -65.5 -81.5t-107.5 -32.5q-60 0 -98 36t-38 96q0 78 79 124t223 46v36q0 59 -25.5 88t-87.5 29q-77 0 -146 -38l-17 62q82 36 175 36q97 0 137 -42.5t40 -118.5v-196q0 -105 2 -149zM352 225v13q-227 0 -227 -104q0 -36 22.5 -59 t58.5 -23q63 0 104.5 52.5t41.5 120.5z" />
<glyph unicode="b" horiz-adv-x="558" d="M512 271q0 -131 -69 -204t-187 -73q-96 0 -165 19v717h75v-252q0 -54 -9 -91l2 -1q21 56 66 88t104 32q88 0 135.5 -60t47.5 -175zM433 265q0 179 -119 179q-69 0 -108.5 -64.5t-39.5 -139.5v-174q42 -13 97 -13q170 0 170 212z" />
<glyph unicode="c" horiz-adv-x="440" d="M411 21q-67 -28 -152 -28q-215 0 -215 238q0 125 61.5 199t175.5 74q72 0 127 -22l-15 -63q-61 24 -121 24q-70 0 -109.5 -55t-39.5 -144q0 -187 151 -187q68 0 123 26z" />
<glyph unicode="d" horiz-adv-x="557" d="M465 0h-74q0 63 9 108l-2 1q-21 -54 -66.5 -86t-104.5 -32q-90 0 -136.5 62t-46.5 173q0 131 68.5 204t186.5 73q35 0 92 -5v232h74v-730zM391 257v175q-51 12 -98 12q-80 0 -125 -52t-45 -160q0 -179 120 -179q47 0 82 33.5t50.5 78.5t15.5 92z" />
<glyph unicode="e" horiz-adv-x="505" d="M456 301q0 -22 -2 -40h-332v-16q0 -191 165 -191q75 0 141 29l13 -61q-76 -31 -169 -31q-228 0 -228 255q0 115 58.5 187.5t159.5 72.5q97 0 145.5 -58t48.5 -147zM378 316v7q0 56 -30 90q-33 36 -90 36q-52 0 -87.5 -35.5t-44.5 -97.5h252z" />
<glyph unicode="f" horiz-adv-x="348" d="M385 726l-7 -63q-34 11 -78 11q-57 0 -83.5 -34t-26.5 -106v-37h147v-59h-147v-438h-75v438h-108v59h108v35q0 203 188 203q41 0 82 -9z" />
<glyph unicode="g" horiz-adv-x="539" d="M509 -72q0 -79 -73 -132t-186 -53q-96 0 -152 39t-56 109q0 43 24.5 79t62.5 58q-23 9 -36.5 28.5t-13.5 44.5q0 54 54 82q-73 43 -73 138q0 77 55.5 131t151.5 54q29 0 67 -9h169v-59h-89q46 -36 46 -103q0 -80 -53.5 -130.5t-154.5 -50.5q-34 0 -58 8q-37 -17 -37 -46 q0 -22 21 -31t69 -11l95 -4q81 -3 124 -40t43 -102zM385 328q0 56 -32 88t-90 32q-59 0 -93.5 -34t-34.5 -87q0 -56 32.5 -86.5t92.5 -30.5q58 0 91.5 31t33.5 87zM432 -82q0 84 -111 88l-100 4h-32q-71 -46 -71 -106q0 -47 40.5 -74t104.5 -27q80 0 124.5 32t44.5 83z" />
<glyph unicode="h" horiz-adv-x="577" d="M486 0h-75v321q0 62 -20.5 92.5t-72.5 30.5q-66 0 -109 -58.5t-43 -147.5v-238h-75v730h75v-244q0 -66 -8 -99l2 -1q22 56 68 88t109 32q149 0 149 -160v-346z" />
<glyph unicode="i" horiz-adv-x="257" d="M181 657q0 -21 -15.5 -36t-36.5 -15q-22 0 -37 14.5t-15 36.5q0 21 15 36t37 15q21 0 36.5 -15t15.5 -36zM166 0h-75v497h75v-497z" />
<glyph unicode="j" horiz-adv-x="265" d="M188 657q0 -21 -15 -36t-37 -15q-21 0 -36 14.5t-15 36.5q0 21 15 36t36 15q22 0 37 -14.5t15 -36.5zM174 -63q0 -102 -36.5 -147.5t-127.5 -45.5q-38 0 -67 9l7 66q33 -12 64 -12q50 0 67.5 26t17.5 99v565h75v-560z" />
<glyph unicode="k" horiz-adv-x="482" d="M459 0h-97l-196 261v-261h-75v730h75v-456l187 223h91l-198 -226z" />
<glyph unicode="l" horiz-adv-x="257" d="M166 0h-75v730h75v-730z" />
<glyph unicode="m" horiz-adv-x="884" d="M793 0h-75v320q0 61 -19.5 92.5t-70.5 31.5q-60 0 -104.5 -57.5t-44.5 -150.5v-236h-74v321q0 59 -19 91t-71 32q-62 0 -105.5 -59t-43.5 -149v-236h-75v497h74q0 -70 -8 -111l2 -1q21 56 67.5 88.5t107.5 32.5q32 0 57.5 -9t40 -22t24 -30t13 -31t4.5 -27q17 45 61 82 t112 37q147 0 147 -162v-344z" />
<glyph unicode="n" horiz-adv-x="577" d="M486 0h-75v321q0 62 -20.5 92.5t-72.5 30.5q-66 0 -109 -58.5t-43 -147.5v-238h-75v497h74q0 -63 -8 -111l2 -1q22 56 68 88.5t110 32.5q149 0 149 -160v-346z" />
<glyph unicode="o" horiz-adv-x="542" d="M499 257q0 -114 -65 -190t-173 -76q-103 0 -161 64t-58 191q0 110 64.5 185t172.5 75q99 0 159.5 -60t60.5 -189zM421 252q0 91 -38 141.5t-111 50.5q-64 0 -108 -49t-44 -143q0 -95 39.5 -146t112.5 -51q63 0 106 50t43 147z" />
<glyph unicode="p" horiz-adv-x="558" d="M512 271q0 -132 -67.5 -204.5t-186.5 -72.5q-54 0 -92 7v-250h-75v746h74q0 -69 -8 -108l2 -1q21 55 66 86.5t104 31.5q88 0 135.5 -60t47.5 -175zM433 265q0 179 -119 179q-69 0 -108.5 -64.5t-39.5 -139.5v-174q42 -13 97 -13q170 0 170 212z" />
<glyph unicode="q" horiz-adv-x="558" d="M467 -249h-75v271q0 51 7 86h-2q-20 -54 -65 -85.5t-102 -31.5q-89 0 -136.5 59.5t-47.5 174.5q0 132 69 205.5t190 73.5q84 0 162 -14v-739zM392 258v175q-50 12 -97 12q-80 0 -125 -52t-45 -161q0 -179 119 -179q47 0 82 33.5t50.5 79t15.5 92.5z" />
<glyph unicode="r" horiz-adv-x="354" d="M331 505l-3 -74q-15 3 -29 3q-60 0 -93 -48q-40 -60 -40 -187v-199h-75v497h74q0 -57 -11 -125l1 -1q17 63 61 103q36 32 92 32q11 0 23 -1z" />
<glyph unicode="s" horiz-adv-x="428" d="M374 148q0 -68 -56 -112.5t-150 -44.5q-66 0 -111 13l9 69q51 -19 112 -19q53 0 86 23t33 61q0 33 -25 52t-60.5 28.5t-71.5 21t-61 41.5t-25 79q0 65 50 105.5t142 40.5q45 0 98 -11l-7 -63q-50 15 -99 15q-107 0 -107 -79q0 -33 25 -52t60.5 -28.5t71.5 -22t61 -41.5 t25 -76z" />
<glyph unicode="t" horiz-adv-x="370" d="M336 3q-51 -11 -97 -11q-73 0 -101 34t-28 113v299h-108v59h108v165l75 21v-186h146v-59h-146v-268q0 -67 15.5 -89.5t59.5 -22.5q37 0 67 8z" />
<glyph unicode="u" horiz-adv-x="577" d="M486 0h-74q0 63 8 111l-2 1q-22 -56 -68 -88.5t-110 -32.5q-149 0 -149 160v346h75v-321q0 -62 20.5 -92.5t72.5 -30.5q66 0 109 58.5t43 147.5v238h75v-497z" />
<glyph unicode="v" horiz-adv-x="478" d="M468 497l-192 -497h-78l-188 497h85l116 -324l28 -88h1q16 55 27 84l119 328h82z" />
<glyph unicode="w" horiz-adv-x="792" d="M773 497l-162 -497h-87l-109 321q-9 25 -28 95h-1q-8 -35 -36 -125l-91 -291h-87l-154 497h84l85 -296q26 -88 34 -122h1q19 75 34 122l95 296h85l96 -295q24 -74 36 -124h2q9 38 34 122l89 297h80z" />
<glyph unicode="x" horiz-adv-x="515" d="M490 0h-99l-137 200l-137 -200h-93l188 249l-178 248h93l133 -196l136 196h86l-178 -245z" />
<glyph unicode="y" horiz-adv-x="471" d="M461 497l-206 -544q-44 -117 -95 -163.5t-134 -46.5q-23 0 -53 6l8 67q28 -7 59 -7q45 0 78 29t61 104l22 58l-190 497h86l104 -285q18 -50 38 -118h1q12 43 50 151l89 252h82z" />
<glyph unicode="z" horiz-adv-x="446" d="M393 0h-344v53l253 379q-64 -2 -141 -2h-107v67h334v-52l-251 -378q60 2 144 2h112v-69z" />
<glyph unicode="{" horiz-adv-x="333" d="M300 -196h-17q-78 0 -111.5 45t-33.5 139v191q0 57 -23.5 81t-84.5 28v60q63 4 85.5 26t22.5 82v130q0 183 145 183h17v-57q-53 0 -73 -26.5t-20 -96.5v-128q0 -124 -93 -142v-1q93 -15 93 -144v-189q0 -70 20 -96.5t73 -26.5v-58z" />
<glyph unicode="|" horiz-adv-x="284" d="M171 -249h-59v1000h59v-1000z" />
<glyph unicode="}" horiz-adv-x="329" d="M310 288q-61 -4 -84.5 -28t-23.5 -81v-191q0 -93 -34 -138.5t-112 -45.5h-17v58q53 0 73.5 26.5t20.5 96.5v189q0 129 93 144v1q-93 13 -93 137v133q0 70 -20.5 96.5t-73.5 26.5v57h17q146 0 146 -183v-125q0 -63 22.5 -86t85.5 -27v-60z" />
<glyph unicode="~" d="M493 564q0 -63 -34.5 -102.5t-92.5 -39.5q-30 0 -53.5 11.5t-38 28t-27 33.5t-29.5 28.5t-37 11.5q-64 0 -66 -92h-56v6q0 64 34.5 103t92.5 39q30 0 53.5 -11.5t38 -28.5t27 -33.5t29.5 -28t37 -11.5q64 0 66 93h56v-7z" />
<glyph unicode="&#xa1;" horiz-adv-x="319" d="M204 453q0 -22 -15.5 -37.5t-38.5 -15.5q-22 0 -37.5 15t-15.5 38q0 22 15.5 37t37.5 15q23 0 38.5 -15t15.5 -37zM195 -204h-90l14 541h62z" />
<glyph unicode="&#xa2;" d="M468 139q-60 -29 -126 -35v-104h-60v104q-97 6 -148.5 63t-51.5 163q0 95 53 155t147 74v91h60v-89q61 -2 118 -24l-14 -64q-57 27 -120 27q-78 0 -122 -42.5t-44 -124.5q0 -165 163 -165q70 0 126 32z" />
<glyph unicode="&#xa3;" d="M477 0h-402v52q51 44 75 81.5t24 78.5q0 37 -8 80h-110v59h102q-13 74 -13 120q0 188 188 188q62 0 118 -17l-17 -64q-58 20 -108 20q-106 0 -106 -118q0 -37 15 -129h162v-59h-155q7 -35 7 -74q0 -46 -19.5 -81t-62.5 -73q42 2 83 2h227v-66z" />
<glyph unicode="&#xa4;" d="M496 106l-54 -41l-81 110q-41 -27 -94 -27q-43 0 -73 15l-73 -98l-54 40l74 92q-41 47 -41 133q0 77 46 126l-79 98l53 40l76 -103q36 20 85 20q52 0 86 -19l77 102l52 -41l-80 -99q34 -44 34 -119t-41 -122zM382 334q0 55 -26.5 87.5t-83.5 32.5q-45 0 -74.5 -33.5 t-29.5 -88.5q0 -127 109 -127q43 0 74 35.5t31 93.5z" />
<glyph unicode="&#xa5;" d="M512 650l-182 -363h150v-53h-169v-75h169v-53h-169v-106h-76v106h-168v53h168v75h-168v53h150l-178 363h84l102 -215q19 -41 49 -119h1q21 56 56 127l100 207h81z" />
<glyph unicode="&#xa6;" horiz-adv-x="284" d="M171 383h-59v368h59v-368zM171 -249h-59v378h59v-378z" />
<glyph unicode="&#xa7;" horiz-adv-x="516" d="M424 230q0 -82 -79 -140q39 -53 39 -104q0 -63 -46 -106.5t-129 -43.5q-35 0 -77 11l7 64q43 -13 74 -13q43 0 68 23t25 60q0 31 -23.5 64.5t-56.5 65.5l-68 67q-33 34 -56.5 77.5t-23.5 88.5q0 81 79 141q-40 53 -40 104q0 64 43 105t125 41q38 0 73 -8l-7 -64 q-34 11 -68 11q-43 0 -65 -21t-22 -58q0 -30 23.5 -64t56.5 -67l68 -66q33 -35 56.5 -79t23.5 -89zM352 220q0 29 -16.5 60.5t-32.5 50t-55 57.5l-51 53q-47 -33 -47 -87q0 -23 7.5 -44.5t27 -46.5t33 -40t44.5 -45.5t43 -43.5q47 33 47 86z" />
<glyph unicode="&#xa8;" horiz-adv-x="546" d="M407 657q0 -20 -14 -34t-34 -14t-34 14t-14 34t14 33.5t34 13.5t34 -14t14 -33zM219 657q0 -20 -14 -34t-34 -14t-34 14t-14 34t14 33.5t34 13.5t34 -13.5t14 -33.5z" />
<glyph unicode="&#xa9;" horiz-adv-x="753" d="M708 336q0 -138 -97.5 -235.5t-235.5 -97.5q-142 0 -238 96t-96 235t97.5 236t236.5 97t236 -96t97 -235zM647 334q0 113 -79.5 194t-192.5 81t-192.5 -79.5t-79.5 -193.5t79.5 -194.5t192.5 -80.5t192.5 80t79.5 193zM473 175q-45 -17 -98 -17q-81 0 -119 46.5 t-38 125.5t42 131t132 52q39 0 77 -12l-6 -56q-34 16 -75 16q-103 0 -103 -128q0 -120 99 -120q44 0 82 15z" />
<glyph unicode="&#xaa;" horiz-adv-x="383" d="M311 351h-65q0 27 6 54l-2 1q-9 -25 -38.5 -44t-62.5 -19q-48 0 -72.5 22.5t-24.5 60.5q0 54 51.5 86.5t143.5 32.5v19q0 65 -67 65q-57 0 -104 -26l-5 59q49 20 118 20q65 0 93.5 -30.5t28.5 -78.5q0 -32 -0.5 -79t-0.5 -56q0 -32 0.5 -59t0.5 -28zM339 225h-279v60h279 v-60zM247 491v9q-131 0 -131 -64q0 -18 12 -29t34 -11q41 0 63 33t22 62z" />
<glyph unicode="&#xab;" horiz-adv-x="499" d="M421 153l-56 -32l-124 172l125 175l55 -31l-103 -143zM231 152l-57 -32l-115 173l116 177l55 -31l-95 -145z" />
<glyph unicode="&#xac;" d="M479 106h-65v160h-371v63h436v-223z" />
<glyph unicode="&#xad;" horiz-adv-x="328" d="M280 260h-232v62h232v-62z" />
<glyph unicode="&#xae;" horiz-adv-x="562" d="M495 528q0 -88 -63.5 -151t-150.5 -63q-91 0 -153 62t-62 152q0 89 63 151.5t152 62.5q90 0 152 -61.5t62 -152.5zM442 526q0 68 -47.5 117t-113.5 49q-67 0 -114.5 -47.5t-47.5 -114.5q0 -68 47.5 -117t114.5 -49t114 47.5t47 114.5zM371 414h-55l-59 99h-3v-99h-44v230 h74q77 0 77 -59q0 -58 -57 -66q7 -9 21 -31zM315 579q0 31 -38 31h-23v-68h15q23 0 34.5 11t11.5 26z" />
<glyph unicode="&#xaf;" horiz-adv-x="395" d="M320 623h-245v57h245v-57z" />
<glyph unicode="&#xb0;" horiz-adv-x="371" d="M311 613q0 -55 -39.5 -89t-91.5 -34q-56 0 -89 32.5t-33 87.5q0 56 38 90t90 34q61 0 93 -34.5t32 -86.5zM250 612q0 29 -15.5 50.5t-50.5 21.5q-28 0 -46.5 -20t-18.5 -52q0 -33 17.5 -52.5t46.5 -19.5t48 20.5t19 51.5z" />
<glyph unicode="&#xb1;" d="M507 331h-197v-201h-70v201h-197v63h197v200h70v-200h197v-63zM506 0h-462v63h462v-63z" />
<glyph unicode="&#xb2;" horiz-adv-x="315" d="M261 357h-214v44l80 72q31 28 42.5 46t11.5 39t-14 34t-39 13q-33 0 -57 -19l-20 48q45 24 91 24q54 0 81.5 -25.5t27.5 -63.5q0 -56 -64 -111l-53 -46h127v-55z" />
<glyph unicode="&#xb3;" horiz-adv-x="303" d="M246 444q0 -46 -36.5 -70t-99.5 -24q-34 0 -62 7l9 49q32 -8 54 -8q65 0 65 43q0 29 -23 38q-15 6 -44 6q-16 0 -37 -2v44h24q74 0 74 45q0 17 -12.5 28t-38.5 11q-29 0 -53 -12l-14 43q35 16 82 16q50 0 75.5 -22t25.5 -55q0 -48 -46 -70q27 -4 42 -22.5t15 -44.5z" />
<glyph unicode="&#xb4;" horiz-adv-x="387" d="M273 691l-138 -116l-35 39l128 126z" />
<glyph unicode="&#xb5;" horiz-adv-x="626" d="M601 67q-13 -33 -41.5 -54.5t-67.5 -21.5q-45 0 -61 33q-10 22 -10 49q0 15 3 32h-1q-19 -51 -63 -82t-100 -31q-65 0 -99 32l11 -273h-79v746h75v-314q0 -64 23 -96.5t79 -32.5q60 0 101.5 54.5t41.5 130.5v258h75v-358q0 -48 7 -65.5t24 -17.5q29 0 45 39z" />
<glyph unicode="&#xb6;" horiz-adv-x="569" d="M504 618h-72v-714h-145v57h75v714h142v-57zM287 254h-3q-103 0 -158 60q-56 60 -56 153q0 90 60.5 149t156.5 59v-421z" />
<glyph unicode="&#xb7;" horiz-adv-x="220" d="M167 297q0 -24 -16.5 -40.5t-40.5 -16.5t-40.5 16.5t-16.5 40.5t16.5 40.5t40.5 16.5t40.5 -16.5t16.5 -40.5z" />
<glyph unicode="&#xb8;" horiz-adv-x="400" d="M259 -41q30 -38 30 -79q0 -54 -52 -115h-63q28 35 40 61q8 18 8 36q0 8 -2 15q-4 26 -27 54z" />
<glyph unicode="&#xb9;" horiz-adv-x="305" d="M199 357h-65v237l-72 -34l-16 49l94 41h59v-293z" />
<glyph unicode="&#xba;" horiz-adv-x="417" d="M361 519q0 -78 -45.5 -126.5t-117.5 -48.5q-147 0 -147 171q0 74 44.5 121t114.5 47q63 0 107 -37t44 -127zM347 225h-281v60h281v-60zM291 519q0 46 -19.5 76.5t-64.5 30.5q-36 0 -61 -27.5t-25 -83.5q0 -112 82 -112q40 0 64 29t24 87z" />
<glyph unicode="&#xbb;" horiz-adv-x="499" d="M440 296l-117 -176l-55 31l96 144l-95 143l57 32zM258 296l-126 -175l-54 31l103 143l-102 141l56 32z" />
<glyph unicode="&#xbc;" horiz-adv-x="700" d="M526 107v141l-87 -141h87zM641 58h-54v-58h-61v58h-145l-3 44l117 191h92v-186h54v-49zM601 633l-496 -653l-50 35l496 653zM199 357h-65v237l-72 -34l-16 49l94 41h59v-293z" />
<glyph unicode="&#xbd;" horiz-adv-x="705" d="M637 0h-215v44l80 72q32 28 43.5 46t11.5 38q0 21 -14.5 34.5t-39.5 13.5q-33 0 -56 -20l-21 49q43 23 91 23q54 0 81.5 -25.5t27.5 -62.5q0 -56 -63 -111l-54 -47h128v-54zM600 633l-495 -653l-50 35l496 653zM199 357h-65v237l-72 -34l-16 49l94 41h59v-293z" />
<glyph unicode="&#xbe;" horiz-adv-x="700" d="M526 107v141l-87 -141h87zM641 58h-54v-58h-61v58h-145l-3 44l117 191h92v-186h54v-49zM601 633l-496 -653l-49 35l495 653zM247 444q0 -46 -36 -70.5t-99 -24.5q-35 0 -63 7l10 49q30 -8 54 -8q65 0 65 44q0 29 -24 38q-15 6 -44 6q-16 0 -37 -2v44h24q74 0 74 45 q0 39 -51 39q-28 0 -52 -12l-15 43q35 16 83 16q50 0 75 -22t25 -55q0 -48 -46 -70q27 -4 42 -22.5t15 -44.5z" />
<glyph unicode="&#xbf;" horiz-adv-x="443" d="M306 453q0 -22 -15.5 -37.5t-38.5 -15.5q-22 0 -37.5 15t-15.5 38q0 22 15.5 37t37.5 15q23 0 38.5 -15t15.5 -37zM353 -141l-10 -69q-125 4 -201.5 59t-76.5 130q0 38 15 70.5t36.5 52.5t45 45t40.5 47.5t22 59.5q2 11 2 22q0 29 -10 61h74q12 -37 12 -70v-17 q-5 -40 -21 -65.5t-38.5 -50.5t-43.5 -44.5t-36 -46.5t-15 -56q0 -52 56.5 -88t148.5 -40z" />
<glyph unicode="&#xc0;" horiz-adv-x="611" d="M598 0h-87l-59 166h-300l-60 -166h-79l251 675h83zM431 227l-98 272q-20 56 -30 91h-2q-13 -48 -29 -90l-99 -273h258zM357 773l-16 -44l-180 57l24 61z" />
<glyph unicode="&#xc1;" horiz-adv-x="611" d="M598 0h-87l-59 166h-300l-60 -166h-79l251 675h83zM431 227l-98 272q-20 56 -30 91h-2q-13 -48 -29 -90l-99 -273h258zM439 786l-179 -57l-16 44l171 74z" />
<glyph unicode="&#xc2;" horiz-adv-x="611" d="M598 0h-87l-59 166h-300l-60 -166h-79l251 675h83zM431 227l-98 272q-20 56 -30 91h-2q-13 -48 -29 -90l-99 -273h258zM460 773l-25 -46l-135 64l-130 -64l-22 43l155 84z" />
<glyph unicode="&#xc3;" horiz-adv-x="611" d="M598 0h-87l-59 166h-300l-60 -166h-79l251 675h83zM431 227l-98 272q-20 56 -30 91h-2q-13 -48 -29 -90l-99 -273h258zM478 808q-40 -70 -107 -70q-36 0 -75 27t-59 27q-36 0 -64 -46l-40 29q39 70 107 70q36 0 75 -27t59 -27q35 0 64 46z" />
<glyph unicode="&#xc4;" horiz-adv-x="611" d="M598 0h-87l-59 166h-300l-60 -166h-79l251 675h83zM431 227l-98 272q-20 56 -30 91h-2q-13 -48 -29 -90l-99 -273h258zM455 779q0 -19 -13.5 -32.5t-32.5 -13.5t-32 13.5t-13 32.5t13 32.5t32 13.5t32.5 -13.5t13.5 -32.5zM242 779q0 -19 -13 -32.5t-33 -13.5 q-19 0 -32 13.5t-13 32.5t13 32.5t32 13.5q20 0 33 -13.5t13 -32.5z" />
<glyph unicode="&#xc5;" horiz-adv-x="611" d="M598 0h-87l-59 166h-300l-60 -166h-79l240 646q-54 25 -54 88q0 45 31.5 75t76.5 30q46 0 77 -30t31 -75q0 -28 -15.5 -52.5t-41.5 -36.5zM363 734q0 24 -16 41t-40 17t-40 -17t-16 -41t16 -41t40 -17t40 17t16 41zM431 227l-97 268q-13 25 -31 94h-2q-13 -48 -30 -94 l-98 -268h258z" />
<glyph unicode="&#xc6;" horiz-adv-x="779" d="M704 0h-342v169h-235l-91 -169h-80l367 675h371v-62h-257v-234h247v-62h-247v-253h267v-64zM362 230v380h-3q-33 -69 -68 -134l-134 -246h205z" />
<glyph unicode="&#xc7;" horiz-adv-x="590" d="M544 30q-87 -37 -190 -37q-152 0 -228.5 87.5t-76.5 241.5q0 162 81.5 261t246.5 99q81 0 158 -22l-13 -71q-82 28 -158 28q-117 0 -174.5 -79t-57.5 -203q0 -133 60 -204t182 -71q83 0 155 36zM355 -41q30 -38 30 -79q0 -54 -52 -115h-63q28 35 40 61q8 18 8 36 q0 8 -2 15q-4 26 -27 54z" />
<glyph unicode="&#xc8;" horiz-adv-x="505" d="M431 0h-340v675h340v-62h-263v-234h250v-62h-250v-253h263v-64zM319 773l-16 -44l-180 57l24 61z" />
<glyph unicode="&#xc9;" horiz-adv-x="505" d="M431 0h-340v675h340v-62h-263v-234h250v-62h-250v-253h263v-64zM396 786l-179 -57l-16 44l171 74z" />
<glyph unicode="&#xca;" horiz-adv-x="505" d="M431 0h-340v675h340v-62h-263v-234h250v-62h-250v-253h263v-64zM414 773l-25 -46l-135 64l-130 -64l-22 43l155 84z" />
<glyph unicode="&#xcb;" horiz-adv-x="505" d="M431 0h-340v675h340v-62h-263v-234h250v-62h-250v-253h263v-64zM407 779q0 -19 -13.5 -32.5t-32.5 -13.5t-32 13.5t-13 32.5t13 32.5t32 13.5t32.5 -13.5t13.5 -32.5zM194 779q0 -19 -13 -32.5t-33 -13.5q-19 0 -32 13.5t-13 32.5t13 32.5t32 13.5q20 0 33 -13.5 t13 -32.5z" />
<glyph unicode="&#xcc;" horiz-adv-x="259" d="M168 0h-77v675h77v-675zM187 773l-16 -44l-180 57l24 61z" />
<glyph unicode="&#xcd;" horiz-adv-x="259" d="M168 0h-77v675h77v-675zM262 786l-179 -57l-16 44l171 74z" />
<glyph unicode="&#xce;" horiz-adv-x="259" d="M168 0h-77v675h77v-675zM287 773l-25 -46l-135 64l-130 -64l-22 43l155 84z" />
<glyph unicode="&#xcf;" horiz-adv-x="259" d="M168 0h-77v675h77v-675zM281 779q0 -19 -13.5 -32.5t-32.5 -13.5t-32 13.5t-13 32.5t13 32.5t32 13.5t32.5 -13.5t13.5 -32.5zM68 779q0 -19 -13 -32.5t-33 -13.5q-19 0 -32 13.5t-13 32.5t13 32.5t32 13.5q20 0 33 -13.5t13 -32.5z" />
<glyph unicode="&#xd0;" horiz-adv-x="693" d="M643 343q0 -169 -103 -257.5t-276 -88.5q-36 0 -89 1.5t-73 1.5v319h-101v58h101v298q24 0 90.5 1.5t103.5 1.5q168 0 257.5 -83t89.5 -252zM563 338q0 278 -275 278q-29 0 -110 -3v-236h148v-58h-148v-254q35 -5 97 -5q133 0 210.5 69.5t77.5 208.5z" />
<glyph unicode="&#xd1;" horiz-adv-x="711" d="M620 0h-102l-281 448q-40 64 -77 138q6 -154 6 -379v-207h-75v675h102l276 -438q32 -52 83 -144q-7 157 -7 397v185h75v-675zM520 808q-40 -70 -107 -70q-36 0 -75 27t-59 27q-36 0 -64 -46l-40 29q39 70 107 70q36 0 75 -27t59 -27q35 0 64 46z" />
<glyph unicode="&#xd2;" horiz-adv-x="705" d="M660 345q0 -164 -90.5 -259t-225.5 -95q-148 0 -223.5 90.5t-75.5 248.5q0 165 90.5 259.5t226.5 94.5q139 0 218.5 -89t79.5 -250zM578 333q0 136 -59.5 210.5t-166.5 74.5q-94 0 -159.5 -73.5t-65.5 -200.5q0 -131 57 -208.5t168 -77.5q94 0 160 73.5t66 201.5z M412 773l-16 -44l-180 57l24 61z" />
<glyph unicode="&#xd3;" horiz-adv-x="705" d="M660 345q0 -164 -90.5 -259t-225.5 -95q-148 0 -223.5 90.5t-75.5 248.5q0 165 90.5 259.5t226.5 94.5q139 0 218.5 -89t79.5 -250zM578 333q0 136 -59.5 210.5t-166.5 74.5q-94 0 -159.5 -73.5t-65.5 -200.5q0 -131 57 -208.5t168 -77.5q94 0 160 73.5t66 201.5z M495 786l-179 -57l-16 44l171 74z" />
<glyph unicode="&#xd4;" horiz-adv-x="705" d="M660 345q0 -164 -90.5 -259t-225.5 -95q-148 0 -223.5 90.5t-75.5 248.5q0 165 90.5 259.5t226.5 94.5q139 0 218.5 -89t79.5 -250zM578 333q0 136 -59.5 210.5t-166.5 74.5q-94 0 -159.5 -73.5t-65.5 -200.5q0 -131 57 -208.5t168 -77.5q94 0 160 73.5t66 201.5z M516 773l-25 -46l-135 64l-130 -64l-22 43l155 84z" />
<glyph unicode="&#xd5;" horiz-adv-x="705" d="M660 345q0 -164 -90.5 -259t-225.5 -95q-148 0 -223.5 90.5t-75.5 248.5q0 165 90.5 259.5t226.5 94.5q139 0 218.5 -89t79.5 -250zM578 333q0 136 -59.5 210.5t-166.5 74.5q-94 0 -159.5 -73.5t-65.5 -200.5q0 -131 57 -208.5t168 -77.5q94 0 160 73.5t66 201.5z M523 808q-40 -70 -107 -70q-36 0 -75 27t-59 27q-36 0 -64 -46l-40 29q39 70 107 70q36 0 75 -27t59 -27q35 0 64 46z" />
<glyph unicode="&#xd6;" horiz-adv-x="705" d="M660 345q0 -164 -90.5 -259t-225.5 -95q-148 0 -223.5 90.5t-75.5 248.5q0 165 90.5 259.5t226.5 94.5q139 0 218.5 -89t79.5 -250zM578 333q0 136 -59.5 210.5t-166.5 74.5q-94 0 -159.5 -73.5t-65.5 -200.5q0 -131 57 -208.5t168 -77.5q94 0 160 73.5t66 201.5z M502 779q0 -19 -13 -32.5t-33 -13.5q-19 0 -32 13.5t-13 32.5t13 32.5t32 13.5q20 0 33 -13.5t13 -32.5zM289 779q0 -19 -13.5 -32.5t-32.5 -13.5t-32 13.5t-13 32.5t13 32.5t32 13.5t32.5 -13.5t13.5 -32.5z" />
<glyph unicode="&#xd7;" d="M492 126l-46 -46l-173 173l-173 -173l-42 42l173 173l-173 173l46 46l173 -173l173 173l42 -42l-173 -173z" />
<glyph unicode="&#xd8;" horiz-adv-x="705" d="M660 342q0 -165 -89.5 -258t-230.5 -93q-47 0 -84 10l-38 -104l-58 20l38 104q-153 74 -153 311q0 163 90 257.5t226 94.5q40 0 78 -8l36 97l58 -20l-36 -96q78 -34 120.5 -114t42.5 -201zM580 332q0 90 -28 156.5t-81 97.5l-192 -519q30 -10 73 -10q101 2 164.5 74 t63.5 201zM416 610q-34 7 -65 7h-8q-93 -3 -155.5 -76t-62.5 -200q0 -183 99 -247z" />
<glyph unicode="&#xd9;" horiz-adv-x="697" d="M606 256q0 -130 -67.5 -197.5t-198.5 -67.5q-75 0 -126.5 19.5t-77 54.5t-35.5 73t-10 86v451h77v-444q0 -83 38.5 -130t139.5 -47q95 0 140 45t45 151v425h75v-419zM409 773l-16 -44l-180 57l24 61z" />
<glyph unicode="&#xda;" horiz-adv-x="697" d="M606 256q0 -130 -67.5 -197.5t-198.5 -67.5q-75 0 -126.5 19.5t-77 54.5t-35.5 73t-10 86v451h77v-444q0 -83 38.5 -130t139.5 -47q95 0 140 45t45 151v425h75v-419zM482 786l-179 -57l-16 44l171 74z" />
<glyph unicode="&#xdb;" horiz-adv-x="697" d="M606 256q0 -130 -67.5 -197.5t-198.5 -67.5q-75 0 -126.5 19.5t-77 54.5t-35.5 73t-10 86v451h77v-444q0 -83 38.5 -130t139.5 -47q95 0 140 45t45 151v425h75v-419zM505 773l-25 -46l-135 64l-130 -64l-22 43l155 84z" />
<glyph unicode="&#xdc;" horiz-adv-x="697" d="M606 256q0 -130 -67.5 -197.5t-198.5 -67.5q-75 0 -126.5 19.5t-77 54.5t-35.5 73t-10 86v451h77v-444q0 -83 38.5 -130t139.5 -47q95 0 140 45t45 151v425h75v-419zM495 779q0 -19 -13.5 -32.5t-32.5 -13.5t-32 13.5t-13 32.5t13 32.5t32 13.5t32.5 -13.5t13.5 -32.5z M282 779q0 -19 -13 -32.5t-33 -13.5q-19 0 -32 13.5t-13 32.5t13 32.5t32 13.5q20 0 33 -13.5t13 -32.5z" />
<glyph unicode="&#xdd;" horiz-adv-x="527" d="M515 675l-216 -430v-245h-76v244l-211 431h84l115 -241q23 -49 52 -119h1q14 35 59 130l111 230h81zM410 786l-179 -57l-16 44l171 74z" />
<glyph unicode="&#xde;" horiz-adv-x="525" d="M505 368q0 -104 -76.5 -166.5t-196.5 -62.5q-34 0 -64 3v-142h-77v675h77v-105q58 2 87 2q118 0 184 -52.5t66 -151.5zM426 361q0 148 -187 148q-42 0 -71 -5v-298q42 -4 73 -4q87 0 136 41.5t49 117.5z" />
<glyph unicode="&#xdf;" horiz-adv-x="587" d="M543 146q0 -68 -53 -111.5t-144 -43.5q-54 0 -96 10l7 68q43 -16 91 -16q59 0 88.5 23.5t29.5 59.5q0 31 -21 54t-51 39l-60 33q-30 18 -51 49.5t-21 75.5q0 40 22.5 69.5t49 44.5t49 39.5t22.5 56.5q0 38 -27.5 58t-74.5 20q-137 0 -137 -168v-507h-75v502 q0 122 59 177.5t158 55.5q82 0 128 -36.5t46 -94.5q0 -38 -15 -65t-36 -42.5t-42 -28.5t-36 -31t-15 -43q0 -30 21 -52.5t51.5 -38.5t60.5 -34t51 -49t21 -74z" />
<glyph unicode="&#xe0;" horiz-adv-x="520" d="M430 0h-74q0 76 5 105h-2q-19 -49 -65.5 -81.5t-107.5 -32.5q-60 0 -98 36t-38 96q0 78 79 124t223 46v36q0 59 -25.5 88t-87.5 29q-77 0 -146 -38l-17 62q82 36 175 36q97 0 137 -42.5t40 -118.5v-196q0 -105 2 -149zM352 225v13q-227 0 -227 -104q0 -36 22.5 -59 t58.5 -23q63 0 104.5 52.5t41.5 120.5zM315 614l-35 -39l-138 116l44 49z" />
<glyph unicode="&#xe1;" horiz-adv-x="520" d="M430 0h-74q0 76 5 105h-2q-19 -49 -65.5 -81.5t-107.5 -32.5q-60 0 -98 36t-38 96q0 78 79 124t223 46v36q0 59 -25.5 88t-87.5 29q-77 0 -146 -38l-17 62q82 36 175 36q97 0 137 -42.5t40 -118.5v-196q0 -105 2 -149zM352 225v13q-227 0 -227 -104q0 -36 22.5 -59 t58.5 -23q63 0 104.5 52.5t41.5 120.5zM372 691l-138 -116l-35 39l128 126z" />
<glyph unicode="&#xe2;" horiz-adv-x="520" d="M430 0h-74q0 76 5 105h-2q-19 -49 -65.5 -81.5t-107.5 -32.5q-60 0 -98 36t-38 96q0 78 79 124t223 46v36q0 59 -25.5 88t-87.5 29q-77 0 -146 -38l-17 62q82 36 175 36q97 0 137 -42.5t40 -118.5v-196q0 -105 2 -149zM352 225v13q-227 0 -227 -104q0 -36 22.5 -59 t58.5 -23q63 0 104.5 52.5t41.5 120.5zM388 612l-36 -37l-98 86l-99 -86l-34 35l134 130z" />
<glyph unicode="&#xe3;" horiz-adv-x="520" d="M430 0h-74q0 76 5 105h-2q-19 -49 -65.5 -81.5t-107.5 -32.5q-60 0 -98 36t-38 96q0 78 79 124t223 46v36q0 59 -25.5 88t-87.5 29q-77 0 -146 -38l-17 62q82 36 175 36q97 0 137 -42.5t40 -118.5v-196q0 -105 2 -149zM352 225v13q-227 0 -227 -104q0 -36 22.5 -59 t58.5 -23q63 0 104.5 52.5t41.5 120.5zM422 673q-40 -73 -104 -73q-35 0 -72.5 28t-56.5 28q-34 0 -61 -47l-39 31q40 73 105 73q35 0 72 -28t56 -28q35 0 62 47z" />
<glyph unicode="&#xe4;" horiz-adv-x="520" d="M430 0h-74q0 76 5 105h-2q-19 -49 -65.5 -81.5t-107.5 -32.5q-60 0 -98 36t-38 96q0 78 79 124t223 46v36q0 59 -25.5 88t-87.5 29q-77 0 -146 -38l-17 62q82 36 175 36q97 0 137 -42.5t40 -118.5v-196q0 -105 2 -149zM352 225v13q-227 0 -227 -104q0 -36 22.5 -59 t58.5 -23q63 0 104.5 52.5t41.5 120.5zM395 657q0 -20 -14 -34t-34 -14t-34 14t-14 34t14 33.5t34 13.5t34 -14t14 -33zM207 657q0 -20 -14 -34t-34 -14t-34 14t-14 34t14 33.5t34 13.5t34 -13.5t14 -33.5z" />
<glyph unicode="&#xe5;" horiz-adv-x="520" d="M430 0h-74q0 76 5 105h-2q-19 -49 -65.5 -81.5t-107.5 -32.5q-60 0 -98 36t-38 96q0 78 79 124t223 46v36q0 59 -25.5 88t-87.5 29q-77 0 -146 -38l-17 62q82 36 175 36q97 0 137 -42.5t40 -118.5v-196q0 -105 2 -149zM352 225v13q-227 0 -227 -104q0 -36 22.5 -59 t58.5 -23q63 0 104.5 52.5t41.5 120.5zM365 661q0 -43 -32 -74t-76 -31q-45 0 -76.5 30t-31.5 75t31.5 75t76.5 30q46 0 77 -30t31 -75zM313 661q0 24 -16 41t-40 17t-40 -17t-16 -41t16 -41t40 -17t40 17t16 41z" />
<glyph unicode="&#xe6;" horiz-adv-x="809" d="M761 301q0 -4 -2 -40h-332v-18q0 -93 37 -139q42 -50 127 -50q77 0 141 29l13 -61q-74 -31 -169 -31q-81 0 -130.5 33t-67.5 86h-1q-23 -50 -73 -84.5t-117 -34.5q-61 0 -99 36t-38 96q0 78 79 124t223 46v36q0 59 -25.5 88t-87.5 29q-77 0 -146 -38l-17 62q82 36 175 36 q121 0 153 -84h1q24 37 66 60.5t95 23.5q98 0 146.5 -58t48.5 -147zM682 316v7q0 56 -30 90q-33 36 -90 36q-52 0 -87 -35.5t-45 -97.5h252zM352 225v13q-227 0 -227 -104q0 -36 22.5 -59t58.5 -23q63 0 104.5 52.5t41.5 120.5z" />
<glyph unicode="&#xe7;" horiz-adv-x="440" d="M411 21q-67 -28 -152 -28q-215 0 -215 238q0 125 61.5 199t175.5 74q72 0 127 -22l-15 -63q-61 24 -121 24q-70 0 -109.5 -55t-39.5 -144q0 -187 151 -187q68 0 123 26zM264 -41q30 -38 30 -79q0 -54 -52 -115h-63q28 35 40 61q8 18 8 36q0 8 -2 15q-4 26 -27 54z" />
<glyph unicode="&#xe8;" horiz-adv-x="505" d="M456 301q0 -22 -2 -40h-332v-16q0 -191 165 -191q75 0 141 29l13 -61q-76 -31 -169 -31q-228 0 -228 255q0 115 58.5 187.5t159.5 72.5q97 0 145.5 -58t48.5 -147zM378 316v7q0 56 -30 90q-33 36 -90 36q-52 0 -87.5 -35.5t-44.5 -97.5h252zM318 614l-35 -39l-138 116 l44 49z" />
<glyph unicode="&#xe9;" horiz-adv-x="505" d="M456 301q0 -22 -2 -40h-332v-16q0 -191 165 -191q75 0 141 29l13 -61q-76 -31 -169 -31q-228 0 -228 255q0 115 58.5 187.5t159.5 72.5q97 0 145.5 -58t48.5 -147zM378 316v7q0 56 -30 90q-33 36 -90 36q-52 0 -87.5 -35.5t-44.5 -97.5h252zM376 691l-138 -116l-35 39 l128 126z" />
<glyph unicode="&#xea;" horiz-adv-x="505" d="M456 301q0 -22 -2 -40h-332v-16q0 -191 165 -191q75 0 141 29l13 -61q-76 -31 -169 -31q-228 0 -228 255q0 115 58.5 187.5t159.5 72.5q97 0 145.5 -58t48.5 -147zM378 316v7q0 56 -30 90q-33 36 -90 36q-52 0 -87.5 -35.5t-44.5 -97.5h252zM392 612l-36 -37l-98 86 l-99 -86l-34 35l134 130z" />
<glyph unicode="&#xeb;" horiz-adv-x="505" d="M456 301q0 -22 -2 -40h-332v-16q0 -191 165 -191q75 0 141 29l13 -61q-76 -31 -169 -31q-228 0 -228 255q0 115 58.5 187.5t159.5 72.5q97 0 145.5 -58t48.5 -147zM378 316v7q0 56 -30 90q-33 36 -90 36q-52 0 -87.5 -35.5t-44.5 -97.5h252zM404 657q0 -20 -14 -34 t-34 -14t-34 14t-14 34t14 33.5t34 13.5t34 -14t14 -33zM216 657q0 -20 -14 -34t-34 -14t-34 14t-14 34t14 33.5t34 13.5t34 -13.5t14 -33.5z" />
<glyph unicode="&#xec;" horiz-adv-x="257" d="M166 0h-75v497h75v-497zM201 614l-35 -39l-138 116l44 49z" />
<glyph unicode="&#xed;" horiz-adv-x="257" d="M166 0h-75v497h75v-497zM226 691l-138 -116l-35 39l128 126z" />
<glyph unicode="&#xee;" horiz-adv-x="257" d="M166 0h-75v497h75v-497zM262 612l-36 -37l-98 86l-99 -86l-34 35l134 130z" />
<glyph unicode="&#xef;" horiz-adv-x="257" d="M166 0h-75v497h75v-497zM272 657q0 -20 -14 -34t-34 -14t-34 14t-14 34t14 33.5t34 13.5t34 -14t14 -33zM84 657q0 -20 -14 -34t-34 -14t-34 14t-14 34t14 33.5t34 13.5t34 -13.5t14 -33.5z" />
<glyph unicode="&#xf0;" horiz-adv-x="543" d="M497 271q0 -137 -64.5 -208.5t-168.5 -71.5q-103 0 -162.5 64.5t-59.5 190.5q0 111 63 185t170 74q85 0 115 -51q-4 8 -32 55q-25 46 -68 93l-106 -48l-32 42l98 44q-27 26 -84 69l77 33q38 -31 78 -71l104 46l33 -42l-101 -44q140 -165 140 -360zM420 261q0 85 -38 134 t-111 49q-63 0 -107 -49.5t-44 -143.5q0 -93 41 -144.5t114 -51.5q64 0 104.5 50.5t40.5 155.5z" />
<glyph unicode="&#xf1;" horiz-adv-x="577" d="M486 0h-75v321q0 62 -20.5 92.5t-72.5 30.5q-66 0 -109 -58.5t-43 -147.5v-238h-75v497h74q0 -63 -8 -111l2 -1q22 56 68 88.5t110 32.5q149 0 149 -160v-346zM459 673q-40 -73 -104 -73q-35 0 -72.5 28t-56.5 28q-34 0 -61 -47l-39 31q40 73 105 73q35 0 72 -28t56 -28 q35 0 62 47z" />
<glyph unicode="&#xf2;" horiz-adv-x="542" d="M499 257q0 -114 -65 -190t-173 -76q-103 0 -161 64t-58 191q0 110 64.5 185t172.5 75q99 0 159.5 -60t60.5 -189zM421 252q0 91 -38 141.5t-111 50.5q-64 0 -108 -49t-44 -143q0 -95 39.5 -146t112.5 -51q63 0 106 50t43 147zM336 614l-35 -39l-138 116l44 49z" />
<glyph unicode="&#xf3;" horiz-adv-x="542" d="M499 257q0 -114 -65 -190t-173 -76q-103 0 -161 64t-58 191q0 110 64.5 185t172.5 75q99 0 159.5 -60t60.5 -189zM421 252q0 91 -38 141.5t-111 50.5q-64 0 -108 -49t-44 -143q0 -95 39.5 -146t112.5 -51q63 0 106 50t43 147zM391 691l-138 -116l-35 39l128 126z" />
<glyph unicode="&#xf4;" horiz-adv-x="542" d="M499 257q0 -114 -65 -190t-173 -76q-103 0 -161 64t-58 191q0 110 64.5 185t172.5 75q99 0 159.5 -60t60.5 -189zM421 252q0 91 -38 141.5t-111 50.5q-64 0 -108 -49t-44 -143q0 -95 39.5 -146t112.5 -51q63 0 106 50t43 147zM404 612l-36 -37l-98 86l-99 -86l-34 35 l134 130z" />
<glyph unicode="&#xf5;" horiz-adv-x="542" d="M499 257q0 -114 -65 -190t-173 -76q-103 0 -161 64t-58 191q0 110 64.5 185t172.5 75q99 0 159.5 -60t60.5 -189zM421 252q0 91 -38 141.5t-111 50.5q-64 0 -108 -49t-44 -143q0 -95 39.5 -146t112.5 -51q63 0 106 50t43 147zM441 673q-40 -73 -104 -73q-35 0 -72.5 28 t-56.5 28q-34 0 -61 -47l-39 31q40 73 105 73q35 0 72 -28t56 -28q35 0 62 47z" />
<glyph unicode="&#xf6;" horiz-adv-x="542" d="M499 257q0 -114 -65 -190t-173 -76q-103 0 -161 64t-58 191q0 110 64.5 185t172.5 75q99 0 159.5 -60t60.5 -189zM421 252q0 91 -38 141.5t-111 50.5q-64 0 -108 -49t-44 -143q0 -95 39.5 -146t112.5 -51q63 0 106 50t43 147zM412 657q0 -20 -14 -34t-34 -14t-34 14 t-14 34t14 33.5t34 13.5t34 -14t14 -33zM224 657q0 -20 -14 -34t-34 -14t-34 14t-14 34t14 33.5t34 13.5t34 -13.5t14 -33.5z" />
<glyph unicode="&#xf7;" d="M327 498q0 -22 -15.5 -37.5t-38.5 -15.5q-22 0 -37.5 15.5t-15.5 37.5t15.5 37.5t37.5 15.5q23 0 38.5 -15.5t15.5 -37.5zM507 266h-464v63h464v-63zM327 96q0 -22 -15.5 -38t-38.5 -16q-22 0 -37.5 16t-15.5 38t15.5 37.5t37.5 15.5t38 -15.5t16 -37.5z" />
<glyph unicode="&#xf8;" horiz-adv-x="542" d="M499 257q0 -114 -65.5 -190t-171.5 -76q-34 0 -67 10l-40 -104l-52 17l41 106q-102 60 -102 226q0 111 64 185.5t173 74.5q22 0 49 -5l36 94l52 -17l-36 -93q119 -55 119 -228zM425 252q0 125 -70 170l-137 -360q24 -10 59 -10q62 2 105 52.5t43 147.5zM305 442 q-21 3 -35 3h-6q-61 -2 -104.5 -48.5t-43.5 -144.5q0 -114 55 -162z" />
<glyph unicode="&#xf9;" horiz-adv-x="577" d="M486 0h-74q0 63 8 111l-2 1q-22 -56 -68 -88.5t-110 -32.5q-149 0 -149 160v346h75v-321q0 -62 20.5 -92.5t72.5 -30.5q66 0 109 58.5t43 147.5v238h75v-497zM329 614l-35 -39l-138 116l44 49z" />
<glyph unicode="&#xfa;" horiz-adv-x="577" d="M486 0h-74q0 63 8 111l-2 1q-22 -56 -68 -88.5t-110 -32.5q-149 0 -149 160v346h75v-321q0 -62 20.5 -92.5t72.5 -30.5q66 0 109 58.5t43 147.5v238h75v-497zM425 691l-138 -116l-35 39l128 126z" />
<glyph unicode="&#xfb;" horiz-adv-x="577" d="M486 0h-74q0 63 8 111l-2 1q-22 -56 -68 -88.5t-110 -32.5q-149 0 -149 160v346h75v-321q0 -62 20.5 -92.5t72.5 -30.5q66 0 109 58.5t43 147.5v238h75v-497zM419 612l-36 -37l-98 86l-99 -86l-34 35l134 130z" />
<glyph unicode="&#xfc;" horiz-adv-x="577" d="M486 0h-74q0 63 8 111l-2 1q-22 -56 -68 -88.5t-110 -32.5q-149 0 -149 160v346h75v-321q0 -62 20.5 -92.5t72.5 -30.5q66 0 109 58.5t43 147.5v238h75v-497zM427 657q0 -20 -14 -34t-34 -14t-34 14t-14 34t14 33.5t34 13.5t34 -14t14 -33zM239 657q0 -20 -14 -34 t-34 -14t-34 14t-14 34t14 33.5t34 13.5t34 -13.5t14 -33.5z" />
<glyph unicode="&#xfd;" horiz-adv-x="471" d="M461 497l-206 -544q-44 -117 -95 -163.5t-134 -46.5q-23 0 -53 6l8 67q28 -7 59 -7q45 0 78 29t61 104l22 58l-190 497h86l104 -285q18 -50 38 -118h1q12 43 50 151l89 252h82zM365 691l-138 -116l-35 39l128 126z" />
<glyph unicode="&#xfe;" horiz-adv-x="558" d="M512 271q0 -132 -67.5 -204.5t-186.5 -72.5q-54 0 -92 7v-250h-75v979h75v-224q0 -79 -7 -114l2 -1q21 53 65.5 84t102.5 31q88 0 135.5 -60t47.5 -175zM433 265q0 179 -119 179q-69 0 -108.5 -64.5t-39.5 -139.5v-174q42 -13 97 -13q170 0 170 212z" />
<glyph unicode="&#xff;" horiz-adv-x="471" d="M461 497l-206 -544q-44 -117 -95 -163.5t-134 -46.5q-23 0 -53 6l8 67q28 -7 59 -7q45 0 78 29t61 104l22 58l-190 497h86l104 -285q18 -50 38 -118h1q12 43 50 151l89 252h82zM377 657q0 -20 -14 -34t-34 -14t-34 14t-14 34t14 33.5t34 13.5t34 -14t14 -33zM189 657 q0 -20 -14 -34t-34 -14t-34 14t-14 34t14 33.5t34 13.5t34 -13.5t14 -33.5z" />
<glyph unicode="&#x131;" horiz-adv-x="257" d="M166 0h-75v497h75v-497z" />
<glyph unicode="&#x152;" horiz-adv-x="864" d="M790 0h-336q-56 -9 -110 -9q-148 0 -223.5 90.5t-75.5 248.5q0 164 90 259t225 95q54 0 100 -9h330v-62h-263v-234h250v-62h-250v-253h263v-64zM451 71v533q-48 14 -97 14q-95 0 -161 -73.5t-66 -200.5q0 -131 57 -208.5t168 -77.5q49 0 99 13z" />
<glyph unicode="&#x153;" horiz-adv-x="878" d="M829 301q0 -4 -2 -40h-332v-16q0 -191 164 -191q76 0 142 29l12 -61q-74 -31 -168 -31q-144 0 -195 110q-61 -110 -189 -110q-103 0 -161 63.5t-58 191.5q0 111 64 185.5t173 74.5q59 0 107.5 -25.5t74.5 -76.5q58 102 174 102q97 0 145.5 -58t48.5 -147zM751 316v7 q0 56 -31 90q-32 36 -89 36q-53 0 -88.5 -35.5t-44.5 -97.5h253zM421 252q0 91 -38 141.5t-111 50.5q-64 0 -108 -49t-44 -143q0 -95 39.5 -146t112.5 -51q63 0 106 50t43 147z" />
<glyph unicode="&#x178;" horiz-adv-x="527" d="M515 675l-216 -430v-245h-76v244l-211 431h84l115 -241q23 -49 52 -119h1q14 35 59 130l111 230h81zM413 779q0 -19 -13.5 -32.5t-32.5 -13.5t-32 13.5t-13 32.5t13 32.5t32 13.5t32.5 -13.5t13.5 -32.5zM200 779q0 -19 -13 -32.5t-33 -13.5q-19 0 -32 13.5t-13 32.5 t13 32.5t32 13.5q20 0 33 -13.5t13 -32.5z" />
<glyph unicode="&#x2c6;" horiz-adv-x="436" d="M349 612l-36 -37l-98 86l-99 -86l-34 35l134 130z" />
<glyph unicode="&#x2da;" horiz-adv-x="390" d="M303 654q0 -43 -32 -74t-76 -31q-45 0 -76.5 30t-31.5 75t31.5 75t76.5 30q46 0 77 -30t31 -75zM251 654q0 24 -16 41t-40 17t-40 -17t-16 -41t16 -41t40 -17t40 17t16 41z" />
<glyph unicode="&#x2dc;" horiz-adv-x="507" d="M416 673q-40 -73 -104 -73q-35 0 -72.5 28t-56.5 28q-34 0 -61 -47l-39 31q40 73 105 73q35 0 72 -28t56 -28q35 0 62 47z" />
<glyph unicode="&#x3bc;" horiz-adv-x="626" d="M601 67q-13 -33 -41.5 -54.5t-67.5 -21.5q-45 0 -61 33q-10 22 -10 49q0 15 3 32h-1q-19 -51 -63 -82t-100 -31q-65 0 -99 32l11 -273h-79v746h75v-314q0 -64 23 -96.5t79 -32.5q60 0 101.5 54.5t41.5 130.5v258h75v-358q0 -48 7 -65.5t24 -17.5q29 0 45 39z" />
<glyph unicode="&#x2000;" horiz-adv-x="427" />
<glyph unicode="&#x2001;" horiz-adv-x="854" />
<glyph unicode="&#x2002;" horiz-adv-x="427" />
<glyph unicode="&#x2003;" horiz-adv-x="854" />
<glyph unicode="&#x2004;" horiz-adv-x="284" />
<glyph unicode="&#x2005;" horiz-adv-x="213" />
<glyph unicode="&#x2006;" horiz-adv-x="142" />
<glyph unicode="&#x2007;" horiz-adv-x="142" />
<glyph unicode="&#x2008;" horiz-adv-x="106" />
<glyph unicode="&#x2009;" horiz-adv-x="170" />
<glyph unicode="&#x200a;" horiz-adv-x="47" />
<glyph unicode="&#x2010;" horiz-adv-x="328" d="M280 260h-232v62h232v-62z" />
<glyph unicode="&#x2011;" horiz-adv-x="328" d="M280 260h-232v62h232v-62z" />
<glyph unicode="&#x2013;" d="M550 265h-550v65h550v-65z" />
<glyph unicode="&#x2014;" horiz-adv-x="1000" d="M879 265h-758v65h758v-65z" />
<glyph unicode="&#x2018;" horiz-adv-x="234" d="M192 718q-56 -61 -56 -104q0 -20 12 -36q11 -14 11 -29q0 -11 -5 -21q-13 -27 -43 -27q-38 0 -50 40q-4 14 -4 30q0 51 49 117q22 30 53 59z" />
<glyph unicode="&#x2019;" horiz-adv-x="234" d="M122 741q38 0 50 -40q4 -14 4 -30q0 -51 -49 -117q-22 -30 -53 -59l-33 29q56 61 56 104q0 20 -12 36q-11 14 -11 29q0 11 5 21q13 27 43 27z" />
<glyph unicode="&#x201a;" horiz-adv-x="234" d="M122 99q38 0 50 -40q4 -14 4 -30q0 -51 -49 -117q-22 -30 -53 -59l-33 29q56 61 56 104q0 20 -12 36q-11 14 -11 29q0 11 5 21q13 27 43 27z" />
<glyph unicode="&#x201c;" horiz-adv-x="413" d="M370 718q-56 -60 -56 -103q0 -21 13 -37q11 -14 11 -29q0 -11 -6 -21q-12 -27 -42 -27q-39 0 -51 41q-4 14 -4 29q0 52 50 118q22 29 52 58zM192 718q-56 -61 -56 -104q0 -20 12 -36q11 -14 11 -29q0 -11 -5 -21q-13 -27 -43 -27q-38 0 -50 40q-4 14 -4 30q0 51 49 117 q22 30 53 59z" />
<glyph unicode="&#x201d;" horiz-adv-x="413" d="M300 741q39 0 51 -41q4 -14 4 -29q0 -52 -50 -118q-22 -29 -52 -58l-34 29q56 61 56 104q0 20 -12 36q-11 14 -11 29q0 11 6 21q12 27 42 27zM122 741q38 0 50 -40q4 -14 4 -30q0 -51 -49 -117q-22 -30 -53 -59l-33 29q56 61 56 104q0 20 -12 36q-11 14 -11 29q0 11 5 21 q13 27 43 27z" />
<glyph unicode="&#x201e;" horiz-adv-x="413" d="M300 99q39 0 51 -41q4 -14 4 -29q0 -52 -50 -118q-22 -29 -52 -58l-34 29q56 61 56 104q0 20 -12 36q-11 14 -11 29q0 11 6 21q12 27 42 27zM122 99q38 0 50 -40q4 -14 4 -30q0 -51 -49 -117q-22 -30 -53 -59l-33 29q56 61 56 104q0 20 -12 36q-11 14 -11 29q0 11 5 21 q13 27 43 27z" />
<glyph unicode="&#x2022;" horiz-adv-x="419" d="M320 297q0 -46 -32.5 -78t-77.5 -32q-46 0 -78 32t-32 78t32 78t78 32q45 0 77.5 -32t32.5 -78z" />
<glyph unicode="&#x2026;" horiz-adv-x="642" d="M576 45q0 -22 -15.5 -37.5t-37.5 -15.5t-38 15.5t-16 37.5t15.5 37.5t38.5 15.5q22 0 37.5 -15.5t15.5 -37.5zM368 45q0 -22 -15.5 -37.5t-37.5 -15.5t-37.5 15.5t-15.5 37.5t15.5 37.5t37.5 15.5q23 0 38 -15t15 -38zM161 45q0 -22 -16 -37.5t-38 -15.5t-37.5 15.5 t-15.5 37.5t15.5 37.5t37.5 15.5q23 0 38.5 -15.5t15.5 -37.5z" />
<glyph unicode="&#x202f;" horiz-adv-x="170" />
<glyph unicode="&#x2039;" horiz-adv-x="313" d="M234 154l-55 -33l-120 172l121 176l54 -32l-100 -143z" />
<glyph unicode="&#x203a;" horiz-adv-x="313" d="M255 296l-122 -175l-54 32l100 142l-99 141l56 33z" />
<glyph unicode="&#x205f;" horiz-adv-x="213" />
<glyph unicode="&#x20ac;" d="M512 25q-79 -34 -163 -34q-219 0 -247 236h-91v52h87q-1 10 -1 34q0 22 2 62h-88v52h95q19 108 83.5 170t176.5 62q73 0 136 -27l-20 -60q-57 26 -129 26q-138 0 -169 -171h200v-52h-208q-1 -17 -1 -52v-44h209v-52h-203q13 -88 56.5 -130t126.5 -42q62 0 129 29z" />
<glyph unicode="&#x2122;" horiz-adv-x="702" d="M645 394h-60l-23 158l-8 56l-12 -48l-51 -166h-62l-49 168l-12 46l-3 -37l-26 -177h-55l43 281h77l49 -166l11 -48l9 43l53 171h76zM262 628h-75v-234h-60v234h-77v47h212v-47z" />
</font>
</defs>
</svg>
