<?xml version="1.0" standalone="no"?>
<!DOCTYPE svg PUBLIC "-//W3C//DTD SVG 1.1//EN" "http://www.w3.org/Graphics/SVG/1.1/DTD/svg11.dtd" >
<svg xmlns="http://www.w3.org/2000/svg">
<metadata>
This is a custom SVG webfont generated by Font Squirrel.
</metadata>
<defs>
<font id="webfont0PpN1KRv" horiz-adv-x="550" >
<font-face units-per-em="1000" ascent="800" descent="-200" />
<missing-glyph horiz-adv-x="218" />
<glyph unicode=" "  horiz-adv-x="218" />
<glyph unicode="&#x09;" horiz-adv-x="218" />
<glyph unicode="&#xa0;" horiz-adv-x="218" />
<glyph unicode="!" horiz-adv-x="317" d="M348 711l-118 -510h-131l74 510h175zM229 80q0 -40 -28 -66t-67 -26q-37 0 -60.5 23.5t-23.5 56.5q0 40 28 66.5t67 26.5q37 0 60.5 -24t23.5 -57z" />
<glyph unicode="&#x22;" horiz-adv-x="422" d="M476 704l-68 -270h-112l33 270h147zM278 704l-69 -270h-112l33 270h148z" />
<glyph unicode="#" d="M578 490l-20 -106h-79l-34 -115h68l-20 -105h-79l-49 -164h-109l49 164h-113l-49 -164h-110l49 164h-69l20 105h80l34 115h-69l20 106h80l47 160h109l-47 -160h113l47 160h110l-47 -160h68zM369 384h-113l-33 -115h113z" />
<glyph unicode="$" d="M500 634l-26 -130q-55 17 -111 17q-43 0 -67 -16t-24 -41q0 -21 21.5 -37t52 -29t61.5 -30.5t52.5 -51.5t21.5 -81q0 -80 -58 -139t-145 -75l-20 -106h-106l19 100q-59 0 -111 11l27 136q61 -21 125 -21q46 0 74.5 17t28.5 45q0 24 -21 41t-51.5 30t-61 30.5t-51.5 51.5 t-21 83q0 72 53.5 128.5t136.5 70.5l18 92h107l-16 -85q54 -4 92 -11z" />
<glyph unicode="%" horiz-adv-x="752" d="M397 542q0 -94 -57 -148.5t-127 -54.5q-64 0 -97.5 32t-33.5 91q0 92 57.5 146.5t125.5 54.5q63 0 97.5 -31t34.5 -90zM741 598l-613 -622l-80 74l613 622zM711 190q0 -94 -57 -148.5t-128 -54.5q-63 0 -96.5 32t-33.5 91q0 91 57 146t126 55q62 0 97 -31t35 -90z M288 532q0 37 -31 37q-28 0 -47 -30.5t-19 -68.5q0 -37 32 -37q28 0 46.5 30t18.5 69zM601 180q0 37 -31 37q-27 0 -46 -30.5t-19 -68.5q0 -37 31 -37q28 0 46.5 29.5t18.5 69.5z" />
<glyph unicode="&#x26;" horiz-adv-x="782" d="M759 465q-10 -79 -48.5 -157.5t-93.5 -141.5q42 -38 111 -88l-104 -103q-64 43 -121 93q-121 -81 -262 -81q-104 0 -156 49t-52 129q0 71 44.5 126.5t118.5 108.5q-54 84 -54 147q0 76 64 134t161 58q91 0 135 -36.5t44 -100.5q0 -61 -41 -112t-115 -104q46 -59 122 -131 q79 93 100 210h147zM396 583q0 43 -43 43q-25 0 -43 -18.5t-18 -47.5q0 -28 27 -77q25 18 38.5 30t26 31.5t12.5 38.5zM398 158q-87 87 -128 142q-78 -61 -78 -108q0 -32 20.5 -52.5t60.5 -20.5q66 0 125 39z" />
<glyph unicode="'" horiz-adv-x="223" d="M278 704l-69 -270h-112l33 270h148z" />
<glyph unicode="(" horiz-adv-x="302" d="M398 738q-96 -125 -156.5 -295.5t-60.5 -308.5q0 -167 46 -302l-121 -50q-71 161 -71 346q0 160 65.5 333.5t192.5 327.5z" />
<glyph unicode=")" horiz-adv-x="302" d="M294 443q0 -160 -65.5 -333.5t-192.5 -327.5l-105 51q96 125 156 295.5t60 308.5q0 170 -45 302l121 50q71 -165 71 -346z" />
<glyph unicode="*" horiz-adv-x="384" d="M434 585l-107 -27l91 -45l-71 -86l-66 77l-5 -108l-105 13l41 101l-92 -60l-33 96l106 27l-91 46l72 85l66 -76l3 108l104 -13l-40 -102l93 62z" />
<glyph unicode="+" d="M540 362l-25 -128h-165l-33 -177h-146l34 177h-165l24 128h165l33 175h146l-34 -175h166z" />
<glyph unicode="," horiz-adv-x="271" d="M114 172q54 0 79 -49q14 -26 14 -56q0 -45 -31 -99q-46 -80 -153 -153l-54 63q61 50 75 86q6 14 6 27q0 22 -15 42q-15 21 -15 45q0 21 12 44q25 50 82 50z" />
<glyph unicode="-" horiz-adv-x="331" d="M312 332l-24 -122h-248l24 122h248z" />
<glyph unicode="." horiz-adv-x="276" d="M208 86q0 -41 -29 -69.5t-69 -28.5q-38 0 -64.5 27t-26.5 64q0 41 29 69.5t69 28.5q38 0 64.5 -27t26.5 -64z" />
<glyph unicode="/" horiz-adv-x="470" d="M578 757l-520 -918h-154l522 918h152z" />
<glyph unicode="0" d="M555 456q0 -80 -18 -158.5t-53.5 -150t-100 -116t-147.5 -44.5q-100 0 -150.5 48t-50.5 159q0 80 18 158.5t54 150t101 116t149 44.5q98 0 148 -49t50 -158zM395 451q0 45 -12.5 63.5t-45.5 18.5q-36 0 -65 -40.5t-44.5 -98.5t-24 -109.5t-8.5 -83.5q0 -45 13 -63.5 t46 -18.5q35 0 64 40.5t44.5 98.5t24 109.5t8.5 83.5z" />
<glyph unicode="1" d="M494 137l-26 -137h-450l26 137h157l66 351l-143 -51l-1 146l214 67h120l-98 -513h135z" />
<glyph unicode="2" d="M525 496q0 -71 -43.5 -136.5t-169.5 -164.5l-61 -48v-2q71 3 168 3h66l-29 -148h-452l25 127l88 72q142 116 186.5 167t44.5 95q0 26 -20 42.5t-59 16.5q-71 0 -141 -41l-4 139q95 44 201 44q100 0 150 -46t50 -120z" />
<glyph unicode="3" d="M530 516q0 -54 -35 -98.5t-99 -61.5l-2 -2q46 -9 71.5 -42t25.5 -81q0 -40 -18 -80t-56 -78t-108.5 -62t-163.5 -24q-76 0 -127 15l36 130q50 -18 112 -18q75 0 116 28.5t41 68.5q0 62 -108 62q-62 0 -114 -7l22 117h34q94 0 150 27t56 74q0 52 -84 52q-68 0 -140 -31 v126q91 32 182 32q107 0 158 -38.5t51 -108.5z" />
<glyph unicode="4" d="M533 650l-73 -378h80l-26 -137h-80l-25 -135h-150l25 135h-271l10 131l300 384h210zM357 496h-1l-177 -226q34 2 135 2z" />
<glyph unicode="5" d="M551 650l-28 -143h-243l-19 -99h27q107 0 159 -43t52 -114q0 -119 -97 -191t-237 -72q-84 0 -133 12l27 137q61 -18 119 -18q66 0 107 28.5t41 77.5q0 64 -130 64q-51 0 -105 -8l71 369h389z" />
<glyph unicode="6" d="M546 654l-23 -130q-49 9 -85 9q-131 0 -198 -119q-15 -25 -23 -44h1q50 47 132 47q84 0 129.5 -43t45.5 -116q0 -119 -81 -195t-206 -76q-100 0 -152 51t-52 152q0 66 15.5 131.5t49.5 127t82 108t118.5 75t153.5 28.5q63 0 93 -6zM367 228q0 65 -70 65q-49 0 -79.5 -31 t-30.5 -77q0 -33 18.5 -53.5t53.5 -20.5q46 0 77 34t31 83z" />
<glyph unicode="7" d="M584 650l-25 -132q-159 -225 -297 -518h-181q62 127 144.5 269t147.5 234q-96 -3 -186 -3h-87l29 150h455z" />
<glyph unicode="8" d="M558 519q0 -109 -125 -179q80 -53 80 -128q0 -100 -84 -162.5t-193 -62.5q-105 0 -160.5 39.5t-55.5 110.5q0 70 38 114t101 77q-66 48 -66 117q0 90 76.5 154t185.5 64q98 0 150.5 -38.5t52.5 -105.5zM401 498q0 47 -63 47q-42 0 -65.5 -21.5t-23.5 -54.5q0 -36 63 -67 q48 23 68.5 45t20.5 51zM353 192q0 39 -74 73q-56 -27 -77.5 -51.5t-21.5 -52.5q0 -23 19 -37.5t55 -14.5q43 0 71 22.5t28 60.5z" />
<glyph unicode="9" d="M553 459q0 -58 -11.5 -117.5t-41.5 -124t-75 -114t-119.5 -81.5t-167.5 -32q-65 0 -107 7l26 134q39 -13 97 -13q68 0 122 35t79 91q9 19 12 28h-1q-52 -40 -124 -40q-81 0 -129.5 41.5t-48.5 118.5q0 109 78 190t205 81q206 0 206 -204zM398 469q0 33 -18.5 51.5 t-51.5 18.5q-48 0 -78.5 -35t-30.5 -82q0 -65 70 -65q44 0 76.5 31t32.5 81z" />
<glyph unicode=":" horiz-adv-x="301" d="M283 363q0 -41 -29 -70t-68 -29q-38 0 -65.5 27t-27.5 63q0 41 29 70t69 29q38 0 65 -27t27 -63zM230 87q0 -42 -28.5 -70.5t-68.5 -28.5q-39 0 -66 27t-27 63q0 41 29.5 70t68.5 29q38 0 65 -27t27 -63z" />
<glyph unicode=";" horiz-adv-x="301" d="M283 363q0 -41 -29 -70t-68 -29q-38 0 -65.5 27t-27.5 63q0 41 29 70t69 29q38 0 65 -27t27 -63zM137 172q54 0 79 -49q14 -26 14 -56q0 -45 -31 -99q-46 -80 -153 -153l-54 63q61 50 76 86q5 14 5 27q0 22 -15 42q-15 21 -15 45q0 21 12 44q25 50 82 50z" />
<glyph unicode="&#x3c;" d="M531 496l-261 -199l187 -203l-113 -97l-271 311l368 293z" />
<glyph unicode="=" d="M544 460l-23 -122h-446l22 122h447zM505 256l-23 -122h-446l23 122h446z" />
<glyph unicode="&#x3e;" d="M507 290l-368 -293l-90 106l261 198l-187 203l113 97z" />
<glyph unicode="?" horiz-adv-x="446" d="M464 533q0 -51 -23 -91.5t-55 -65.5l-63 -50q-31 -24 -51 -55q-15 -25 -15 -54q0 -8 1 -16h-147q-3 18 -3 35q0 25 6 47q11 37 31.5 60t46.5 45t49.5 37t39 35.5t15.5 42.5q0 71 -171 80l45 138q145 -5 219.5 -57t74.5 -131zM253 80q0 -40 -28 -66t-67 -26 q-37 0 -60.5 23.5t-23.5 56.5q0 40 28 66.5t67 26.5q37 0 60.5 -24t23.5 -57z" />
<glyph unicode="@" horiz-adv-x="961" d="M902 457q0 -139 -74.5 -233t-206.5 -94q-49 0 -73 24q-22 20 -22 53q0 5 1 11h-4q-25 -36 -63 -62t-80 -26q-43 0 -67 29.5t-24 87.5q0 39 8.5 78.5t28.5 79.5t50 71t76.5 50t103.5 19q69 0 121 -23l-53 -189q-9 -33 -9 -52q0 -8 1 -14q6 -19 32 -19q51 0 84 52t33 139 q0 78 -50.5 127.5t-158.5 49.5q-78 0 -142.5 -32.5t-105 -85t-63 -117t-22.5 -131.5q0 -205 242 -205q85 0 181 31l12 -117q-109 -38 -224 -38q-173 0 -262 81t-89 227q0 132 61 247.5t175.5 188.5t257.5 73q158 0 241.5 -77.5t83.5 -203.5zM543 440q-11 5 -32 5 q-42 0 -73.5 -55t-31.5 -112q0 -32 20 -32q25 0 54.5 39.5t51.5 116.5z" />
<glyph unicode="A" horiz-adv-x="621" d="M584 0h-163l-17 125h-229l-64 -125h-157l353 675h174zM389 248l-21 154q-5 31 -9 94h-1q-24 -59 -43 -94l-79 -154h153z" />
<glyph unicode="B" horiz-adv-x="574" d="M581 538q0 -126 -119 -178v-1q37 -12 58.5 -45.5t21.5 -76.5q0 -101 -84.5 -170t-223.5 -69q-17 0 -89.5 1t-126.5 1l128 674q102 5 229 5q206 0 206 -141zM414 502q0 52 -78 52q-22 0 -60 -2l-29 -148q13 -1 39 -1q60 0 94 27t34 72zM378 227q0 61 -89 61q-51 0 -65 -1 l-29 -159q18 -3 54 -3q61 0 95 30t34 72z" />
<glyph unicode="C" horiz-adv-x="540" d="M584 662l-42 -142q-55 20 -109 20q-48 0 -86 -18.5t-62 -48t-39.5 -67.5t-22 -74t-6.5 -72q0 -62 29.5 -94.5t98.5 -32.5q64 0 126 25l-5 -142q-80 -25 -167 -25q-61 0 -108 15t-74.5 38.5t-44.5 56.5t-23 63.5t-6 65.5q0 86 26 165.5t75 143.5t127 102.5t175 38.5 q76 0 138 -18z" />
<glyph unicode="D" horiz-adv-x="647" d="M651 436q0 -117 -47 -215.5t-146.5 -162t-235.5 -63.5q-84 0 -204 6l128 672q104 6 222 6q137 0 210 -60.5t73 -182.5zM484 421q0 63 -32 95t-108 32q-52 0 -70 -2l-79 -413q28 -4 49 -4q52 0 94.5 20t69 51t44.5 71t25 77.5t7 72.5z" />
<glyph unicode="E" horiz-adv-x="477" d="M518 675l-25 -131h-220l-25 -134h209l-25 -127h-208l-29 -149h220l-25 -134h-372l128 675h372z" />
<glyph unicode="F" horiz-adv-x="454" d="M511 675l-26 -133h-212l-27 -144h200l-24 -128h-201l-51 -270h-152l128 675h365z" />
<glyph unicode="G" horiz-adv-x="657" d="M679 659l-45 -147q-83 34 -168 34q-119 0 -187 -82t-68 -196q0 -61 35.5 -99.5t110.5 -38.5q42 0 76 10l42 220h152l-63 -328q-106 -43 -233 -43q-144 0 -215 69t-71 190q0 187 122 312t312 125q107 0 200 -26z" />
<glyph unicode="H" horiz-adv-x="666" d="M694 675l-129 -675h-152l53 281h-243l-53 -281h-153l128 675h153l-50 -259h243l50 259h153z" />
<glyph unicode="I" horiz-adv-x="270" d="M298 675l-128 -675h-152l128 675h152z" />
<glyph unicode="J" horiz-adv-x="331" d="M362 675l-94 -493q-37 -192 -225 -192q-48 0 -85 8l26 132q23 -9 49 -9q71 0 86 79l90 475h153z" />
<glyph unicode="K" horiz-adv-x="586" d="M660 675l-278 -337l150 -338h-189l-113 317l-60 -317h-152l128 675h152l-56 -298l224 298h194z" />
<glyph unicode="L" horiz-adv-x="421" d="M396 138l-26 -138h-352l128 675h152l-102 -537h200z" />
<glyph unicode="M" horiz-adv-x="858" d="M820 675l-21 -675h-160l11 277q3 73 9 158h-1q-35 -91 -68 -159l-134 -276h-145l-29 255q-10 79 -10 147q0 17 1 33h-1l-52 -171l-84 -264h-157l234 675h171l36 -296q6 -48 8 -147h1q24 62 66 148l149 295h176z" />
<glyph unicode="N" horiz-adv-x="666" d="M695 675l-129 -675h-179l-101 287q-21 61 -43 149q-9 -75 -24 -153l-53 -283h-148l128 675h180l97 -264q25 -70 49 -166q9 81 26 173l49 257h148z" />
<glyph unicode="O" horiz-adv-x="688" d="M693 438q0 -193 -116 -322t-282 -129q-128 0 -191.5 65.5t-63.5 182.5q0 120 52 224t144.5 166.5t203.5 62.5q124 0 188.5 -65t64.5 -185zM531 420q0 58 -29 92t-87 34q-94 0 -152.5 -86t-58.5 -198q0 -132 114 -132q92 0 152.5 86t60.5 204z" />
<glyph unicode="P" horiz-adv-x="525" d="M559 501q0 -116 -89 -197t-220 -81q-23 0 -38 1l-42 -224h-152l128 675q97 5 194 5q101 0 160 -46t59 -133zM399 482q0 71 -83 71q-29 0 -41 -1l-37 -197q9 -2 25 -2q58 0 97 38t39 91z" />
<glyph unicode="Q" horiz-adv-x="688" d="M693 438q0 -193 -116 -322t-282 -129q-128 0 -191.5 65.5t-63.5 182.5q0 121 51 225t143.5 166t204.5 62q124 0 189 -65t65 -185zM629 -79l-25 -132q-61 -8 -102 -8q-31 0 -50 5q-47 10 -113 22q-40 7 -79 7q-26 0 -52 -3l25 132q36 4 69 4q24 0 46 -2q54 -5 86.5 -15 t84.5 -15q17 -1 35 -1q36 0 75 6zM531 420q0 58 -29 92t-87 34q-94 0 -152.5 -86t-58.5 -198q0 -132 114 -132q92 0 152.5 86t60.5 204z" />
<glyph unicode="R" horiz-adv-x="564" d="M570 521q0 -85 -50 -146t-138 -89q20 -41 34 -75l95 -211h-178l-104 264h-9l-50 -264h-152l128 675q71 5 203 5q221 0 221 -159zM406 491q0 61 -83 61q-28 0 -48 -2l-33 -173q18 -2 38 -2q55 0 90.5 33.5t35.5 82.5z" />
<glyph unicode="S" horiz-adv-x="465" d="M475 678l-27 -137q-53 17 -95 17q-54 0 -80.5 -20.5t-26.5 -52.5q0 -24 19.5 -44t47 -37t54.5 -37.5t46.5 -55.5t19.5 -80q0 -103 -82 -173.5t-208 -70.5q-77 0 -129 16l27 146q51 -24 111 -24q114 0 114 78q0 24 -19 43t-46.5 35.5t-55 36t-46.5 53t-19 78.5 q0 103 72 171t205 68q55 0 118 -10z" />
<glyph unicode="T" horiz-adv-x="496" d="M570 675l-25 -133h-158l-104 -542h-152l103 542h-158l25 133h469z" />
<glyph unicode="U" horiz-adv-x="660" d="M688 675l-82 -427q-49 -261 -322 -261q-226 0 -226 188q0 37 8 80l79 420h153l-83 -434q-4 -22 -4 -40q0 -33 13 -53q22 -30 82 -30q67 0 102.5 33.5t49.5 108.5l79 415h151z" />
<glyph unicode="V" horiz-adv-x="623" d="M712 675l-353 -675h-177l-97 675h160l47 -369q8 -62 10 -126h2q30 73 63 135l184 360h161z" />
<glyph unicode="W" horiz-adv-x="932" d="M1002 675l-293 -675h-186l-18 318q-1 18 -1 38q0 52 6 116h-1q-24 -82 -53 -149l-141 -323h-175l-35 675h156l15 -329v-25q0 -47 -5 -117h1q34 100 51 139l150 332h157l25 -326q2 -29 2 -61q0 -38 -3 -79h1q24 74 52 142l136 324h159z" />
<glyph unicode="X" horiz-adv-x="635" d="M694 675l-257 -336l148 -339h-185l-82 228l-169 -228h-185l274 347l-131 328h170l79 -218l159 218h179z" />
<glyph unicode="Y" horiz-adv-x="566" d="M655 675l-294 -439l-45 -236h-152l45 235l-124 440h161l43 -172q14 -57 22 -108h2q13 26 74 122l100 158h168z" />
<glyph unicode="Z" horiz-adv-x="521" d="M561 675l-24 -127l-284 -368q-20 -24 -33 -38q14 2 128 2h117l-27 -144h-436l23 122l273 363q19 24 45 52q-36 -2 -102 -2h-130l26 140h424z" />
<glyph unicode="[" horiz-adv-x="325" d="M399 781l-24 -122h-89l-142 -744h89l-22 -123h-231l189 989h230z" />
<glyph unicode="\" horiz-adv-x="494" d="M425 -161h-138l-178 918h137z" />
<glyph unicode="]" horiz-adv-x="325" d="M372 781l-188 -989h-231l23 123h90l142 744h-90l24 122h230z" />
<glyph unicode="^" d="M514 387l-113 -54l-74 235l-160 -235l-92 52l215 290h114z" />
<glyph unicode="_" d="M488 -121l-23 -123h-550l23 123h550z" />
<glyph unicode="`" horiz-adv-x="369" d="M382 636l-57 -83l-196 107l68 100z" />
<glyph unicode="a" horiz-adv-x="545" d="M540 491q-80 -419 -91 -491h-147q14 58 40 129h-2q-84 -141 -193 -141q-121 0 -121 158q0 153 84 257.5t240 104.5q102 0 190 -17zM369 382q-26 6 -46 6q-44 0 -77.5 -34.5t-49 -82t-15.5 -96.5q0 -55 29 -55q40 0 90 80t64 155z" />
<glyph unicode="b" horiz-adv-x="545" d="M532 351q0 -153 -84 -257.5t-240 -104.5q-100 0 -189 21l137 720h150l-37 -192q-14 -71 -54 -171h2q80 142 194 142q121 0 121 -158zM377 322q0 55 -29 55q-40 0 -90 -79.5t-64 -154.5l-5 -28q26 -6 46 -6q44 0 77.5 34.5t49 82t15.5 96.5z" />
<glyph unicode="c" horiz-adv-x="398" d="M420 497l-35 -132q-29 13 -67 13q-63 0 -97 -55t-34 -124q0 -76 77 -76q43 0 80 14l-12 -131q-51 -18 -113 -18q-191 0 -191 178q0 146 82 244t215 98q48 0 95 -11z" />
<glyph unicode="d" horiz-adv-x="545" d="M585 730l-105 -551q-8 -40 -31 -179h-146q9 44 39 129h-2q-84 -141 -193 -141q-121 0 -121 158q0 153 84 257.5t240 104.5q18 0 43 -4l42 226h150zM369 382q-26 6 -46 6q-44 0 -77.5 -34.5t-49 -82t-15.5 -96.5q0 -55 29 -55q40 0 90 80t64 155z" />
<glyph unicode="e" horiz-adv-x="491" d="M485 381q0 -92 -81 -138.5t-225 -50.5q-1 -8 -1 -26q0 -33 16.5 -45.5t63.5 -12.5q71 0 147 30l1 -116q-94 -33 -196 -33q-97 0 -139.5 44t-42.5 129q0 157 85 251.5t201 94.5q93 0 132 -36.5t39 -90.5zM339 361q0 35 -41 35q-38 0 -64.5 -30.5t-39.5 -75.5q145 3 145 71 z" />
<glyph unicode="f" horiz-adv-x="352" d="M463 731l-33 -123q-32 8 -53 8q-37 0 -55 -19t-27 -68l-6 -32h99l-23 -117h-100l-74 -393q-43 -232 -238 -232q-45 0 -87 9l35 125q26 -7 51 -7q37 0 57.5 22.5t32.5 84.5l74 391h-75l24 117h74l7 38q18 102 74 153t164 51q46 0 79 -8z" />
<glyph unicode="g" horiz-adv-x="541" d="M540 491l-99 -513q-22 -114 -98 -169.5t-221 -55.5q-82 0 -151 22l35 138q61 -31 139 -31q130 0 152 108q12 57 45 137l-2 1q-85 -140 -193 -140q-121 0 -121 158q0 99 34.5 179t109.5 131.5t180 51.5q102 0 190 -17zM369 382q-26 6 -46 6q-44 0 -77.5 -34.5t-49 -82 t-15.5 -96.5q0 -55 29 -55q40 0 90 80t64 155z" />
<glyph unicode="h" horiz-adv-x="556" d="M523 346l-66 -346h-149l59 308q3 18 3 32q0 37 -24 37q-38 0 -88 -79t-66 -162l-25 -136h-150l139 730h150l-37 -194q-13 -67 -53 -166h2q81 139 196 139q71 0 97 -45q17 -28 17 -70q0 -22 -5 -48z" />
<glyph unicode="i" horiz-adv-x="267" d="M307 652q0 -42 -29.5 -69.5t-68.5 -27.5q-38 0 -62.5 25t-24.5 59q0 40 29.5 68t68.5 28q37 0 62 -25t25 -58zM262 497l-95 -497h-150l95 497h150z" />
<glyph unicode="j" horiz-adv-x="269" d="M310 652q0 -42 -29.5 -69.5t-69.5 -27.5q-38 0 -62.5 25t-24.5 59q0 40 29.5 68t69.5 28q37 0 62 -25t25 -58zM266 497l-101 -525q-20 -105 -77.5 -161t-165.5 -56q-37 0 -69 10l31 129q27 -11 51 -11q35 0 53.5 22.5t28.5 77.5l100 514h149z" />
<glyph unicode="k" horiz-adv-x="522" d="M548 454l-190 -188l122 -266h-181l-86 241l-46 -241h-150l139 730h150l-83 -431l205 230z" />
<glyph unicode="l" horiz-adv-x="265" d="M306 730l-139 -730h-150l139 730h150z" />
<glyph unicode="m" horiz-adv-x="843" d="M810 346l-66 -346h-150l59 308q4 20 4 34q0 35 -24 35q-36 0 -86 -76.5t-67 -164.5l-25 -136h-149l59 308q3 19 3 33q0 36 -23 36q-36 0 -86 -76.5t-67 -164.5l-25 -136h-150l50 260q27 138 42 237h145q-9 -54 -38 -127h2q83 139 194 139q46 0 74 -25t28 -73 q0 -15 -9 -45l1 -1q80 144 196 144q70 0 96 -45q17 -28 17 -70q0 -22 -5 -48z" />
<glyph unicode="n" horiz-adv-x="556" d="M523 346l-66 -346h-149l59 308q3 18 3 32q0 37 -24 37q-38 0 -88 -79t-66 -162l-25 -136h-150l50 260q27 138 42 237h145q-10 -54 -38 -127h2q81 139 196 139q71 0 97 -45q17 -28 17 -70q0 -22 -5 -48z" />
<glyph unicode="o" horiz-adv-x="549" d="M535 325q0 -148 -90.5 -242t-215.5 -94q-107 0 -154.5 46t-47.5 134q0 154 91 246.5t216 92.5q201 0 201 -183zM377 306q0 71 -67 71q-57 0 -91.5 -58.5t-34.5 -126.5q0 -71 64 -71q58 0 93.5 56.5t35.5 128.5z" />
<glyph unicode="p" horiz-adv-x="545" d="M532 351q0 -153 -84 -257t-240 -104q-25 0 -43 3l-43 -230h-150l95 497q27 138 42 237h146q-12 -56 -39 -128h2q79 140 193 140q121 0 121 -158zM377 322q0 55 -29 55q-40 0 -90 -79.5t-64 -154.5l-5 -26q21 -8 46 -8q44 0 77.5 34.5t49 82t15.5 96.5z" />
<glyph unicode="q" horiz-adv-x="545" d="M540 491l-139 -728h-150l36 189q15 81 55 177h-2q-84 -141 -193 -141q-121 0 -121 158q0 153 84 257.5t240 104.5q94 0 190 -17zM369 382q-26 6 -46 6q-44 0 -77.5 -34.5t-49 -82t-15.5 -96.5q0 -55 29 -55q40 0 90 80t64 155z" />
<glyph unicode="r" horiz-adv-x="352" d="M398 508l-32 -147q-10 3 -19 3q-40 0 -83 -56q-52 -69 -78 -203l-19 -105h-150l50 260q27 138 42 237h144q-11 -53 -37 -128h2q40 77 82 112q34 28 78 28q10 0 20 -1z" />
<glyph unicode="s" horiz-adv-x="374" d="M366 502l-28 -115q-30 9 -61 9q-63 0 -63 -41q0 -16 18 -36t40 -37.5t40 -49.5t18 -68q0 -70 -61 -122.5t-175 -52.5q-52 0 -88 10l26 125q37 -15 73 -15q66 0 66 41q0 19 -17.5 38t-39 35t-39 47t-17.5 70q0 75 57.5 121.5t166.5 46.5q46 0 84 -6z" />
<glyph unicode="t" horiz-adv-x="369" d="M390 497l-23 -117h-105l-38 -202q-3 -17 -3 -29q0 -13 3 -20q8 -13 34 -13q28 0 58 7l-16 -120q-56 -14 -108 -14q-82 0 -110 41q-16 25 -16 71q0 28 6 64l40 215h-74l24 117h73l28 147l155 30l-34 -177h106z" />
<glyph unicode="u" horiz-adv-x="555" d="M552 497l-50 -260q-27 -138 -42 -237h-146q14 66 38 127h-2q-81 -139 -196 -139q-70 0 -96 44q-17 29 -17 71q0 22 5 48l65 346h150l-59 -308q-4 -20 -4 -34q0 -35 25 -35q37 0 87 79t66 162l26 136h150z" />
<glyph unicode="v" horiz-adv-x="505" d="M551 478l-256 -478h-157l-84 497h158l25 -166q9 -64 12 -132h2l153 320z" />
<glyph unicode="w" horiz-adv-x="785" d="M827 479l-235 -479h-168l-19 170q-6 52 -6 119h-1q-82 -183 -136 -289h-149l-52 497h156l11 -138q8 -99 9 -160h1l136 298h140l16 -145q8 -74 11 -154h1q81 194 140 320z" />
<glyph unicode="x" horiz-adv-x="530" d="M566 459l-197 -219l110 -240h-175l-55 148l-150 -181l-127 72l206 223l-107 235h166l57 -149l149 181z" />
<glyph unicode="y" horiz-adv-x="529" d="M567 479q-109 -252 -195.5 -396.5t-174.5 -232.5q-96 -95 -200 -95q-43 0 -77 8l24 129q29 -10 60 -10q49 0 82 30q39 36 39 108q0 192 -80 477h167q46 -177 46 -332q0 -15 -3 -29h2q85 163 168 382z" />
<glyph unicode="z" horiz-adv-x="441" d="M448 497l-22 -109l-202 -249q16 1 93 1h65l-26 -140h-354l21 109l207 253q-26 -2 -86 -2h-68l27 137h345z" />
<glyph unicode="{" horiz-adv-x="368" d="M446 781l-24 -122q-47 0 -67 -22t-34 -94l-12 -66q-29 -152 -122 -166v-2q66 -10 66 -98q0 -31 -8 -71l-21 -107q-7 -41 -7 -66q0 -20 5 -30q10 -22 57 -22l-23 -123h-22q-104 0 -140 57q-20 33 -20 91q0 41 10 93l22 108q5 23 5 41q0 30 -13 45q-19 25 -66 27l22 114 q49 2 77 24.5t39 83.5l12 66q22 125 79 182t161 57h24z" />
<glyph unicode="|" horiz-adv-x="284" d="M303 763l-191 -1000h-118l190 1000h119z" />
<glyph unicode="}" horiz-adv-x="368" d="M374 368l-21 -114q-49 -2 -77 -26.5t-40 -86.5l-20 -108q-25 -129 -81.5 -185t-159.5 -56h-23l23 123q47 0 67 22.5t34 95.5l21 107q31 158 122 170v2q-65 11 -65 99q0 29 7 66l13 66q7 40 7 65q0 20 -5 30q-11 21 -58 21l23 122h23q103 0 138 -57q21 -33 21 -90 q0 -40 -10 -92l-13 -66q-5 -24 -5 -41q0 -29 12 -43q19 -22 67 -24z" />
<glyph unicode="~" d="M581 590q-4 -93 -50.5 -142.5t-123.5 -49.5q-39 0 -67.5 16t-41 34.5t-27.5 34.5t-30 16q-40 0 -49 -76h-113q4 93 50.5 143t122.5 50q39 0 68 -16t41.5 -34.5t27.5 -34.5t30 -16q40 0 49 75h113z" />
<glyph unicode="&#xa1;" horiz-adv-x="317" d="M279 429q0 -40 -28 -66.5t-67 -26.5q-37 0 -60.5 24t-23.5 57q0 40 28 66t67 26q37 0 60.5 -23.5t23.5 -56.5zM230 296l-74 -510h-175l118 510h131z" />
<glyph unicode="&#xa2;" d="M532 550l-55 -121q-38 19 -89 19q-62 0 -101 -44t-39 -104q0 -79 95 -79q52 0 99 21l20 -118q-55 -24 -111 -29l-18 -95h-114l19 96q-74 9 -113.5 54t-39.5 123q0 111 65.5 191.5t176.5 100.5l16 85h114l-16 -80q45 -3 91 -20z" />
<glyph unicode="&#xa3;" d="M550 647l-46 -128q-50 18 -98 18q-58 0 -79.5 -37t-23.5 -117h145l-22 -118h-131q-1 -80 -63 -137q42 2 69 2h179l-25 -130h-432l19 103q53 36 75 74t24 88h-88l22 118h73q2 43 8 77t23.5 74t45.5 66.5t78.5 44.5t117.5 18q63 0 129 -16z" />
<glyph unicode="&#xa4;" d="M583 531l-82 -85q10 -23 10 -56q0 -97 -63 -175l57 -94l-132 -82l-55 100q-35 -11 -67 -11q-24 0 -46 5l-85 -93l-107 87l82 84q-13 26 -13 68q0 98 63 169l-52 90l130 80l52 -94q33 9 67 9q31 0 53 -7l84 93zM377 366q0 57 -59 57q-45 0 -73.5 -36.5t-28.5 -85.5 q0 -29 14 -46t42 -17q51 0 78 40.5t27 87.5z" />
<glyph unicode="&#xa5;" d="M622 650l-212 -315h112l-18 -95h-149l-10 -51h149l-18 -95h-149l-18 -94h-153l18 94h-149l18 95h149l9 51h-148l18 95h112l-90 315h164l34 -144q6 -26 17 -92h2q18 37 54 93l89 143h169z" />
<glyph unicode="&#xa6;" horiz-adv-x="284" d="M303 763l-70 -368h-118l69 368h119zM184 141l-72 -378h-118l72 378h118z" />
<glyph unicode="&#xa7;" horiz-adv-x="525" d="M501 732l-30 -127q-34 10 -70 10q-86 0 -86 -64q0 -17 16.5 -37t39.5 -41.5t46 -47t39.5 -64t16.5 -82.5q0 -52 -28.5 -98t-73.5 -75q19 -28 19 -72q0 -83 -71 -143t-197 -60q-55 0 -98 10l33 129q42 -13 75 -13q52 0 73.5 21t21.5 45q0 23 -25 51.5t-54.5 53.5t-54.5 67 t-25 90q0 55 27.5 102.5t75.5 78.5q-21 36 -21 78q0 31 14 63t42 62.5t81 50t121 19.5q46 0 93 -7zM336 252q0 27 -19 53t-74 84q-37 -27 -37 -73q0 -26 20.5 -53.5t73.5 -79.5q36 24 36 69z" />
<glyph unicode="&#xa8;" horiz-adv-x="535" d="M513 647q0 -34 -24.5 -57.5t-57.5 -23.5q-32 0 -54 22.5t-22 54.5q0 33 24.5 57t57.5 24q32 0 54 -23t22 -54zM304 647q0 -34 -24.5 -57.5t-57.5 -23.5q-32 0 -54 22.5t-22 54.5q0 33 24.5 57t57.5 24q32 0 54 -23t22 -54z" />
<glyph unicode="&#xa9;" horiz-adv-x="750" d="M745 352q0 -154 -108.5 -259.5t-254.5 -105.5q-140 0 -235 95t-95 232q0 153 108 259t255 106q139 0 234.5 -95t95.5 -232zM631 345q0 92 -64.5 157.5t-157.5 65.5q-98 0 -170.5 -72t-72.5 -177q0 -91 64.5 -156t157.5 -65q98 0 170.5 71.5t72.5 175.5zM522 495l-37 -98 q-16 16 -52 16q-39 0 -59 -32t-20 -75q0 -46 44 -46q37 0 66 14l4 -96q-48 -22 -102 -22q-62 0 -98.5 35t-36.5 98q0 90 56.5 156.5t148.5 66.5q52 0 86 -17z" />
<glyph unicode="&#xaa;" horiz-adv-x="413" d="M444 674q-59 -307 -66 -361h-116q14 48 25 81h-1q-54 -90 -134 -90q-94 0 -94 118q0 111 64 187.5t177 76.5q80 0 145 -12zM386 270l-22 -118h-330l22 118h330zM309 585q-22 4 -33 4q-42 0 -68.5 -43.5t-26.5 -96.5q0 -38 20 -38q29 0 62.5 49t42.5 105z" />
<glyph unicode="&#xab;" horiz-adv-x="538" d="M534 436l-113 -144l63 -145l-124 -53l-82 205l148 192zM299 442l-108 -150l54 -153l-126 -51l-71 212l139 197z" />
<glyph unicode="&#xac;" d="M521 362l-51 -272h-136l27 144h-321l24 128h457z" />
<glyph unicode="&#xad;" horiz-adv-x="331" d="M312 332l-24 -122h-248l24 122h248z" />
<glyph unicode="&#xae;" horiz-adv-x="554" d="M576 545q0 -107 -76 -179.5t-177 -72.5q-96 0 -161.5 64.5t-65.5 159.5q0 109 75 181t176 72q97 0 163 -64.5t66 -160.5zM486 541q0 60 -41 103.5t-101 43.5q-64 0 -111 -48t-47 -117q0 -61 41 -104.5t101 -43.5q64 0 111 48t47 118zM439 592q0 -50 -52 -73q6 -11 10 -28 l15 -65h-78l-13 78h-9l-15 -78h-66l42 219h93q73 0 73 -53zM363 578q0 16 -21 16h-13l-8 -44h9q14 0 23.5 8t9.5 20z" />
<glyph unicode="&#xaf;" horiz-adv-x="387" d="M423 698l-20 -110h-276l21 110h275z" />
<glyph unicode="&#xb0;" horiz-adv-x="388" d="M425 607q0 -79 -52.5 -121.5t-122.5 -42.5t-108 37t-38 97q0 75 53.5 118.5t119.5 43.5q77 0 112.5 -37.5t35.5 -94.5zM314 598q0 18 -11.5 33t-32.5 15q-23 0 -38.5 -16t-15.5 -43q0 -22 12 -35.5t34 -13.5q23 0 37.5 16.5t14.5 43.5z" />
<glyph unicode="&#xb1;" d="M562 479l-24 -126h-165l-33 -174h-145l33 174h-165l23 126h165l34 174h145l-33 -174h165zM491 127l-25 -127h-466l24 127h467z" />
<glyph unicode="&#xb2;" horiz-adv-x="319" d="M340 582q0 -33 -19 -60t-65 -60l-27 -19h93l-17 -91h-240l17 85l54 38q68 48 68 73q0 20 -24 20q-26 0 -56 -15l-4 88q56 20 106 20q57 0 85.5 -21.5t28.5 -57.5z" />
<glyph unicode="&#xb3;" horiz-adv-x="397" d="M331 590q0 -62 -58 -85q20 -2 32 -17t12 -37q0 -45 -41.5 -77.5t-131.5 -32.5q-36 0 -78 9l20 73q24 -8 48 -8q54 0 54 34q0 22 -41 22q-17 0 -42 -4l12 66h9q80 0 80 37q0 17 -27 17q-33 0 -56 -13l-3 71q46 16 102 16q109 0 109 -71z" />
<glyph unicode="&#xb4;" horiz-adv-x="388" d="M409 657l-206 -104l-49 83l198 124z" />
<glyph unicode="&#xb5;" horiz-adv-x="625" d="M591 57q-60 -68 -148 -68q-47 0 -68.5 18.5t-21.5 58.5q0 18 7 43h-1q-27 -52 -70 -84.5t-87 -32.5q-26 0 -40 16l-24 -245h-158l140 734h149l-58 -308q-4 -19 -4 -33q0 -36 26 -36q39 0 85.5 66t62.5 151l30 160h149l-61 -324q-6 -29 -6 -44.5t4 -20.5t13 -5q20 0 41 24 z" />
<glyph unicode="&#xb6;" horiz-adv-x="595" d="M638 675l-23 -123h-60l-123 -648h-191l23 123h67l123 648h184zM376 675l-86 -456q-102 0 -153.5 49.5t-51.5 135.5q0 112 79 191.5t212 79.5z" />
<glyph unicode="&#xb7;" horiz-adv-x="292" d="M257 301q0 -41 -29.5 -69.5t-69.5 -28.5q-39 0 -66 27.5t-27 65.5q0 40 29.5 68.5t70.5 28.5q39 0 65.5 -27.5t26.5 -64.5z" />
<glyph unicode="&#xb8;" horiz-adv-x="392" d="M200 -39q19 -37 19 -72q0 -66 -68 -123h-116q43 43 53 77q2 9 2 20q0 27 -18 63z" />
<glyph unicode="&#xb9;" horiz-adv-x="316" d="M319 650l-56 -298h-120l38 203l-66 -25l-1 87l94 33h111z" />
<glyph unicode="&#xba;" horiz-adv-x="421" d="M449 548q0 -109 -65.5 -176.5t-159.5 -67.5q-73 0 -109.5 37t-36.5 99q0 106 61.5 176.5t162.5 70.5q147 0 147 -139zM384 270l-22 -118h-327l22 118h327zM327 533q0 50 -42 50q-43 0 -64.5 -39.5t-21.5 -85.5q0 -50 43 -50q39 0 62 38t23 87z" />
<glyph unicode="&#xbb;" horiz-adv-x="538" d="M522 286l-139 -198l-112 55l108 151l-54 153l126 51zM292 287l-148 -192l-108 55l112 144l-62 145l123 52z" />
<glyph unicode="&#xbc;" horiz-adv-x="721" d="M318 650l-56 -298h-120l39 203l-66 -25l-2 87l94 33h111zM712 598l-613 -622l-79 74l613 622zM661 126l-16 -82h-40l-9 -44h-103l8 44h-136l5 77l128 177h155l-32 -172h40zM538 230l-77 -105h56z" />
<glyph unicode="&#xbd;" horiz-adv-x="723" d="M669 230q0 -34 -19 -61t-64 -59l-28 -19h94l-17 -91h-240l17 85l53 38q69 48 69 73q0 19 -25 19q-27 0 -55 -14l-5 88q58 20 106 20q58 0 86 -21.5t28 -57.5zM712 598l-613 -622l-79 74l613 622zM318 650l-56 -298h-120l39 203l-66 -25l-2 87l94 33h111z" />
<glyph unicode="&#xbe;" horiz-adv-x="729" d="M545 230l-77 -105h57zM669 126l-16 -82h-40l-9 -44h-104l9 44h-137l6 77l128 177h154l-32 -172h41zM719 598l-613 -622l-79 74l613 622zM336 590q0 -62 -58 -85q20 -2 32 -17.5t12 -36.5q0 -45 -42 -77.5t-132 -32.5q-36 0 -78 9l21 73q24 -8 47 -8q55 0 55 34 q0 22 -42 22q-17 0 -42 -4l13 66h8q80 0 80 37q0 17 -27 17q-31 0 -56 -13l-2 71q46 16 101 16q110 0 110 -71z" />
<glyph unicode="&#xbf;" horiz-adv-x="446" d="M384 429q0 -40 -28 -66.5t-67 -26.5q-37 0 -60.5 24t-23.5 57q0 40 28 66t67 26q37 0 60.5 -23.5t23.5 -56.5zM347 296q3 -18 3 -35q0 -25 -6 -47q-11 -37 -31.5 -60t-46.5 -45t-49.5 -37t-39 -35.5t-15.5 -42.5q0 -71 171 -80l-45 -138q-145 5 -219.5 57t-74.5 131 q0 51 23 91.5t55 66.5l64 49q31 24 50 55q15 25 15 54q0 8 -1 16h147z" />
<glyph unicode="&#xc0;" horiz-adv-x="621" d="M584 0h-163l-17 125h-229l-64 -125h-157l353 675h174zM389 248l-21 154q-5 31 -9 94h-1q-24 -59 -43 -94l-79 -154h153zM476 792l-34 -82l-221 51l45 106z" />
<glyph unicode="&#xc1;" horiz-adv-x="621" d="M584 0h-163l-17 125h-229l-64 -125h-157l353 675h174zM389 248l-21 154q-5 31 -9 94h-1q-24 -59 -43 -94l-79 -154h153zM567 761l-231 -51l-15 82l227 75z" />
<glyph unicode="&#xc2;" horiz-adv-x="621" d="M584 0h-163l-17 125h-229l-64 -125h-157l353 675h174zM389 248l-21 154q-5 31 -9 94h-1q-24 -59 -43 -94l-79 -154h153zM572 782l-39 -72l-128 57l-141 -57l-26 71l177 88z" />
<glyph unicode="&#xc3;" horiz-adv-x="621" d="M584 0h-163l-17 125h-229l-64 -125h-157l353 675h174zM389 248l-21 154q-5 31 -9 94h-1q-24 -59 -43 -94l-79 -154h153zM593 811q-51 -88 -135 -88q-38 0 -72 22t-48 22q-31 0 -55 -41l-72 50q52 88 135 88q38 0 72.5 -22t48.5 -22q29 0 55 41z" />
<glyph unicode="&#xc4;" horiz-adv-x="621" d="M584 0h-163l-17 125h-229l-64 -125h-157l353 675h174zM389 248l-21 154q-5 31 -9 94h-1q-24 -59 -43 -94l-79 -154h153zM583 794q0 -31 -20.5 -52t-49.5 -21q-28 0 -47 19.5t-19 46.5q0 30 21 51t49 21t47 -19.5t19 -45.5zM369 794q0 -31 -20.5 -52t-49.5 -21 q-27 0 -46 19.5t-19 46.5q0 30 20.5 51t49.5 21q28 0 46.5 -19.5t18.5 -45.5z" />
<glyph unicode="&#xc5;" horiz-adv-x="621" d="M584 0h-163l-17 125h-229l-64 -125h-157l334 638q-28 30 -28 73q0 59 42 97.5t99 38.5q56 0 93.5 -35.5t37.5 -88.5q0 -58 -44 -95zM446 720q0 20 -13.5 34t-34.5 14q-22 0 -37 -15.5t-15 -37.5q0 -21 13.5 -35t34.5 -14q22 0 37 15.5t15 38.5zM388 248l-20 135 q-9 65 -10 111h-2q-28 -66 -54 -119l-67 -127h153z" />
<glyph unicode="&#xc6;" horiz-adv-x="767" d="M808 675l-25 -131h-216l-26 -134h209l-24 -127h-209l-29 -149h223l-25 -134h-370l27 134h-174l-85 -134h-163l429 675h458zM422 547h-2q-54 -99 -89 -154l-89 -137h124z" />
<glyph unicode="&#xc7;" horiz-adv-x="540" d="M584 662l-42 -142q-55 20 -109 20q-48 0 -86 -18.5t-62 -48t-39.5 -67.5t-22 -74t-6.5 -72q0 -62 29.5 -94.5t98.5 -32.5q64 0 126 25l-5 -142q-80 -25 -167 -25q-61 0 -108 15t-74.5 38.5t-44.5 56.5t-23 63.5t-6 65.5q0 86 26 165.5t75 143.5t127 102.5t175 38.5 q76 0 138 -18zM308 -39q19 -37 19 -72q0 -66 -68 -123h-116q43 43 53 77q2 9 2 20q0 27 -18 63z" />
<glyph unicode="&#xc8;" horiz-adv-x="477" d="M518 675l-25 -131h-220l-25 -134h209l-25 -127h-208l-29 -149h220l-25 -134h-372l128 675h372zM435 792l-34 -82l-221 51l45 106z" />
<glyph unicode="&#xc9;" horiz-adv-x="477" d="M518 675l-25 -131h-220l-25 -134h209l-25 -127h-208l-29 -149h220l-25 -134h-372l128 675h372zM524 761l-231 -51l-15 82l227 75z" />
<glyph unicode="&#xca;" horiz-adv-x="477" d="M518 675l-25 -131h-220l-25 -134h209l-25 -127h-208l-29 -149h220l-25 -134h-372l128 675h372zM511 782l-39 -72l-128 57l-141 -57l-26 71l177 88z" />
<glyph unicode="&#xcb;" horiz-adv-x="477" d="M518 675l-25 -131h-220l-25 -134h209l-25 -127h-208l-29 -149h220l-25 -134h-372l128 675h372zM524 794q0 -31 -20.5 -52t-49.5 -21q-28 0 -47 19.5t-19 46.5q0 30 21 51t49 21t47 -19.5t19 -45.5zM310 794q0 -31 -20.5 -52t-49.5 -21q-27 0 -46 19.5t-19 46.5 q0 30 20.5 51t49.5 21q28 0 46.5 -19.5t18.5 -45.5z" />
<glyph unicode="&#xcc;" horiz-adv-x="270" d="M298 675l-128 -675h-152l128 675h152zM336 792l-34 -82l-221 51l45 106z" />
<glyph unicode="&#xcd;" horiz-adv-x="270" d="M298 675l-128 -675h-152l128 675h152zM388 761l-231 -51l-15 82l227 75z" />
<glyph unicode="&#xce;" horiz-adv-x="270" d="M298 675l-128 -675h-152l128 675h152zM405 782l-39 -72l-128 57l-141 -57l-26 71l177 88z" />
<glyph unicode="&#xcf;" horiz-adv-x="270" d="M298 675l-128 -675h-152l128 675h152zM413 794q0 -31 -20.5 -52t-49.5 -21q-28 0 -47 19.5t-19 46.5q0 30 21 51t49 21t47 -19.5t19 -45.5zM199 794q0 -31 -20.5 -52t-49.5 -21q-27 0 -46 19.5t-19 46.5q0 30 20.5 51t49.5 21q28 0 46.5 -19.5t18.5 -45.5z" />
<glyph unicode="&#xd0;" horiz-adv-x="663" d="M656 436q0 -87 -27 -165.5t-78.5 -140.5t-134 -98.5t-185.5 -36.5q-84 0 -204 6l54 281h-66l22 117h66l52 274q104 6 218 6q137 0 210 -60.5t73 -182.5zM493 421q0 63 -32 95t-108 32q-52 0 -70 -2l-27 -147h105l-23 -117h-105l-28 -149q26 -4 49 -4q52 0 94 20t68.5 51 t44.5 71t25 77.5t7 72.5z" />
<glyph unicode="&#xd1;" horiz-adv-x="666" d="M695 675l-129 -675h-179l-101 287q-21 61 -43 149q-9 -75 -24 -153l-53 -283h-148l128 675h180l97 -264q25 -70 49 -166q9 81 26 173l49 257h148zM631 811q-51 -88 -135 -88q-38 0 -72 22t-48 22q-31 0 -55 -41l-72 50q52 88 135 88q38 0 72.5 -22t48.5 -22q29 0 55 41z " />
<glyph unicode="&#xd2;" horiz-adv-x="688" d="M693 438q0 -193 -116 -322t-282 -129q-128 0 -191.5 65.5t-63.5 182.5q0 120 52 224t144.5 166.5t203.5 62.5q124 0 188.5 -65t64.5 -185zM531 420q0 58 -29 92t-87 34q-94 0 -152.5 -86t-58.5 -198q0 -132 114 -132q92 0 152.5 86t60.5 204zM547 792l-34 -82l-221 51 l45 106z" />
<glyph unicode="&#xd3;" horiz-adv-x="688" d="M693 438q0 -193 -116 -322t-282 -129q-128 0 -191.5 65.5t-63.5 182.5q0 120 52 224t144.5 166.5t203.5 62.5q124 0 188.5 -65t64.5 -185zM531 420q0 58 -29 92t-87 34q-94 0 -152.5 -86t-58.5 -198q0 -132 114 -132q92 0 152.5 86t60.5 204zM621 761l-231 -51l-15 82 l227 75z" />
<glyph unicode="&#xd4;" horiz-adv-x="688" d="M693 438q0 -193 -116 -322t-282 -129q-128 0 -191.5 65.5t-63.5 182.5q0 120 52 224t144.5 166.5t203.5 62.5q124 0 188.5 -65t64.5 -185zM531 420q0 58 -29 92t-87 34q-94 0 -152.5 -86t-58.5 -198q0 -132 114 -132q92 0 152.5 86t60.5 204zM625 782l-39 -72l-128 57 l-141 -57l-26 71l177 88z" />
<glyph unicode="&#xd5;" horiz-adv-x="688" d="M693 438q0 -193 -116 -322t-282 -129q-128 0 -191.5 65.5t-63.5 182.5q0 120 52 224t144.5 166.5t203.5 62.5q124 0 188.5 -65t64.5 -185zM531 420q0 58 -29 92t-87 34q-94 0 -152.5 -86t-58.5 -198q0 -132 114 -132q92 0 152.5 86t60.5 204zM651 811q-51 -88 -135 -88 q-38 0 -72 22t-48 22q-31 0 -55 -41l-72 50q52 88 135 88q38 0 72.5 -22t48.5 -22q29 0 55 41z" />
<glyph unicode="&#xd6;" horiz-adv-x="688" d="M693 438q0 -193 -116 -322t-282 -129q-128 0 -191.5 65.5t-63.5 182.5q0 120 52 224t144.5 166.5t203.5 62.5q124 0 188.5 -65t64.5 -185zM531 420q0 58 -29 92t-87 34q-94 0 -152.5 -86t-58.5 -198q0 -132 114 -132q92 0 152.5 86t60.5 204zM641 794q0 -31 -20.5 -52 t-49.5 -21q-28 0 -47 19.5t-19 46.5q0 30 21 51t49 21t47 -19.5t19 -45.5zM427 794q0 -31 -20.5 -52t-49.5 -21q-27 0 -46 19.5t-19 46.5q0 30 20.5 51t49.5 21q28 0 46.5 -19.5t18.5 -45.5z" />
<glyph unicode="&#xd7;" d="M552 441l-174 -146l119 -149l-103 -83l-118 147l-173 -147l-76 90l176 148l-119 148l104 82l116 -144l171 144z" />
<glyph unicode="&#xd8;" horiz-adv-x="688" d="M693 438q0 -193 -116 -322t-282 -129q-26 0 -53 5l-49 -99l-108 37l50 97q-95 62 -95 208q0 121 51 225t143.5 166t204.5 62q25 0 45 -4l47 92l107 -35l-47 -90q102 -59 102 -213zM537 423q0 49 -24 78l-199 -375q23 0 52 8q75 22 123 103.5t48 185.5zM412 550 q-17 0 -39 -5q-79 -20 -126.5 -102t-47.5 -184q0 -49 19 -75z" />
<glyph unicode="&#xd9;" horiz-adv-x="660" d="M688 675l-82 -427q-49 -261 -322 -261q-226 0 -226 188q0 37 8 80l79 420h153l-83 -434q-4 -22 -4 -40q0 -33 13 -53q22 -30 82 -30q67 0 102.5 33.5t49.5 108.5l79 415h151zM510 792l-34 -82l-221 51l45 106z" />
<glyph unicode="&#xda;" horiz-adv-x="660" d="M688 675l-82 -427q-49 -261 -322 -261q-226 0 -226 188q0 37 8 80l79 420h153l-83 -434q-4 -22 -4 -40q0 -33 13 -53q22 -30 82 -30q67 0 102.5 33.5t49.5 108.5l79 415h151zM616 761l-231 -51l-15 82l227 75z" />
<glyph unicode="&#xdb;" horiz-adv-x="660" d="M688 675l-82 -427q-49 -261 -322 -261q-226 0 -226 188q0 37 8 80l79 420h153l-83 -434q-4 -22 -4 -40q0 -33 13 -53q22 -30 82 -30q67 0 102.5 33.5t49.5 108.5l79 415h151zM600 782l-39 -72l-128 57l-141 -57l-26 71l177 88z" />
<glyph unicode="&#xdc;" horiz-adv-x="660" d="M688 675l-82 -427q-49 -261 -322 -261q-226 0 -226 188q0 37 8 80l79 420h153l-83 -434q-4 -22 -4 -40q0 -33 13 -53q22 -30 82 -30q67 0 102.5 33.5t49.5 108.5l79 415h151zM599 794q0 -31 -20.5 -52t-49.5 -21q-28 0 -47 19.5t-19 46.5q0 30 21 51t49 21t47 -19.5 t19 -45.5zM385 794q0 -31 -20.5 -52t-49.5 -21q-27 0 -46 19.5t-19 46.5q0 30 20.5 51t49.5 21q28 0 46.5 -19.5t18.5 -45.5z" />
<glyph unicode="&#xdd;" horiz-adv-x="566" d="M655 675l-294 -439l-45 -236h-152l45 235l-124 440h161l43 -172q14 -57 22 -108h2q13 26 74 122l100 158h168zM550 761l-231 -51l-15 82l227 75z" />
<glyph unicode="&#xde;" horiz-adv-x="541" d="M561 409q0 -124 -89.5 -208t-228.5 -84q-38 0 -50 1l-23 -118h-152l128 675h153l-17 -89q36 2 63 2q105 0 160.5 -46t55.5 -133zM400 383q0 78 -91 78q-20 0 -52 -2l-40 -212q20 -4 43 -4q62 0 101 40.5t39 99.5z" />
<glyph unicode="&#xdf;" horiz-adv-x="603" d="M586 595q0 -37 -14 -67t-34 -49t-40 -35.5t-34 -35.5t-14 -40q0 -22 25 -51t50 -67t25 -82q0 -74 -60.5 -126.5t-173.5 -52.5q-48 0 -88 8l26 124q36 -14 72 -14q65 0 65 48q0 20 -15 43t-33 41t-33 49t-15 66q0 41 21 75t45.5 53.5t45.5 45.5t21 53q0 18 -14 28.5 t-39 10.5q-42 0 -72 -31t-42 -92l-97 -511q-23 -119 -83.5 -175t-162.5 -56q-39 0 -74 8l34 121q19 -5 46 -5q39 0 59 24t32 86l95 501q23 124 98.5 186t184.5 62q89 0 141 -38t52 -105z" />
<glyph unicode="&#xe0;" horiz-adv-x="545" d="M540 491q-80 -419 -91 -491h-147q14 58 40 129h-2q-84 -141 -193 -141q-121 0 -121 158q0 153 84 257.5t240 104.5q102 0 190 -17zM369 382q-26 6 -46 6q-44 0 -77.5 -34.5t-49 -82t-15.5 -96.5q0 -55 29 -55q40 0 90 80t64 155zM473 636l-57 -83l-196 107l68 100z" />
<glyph unicode="&#xe1;" horiz-adv-x="545" d="M540 491q-80 -419 -91 -491h-147q14 58 40 129h-2q-84 -141 -193 -141q-121 0 -121 158q0 153 84 257.5t240 104.5q102 0 190 -17zM369 382q-26 6 -46 6q-44 0 -77.5 -34.5t-49 -82t-15.5 -96.5q0 -55 29 -55q40 0 90 80t64 155zM564 657l-206 -104l-49 83l198 124z" />
<glyph unicode="&#xe2;" horiz-adv-x="545" d="M540 491q-80 -419 -91 -491h-147q14 58 40 129h-2q-84 -141 -193 -141q-121 0 -121 158q0 153 84 257.5t240 104.5q102 0 190 -17zM369 382q-26 6 -46 6q-44 0 -77.5 -34.5t-49 -82t-15.5 -96.5q0 -55 29 -55q40 0 90 80t64 155zM542 622l-64 -69l-89 79l-118 -79l-48 69 l185 138z" />
<glyph unicode="&#xe3;" horiz-adv-x="545" d="M540 491q-80 -419 -91 -491h-147q14 58 40 129h-2q-84 -141 -193 -141q-121 0 -121 158q0 153 84 257.5t240 104.5q102 0 190 -17zM369 382q-26 6 -46 6q-44 0 -77.5 -34.5t-49 -82t-15.5 -96.5q0 -55 29 -55q40 0 90 80t64 155zM572 667q-48 -97 -133 -97q-37 0 -70 24 t-47 24q-31 0 -55 -44l-69 54q51 97 133 97q37 0 70 -24t47 -24q32 0 56 44z" />
<glyph unicode="&#xe4;" horiz-adv-x="545" d="M540 491q-80 -419 -91 -491h-147q14 58 40 129h-2q-84 -141 -193 -141q-121 0 -121 158q0 153 84 257.5t240 104.5q102 0 190 -17zM369 382q-26 6 -46 6q-44 0 -77.5 -34.5t-49 -82t-15.5 -96.5q0 -55 29 -55q40 0 90 80t64 155zM569 647q0 -34 -24.5 -57.5t-57.5 -23.5 q-32 0 -54 22.5t-22 54.5q0 33 24.5 57t57.5 24q32 0 54 -23t22 -54zM360 647q0 -34 -24.5 -57.5t-57.5 -23.5q-32 0 -54 22.5t-22 54.5q0 33 24.5 57t57.5 24q32 0 54 -23t22 -54z" />
<glyph unicode="&#xe5;" horiz-adv-x="545" d="M540 491q-80 -419 -91 -491h-147q14 58 40 129h-2q-84 -141 -193 -141q-121 0 -121 158q0 153 84 257.5t240 104.5q102 0 190 -17zM369 382q-26 6 -46 6q-44 0 -77.5 -34.5t-49 -82t-15.5 -96.5q0 -55 29 -55q40 0 90 80t64 155zM537 676q0 -59 -42 -97t-100 -38 q-55 0 -92.5 35t-37.5 88q0 59 42 97.5t99 38.5q56 0 93.5 -35.5t37.5 -88.5zM451 673q0 19 -13.5 33.5t-34.5 14.5q-22 0 -37 -16t-15 -37q0 -20 13.5 -34.5t33.5 -14.5q22 0 37.5 15.5t15.5 38.5z" />
<glyph unicode="&#xe6;" horiz-adv-x="762" d="M756 381q0 -175 -307 -182q-2 -11 -2 -33q0 -33 17.5 -45.5t63.5 -12.5q72 0 148 30v-116q-94 -33 -195 -33q-128 0 -159 89q-29 -41 -75.5 -65t-96.5 -24q-72 0 -104.5 36t-32.5 88q0 181 306 186l4 22q3 11 3 20q0 19 -11 31q-16 18 -63 18q-74 0 -142 -32v123 q82 29 176 29q103 0 143 -52q28 21 71 36t83 15q94 0 133.5 -37t39.5 -91zM610 361q0 17 -12 27t-31 10q-37 0 -63.5 -30t-38.5 -72q145 3 145 65zM300 203q-71 -2 -107 -16.5t-36 -48.5t40 -34t69 29.5t34 69.5z" />
<glyph unicode="&#xe7;" horiz-adv-x="398" d="M420 497l-35 -132q-29 13 -67 13q-63 0 -97 -55t-34 -124q0 -76 77 -76q43 0 80 14l-12 -131q-51 -18 -113 -18q-191 0 -191 178q0 146 82 244t215 98q48 0 95 -11zM225 -39q19 -37 19 -72q0 -66 -68 -123h-116q43 43 53 77q2 9 2 20q0 27 -18 63z" />
<glyph unicode="&#xe8;" horiz-adv-x="491" d="M485 381q0 -92 -81 -138.5t-225 -50.5q-1 -8 -1 -26q0 -33 16.5 -45.5t63.5 -12.5q71 0 147 30l1 -116q-94 -33 -196 -33q-97 0 -139.5 44t-42.5 129q0 157 85 251.5t201 94.5q93 0 132 -36.5t39 -90.5zM339 361q0 35 -41 35q-38 0 -64.5 -30.5t-39.5 -75.5q145 3 145 71 zM440 636l-57 -83l-196 107l68 100z" />
<glyph unicode="&#xe9;" horiz-adv-x="491" d="M485 381q0 -92 -81 -138.5t-225 -50.5q-1 -8 -1 -26q0 -33 16.5 -45.5t63.5 -12.5q71 0 147 30l1 -116q-94 -33 -196 -33q-97 0 -139.5 44t-42.5 129q0 157 85 251.5t201 94.5q93 0 132 -36.5t39 -90.5zM339 361q0 35 -41 35q-38 0 -64.5 -30.5t-39.5 -75.5q145 3 145 71 zM495 657l-206 -104l-49 83l198 124z" />
<glyph unicode="&#xea;" horiz-adv-x="491" d="M485 381q0 -92 -81 -138.5t-225 -50.5q-1 -8 -1 -26q0 -33 16.5 -45.5t63.5 -12.5q71 0 147 30l1 -116q-94 -33 -196 -33q-97 0 -139.5 44t-42.5 129q0 157 85 251.5t201 94.5q93 0 132 -36.5t39 -90.5zM339 361q0 35 -41 35q-38 0 -64.5 -30.5t-39.5 -75.5q145 3 145 71 zM490 622l-64 -69l-89 79l-118 -79l-48 69l185 138z" />
<glyph unicode="&#xeb;" horiz-adv-x="491" d="M485 381q0 -92 -81 -138.5t-225 -50.5q-1 -8 -1 -26q0 -33 16.5 -45.5t63.5 -12.5q71 0 147 30l1 -116q-94 -33 -196 -33q-97 0 -139.5 44t-42.5 129q0 157 85 251.5t201 94.5q93 0 132 -36.5t39 -90.5zM339 361q0 35 -41 35q-38 0 -64.5 -30.5t-39.5 -75.5q145 3 145 71 zM525 647q0 -34 -24.5 -57.5t-57.5 -23.5q-32 0 -54 22.5t-22 54.5q0 33 24.5 57t57.5 24q32 0 54 -23t22 -54zM316 647q0 -34 -24.5 -57.5t-57.5 -23.5q-32 0 -54 22.5t-22 54.5q0 33 24.5 57t57.5 24q32 0 54 -23t22 -54z" />
<glyph unicode="&#xec;" horiz-adv-x="267" d="M262 497l-95 -497h-150l95 497h150zM325 636l-57 -83l-196 107l68 100z" />
<glyph unicode="&#xed;" horiz-adv-x="267" d="M262 497l-95 -497h-150l95 497h150zM331 657l-206 -104l-49 83l198 124z" />
<glyph unicode="&#xee;" horiz-adv-x="267" d="M262 497l-95 -497h-150l95 497h150zM368 622l-64 -69l-89 79l-118 -79l-48 69l185 138z" />
<glyph unicode="&#xef;" horiz-adv-x="267" d="M262 497l-95 -497h-150l95 497h150zM400 647q0 -34 -24.5 -57.5t-57.5 -23.5q-32 0 -54 22.5t-22 54.5q0 33 24.5 57t57.5 24q32 0 54 -23t22 -54zM191 647q0 -34 -24.5 -57.5t-57.5 -23.5q-32 0 -54 22.5t-22 54.5q0 33 24.5 57t57.5 24q32 0 54 -23t22 -54z" />
<glyph unicode="&#xf0;" horiz-adv-x="549" d="M555 668l-85 -36q68 -108 68 -245q0 -98 -26.5 -176.5t-70.5 -125.5t-96.5 -71.5t-108.5 -24.5q-208 0 -208 186q0 144 86.5 237t202.5 93q48 0 65 -21q-7 17 -15 34q-15 33 -32 58l-96 -40l-45 71l83 35q-19 19 -57 49l146 63q31 -30 52 -53l92 38zM376 305 q0 33 -16.5 53t-47.5 20q-57 0 -92 -51t-35 -123q0 -41 17 -62t48 -21q35 0 61.5 21t39.5 52t19 59.5t6 51.5z" />
<glyph unicode="&#xf1;" horiz-adv-x="556" d="M523 346l-66 -346h-149l59 308q3 18 3 32q0 37 -24 37q-38 0 -88 -79t-66 -162l-25 -136h-150l50 260q27 138 42 237h145q-10 -54 -38 -127h2q81 139 196 139q71 0 97 -45q17 -28 17 -70q0 -22 -5 -48zM530 667q-48 -97 -133 -97q-37 0 -70 24t-47 24q-31 0 -55 -44 l-69 54q51 97 133 97q37 0 70 -24t47 -24q32 0 56 44z" />
<glyph unicode="&#xf2;" horiz-adv-x="549" d="M535 325q0 -148 -90.5 -242t-215.5 -94q-107 0 -154.5 46t-47.5 134q0 154 91 246.5t216 92.5q201 0 201 -183zM377 306q0 71 -67 71q-57 0 -91.5 -58.5t-34.5 -126.5q0 -71 64 -71q58 0 93.5 56.5t35.5 128.5zM444 636l-57 -83l-196 107l68 100z" />
<glyph unicode="&#xf3;" horiz-adv-x="549" d="M535 325q0 -148 -90.5 -242t-215.5 -94q-107 0 -154.5 46t-47.5 134q0 154 91 246.5t216 92.5q201 0 201 -183zM377 306q0 71 -67 71q-57 0 -91.5 -58.5t-34.5 -126.5q0 -71 64 -71q58 0 93.5 56.5t35.5 128.5zM522 657l-206 -104l-49 83l198 124z" />
<glyph unicode="&#xf4;" horiz-adv-x="549" d="M535 325q0 -148 -90.5 -242t-215.5 -94q-107 0 -154.5 46t-47.5 134q0 154 91 246.5t216 92.5q201 0 201 -183zM377 306q0 71 -67 71q-57 0 -91.5 -58.5t-34.5 -126.5q0 -71 64 -71q58 0 93.5 56.5t35.5 128.5zM520 622l-64 -69l-89 79l-118 -79l-48 69l185 138z" />
<glyph unicode="&#xf5;" horiz-adv-x="549" d="M535 325q0 -148 -90.5 -242t-215.5 -94q-107 0 -154.5 46t-47.5 134q0 154 91 246.5t216 92.5q201 0 201 -183zM377 306q0 71 -67 71q-57 0 -91.5 -58.5t-34.5 -126.5q0 -71 64 -71q58 0 93.5 56.5t35.5 128.5zM552 667q-48 -97 -133 -97q-37 0 -70 24t-47 24 q-31 0 -55 -44l-69 54q51 97 133 97q37 0 70 -24t47 -24q32 0 56 44z" />
<glyph unicode="&#xf6;" horiz-adv-x="549" d="M535 325q0 -148 -90.5 -242t-215.5 -94q-107 0 -154.5 46t-47.5 134q0 154 91 246.5t216 92.5q201 0 201 -183zM377 306q0 71 -67 71q-57 0 -91.5 -58.5t-34.5 -126.5q0 -71 64 -71q58 0 93.5 56.5t35.5 128.5zM546 647q0 -34 -24.5 -57.5t-57.5 -23.5q-32 0 -54 22.5 t-22 54.5q0 33 24.5 57t57.5 24q32 0 54 -23t22 -54zM337 647q0 -34 -24.5 -57.5t-57.5 -23.5q-32 0 -54 22.5t-22 54.5q0 33 24.5 57t57.5 24q32 0 54 -23t22 -54z" />
<glyph unicode="&#xf7;" d="M417 502q0 -39 -27.5 -66.5t-64.5 -27.5t-62 25.5t-25 60.5q0 40 27.5 67t65.5 27q36 0 61 -25.5t25 -60.5zM540 362l-25 -128h-475l24 128h476zM341 101q0 -39 -28 -66.5t-65 -27.5q-36 0 -61.5 26t-25.5 60q0 40 27.5 67t65.5 27q36 0 61.5 -25.5t25.5 -60.5z" />
<glyph unicode="&#xf8;" horiz-adv-x="549" d="M535 325q0 -148 -90.5 -242t-214.5 -94q-29 0 -48 4l-58 -101l-78 37l51 90q-70 41 -70 150q0 148 85.5 243.5t220.5 95.5q23 0 42 -3l60 106l77 -36l-54 -95q77 -43 77 -155zM391 305q0 24 -13 41l-132 -233q6 -1 11 -1q8 0 16 2q56 10 87 69.5t31 121.5zM310 385h-6 q-8 0 -19 -1q-48 -8 -81.5 -61.5t-33.5 -122.5q0 -26 10 -42z" />
<glyph unicode="&#xf9;" horiz-adv-x="555" d="M552 497l-50 -260q-27 -138 -42 -237h-146q14 66 38 127h-2q-81 -139 -196 -139q-70 0 -96 44q-17 29 -17 71q0 22 5 48l65 346h150l-59 -308q-4 -20 -4 -34q0 -35 25 -35q37 0 87 79t66 162l26 136h150zM427 636l-57 -83l-196 107l68 100z" />
<glyph unicode="&#xfa;" horiz-adv-x="555" d="M552 497l-50 -260q-27 -138 -42 -237h-146q14 66 38 127h-2q-81 -139 -196 -139q-70 0 -96 44q-17 29 -17 71q0 22 5 48l65 346h150l-59 -308q-4 -20 -4 -34q0 -35 25 -35q37 0 87 79t66 162l26 136h150zM538 657l-206 -104l-49 83l198 124z" />
<glyph unicode="&#xfb;" horiz-adv-x="555" d="M552 497l-50 -260q-27 -138 -42 -237h-146q14 66 38 127h-2q-81 -139 -196 -139q-70 0 -96 44q-17 29 -17 71q0 22 5 48l65 346h150l-59 -308q-4 -20 -4 -34q0 -35 25 -35q37 0 87 79t66 162l26 136h150zM508 622l-64 -69l-89 79l-118 -79l-48 69l185 138z" />
<glyph unicode="&#xfc;" horiz-adv-x="555" d="M552 497l-50 -260q-27 -138 -42 -237h-146q14 66 38 127h-2q-81 -139 -196 -139q-70 0 -96 44q-17 29 -17 71q0 22 5 48l65 346h150l-59 -308q-4 -20 -4 -34q0 -35 25 -35q37 0 87 79t66 162l26 136h150zM532 647q0 -34 -24.5 -57.5t-57.5 -23.5q-32 0 -54 22.5t-22 54.5 q0 33 24.5 57t57.5 24q32 0 54 -23t22 -54zM323 647q0 -34 -24.5 -57.5t-57.5 -23.5q-32 0 -54 22.5t-22 54.5q0 33 24.5 57t57.5 24q32 0 54 -23t22 -54z" />
<glyph unicode="&#xfd;" horiz-adv-x="529" d="M567 479q-109 -252 -195.5 -396.5t-174.5 -232.5q-96 -95 -200 -95q-43 0 -77 8l24 129q29 -10 60 -10q49 0 82 30q39 36 39 108q0 192 -80 477h167q46 -177 46 -332q0 -15 -3 -29h2q85 163 168 382zM508 657l-206 -104l-49 83l198 124z" />
<glyph unicode="&#xfe;" horiz-adv-x="545" d="M532 351q0 -153 -84 -257t-240 -104q-25 0 -43 3l-43 -230h-150l184 967h152l-27 -142q-22 -115 -62 -214h2q81 135 192 135q119 0 119 -158zM377 322q0 55 -29 55q-40 0 -90 -79.5t-64 -154.5l-5 -26q21 -8 46 -8q44 0 77.5 34.5t49 82t15.5 96.5z" />
<glyph unicode="&#xff;" horiz-adv-x="529" d="M567 479q-109 -252 -195.5 -396.5t-174.5 -232.5q-96 -95 -200 -95q-43 0 -77 8l24 129q29 -10 60 -10q49 0 82 30q39 36 39 108q0 192 -80 477h167q46 -177 46 -332q0 -15 -3 -29h2q85 163 168 382zM514 647q0 -34 -24.5 -57.5t-57.5 -23.5q-32 0 -54 22.5t-22 54.5 q0 33 24.5 57t57.5 24q32 0 54 -23t22 -54zM305 647q0 -34 -24.5 -57.5t-57.5 -23.5q-32 0 -54 22.5t-22 54.5q0 33 24.5 57t57.5 24q32 0 54 -23t22 -54z" />
<glyph unicode="&#x131;" horiz-adv-x="267" d="M262 497l-95 -497h-150l95 497h150z" />
<glyph unicode="&#x152;" horiz-adv-x="841" d="M882 675l-25 -131h-219l-26 -134h209l-25 -127h-208l-28 -149h219l-26 -134h-355q-63 -13 -103 -13q-128 0 -191.5 65.5t-63.5 182.5q0 120 52 224t144.5 166.5t203.5 62.5q53 0 103 -13h339zM483 533q-34 13 -68 13q-94 0 -152.5 -86t-58.5 -198q0 -132 114 -132 q44 0 92 17z" />
<glyph unicode="&#x153;" horiz-adv-x="823" d="M818 381q0 -92 -81.5 -138.5t-224.5 -50.5q0 -4 -0.5 -13.5t-0.5 -12.5q0 -33 16.5 -45.5t63.5 -12.5q71 0 147 30l1 -116q-94 -33 -195 -33q-112 0 -145 64q-70 -64 -169 -64q-107 0 -155 46t-48 134q0 154 91 246.5t215 92.5q109 0 155 -62q67 62 159 62 q94 0 132.5 -36.5t38.5 -90.5zM672 361q0 35 -41 35q-38 0 -64 -30.5t-40 -75.5q145 3 145 71zM377 306q0 71 -67 71q-57 0 -91.5 -58.5t-34.5 -126.5q0 -71 64 -71q58 0 93.5 56.5t35.5 128.5z" />
<glyph unicode="&#x178;" horiz-adv-x="566" d="M655 675l-294 -439l-45 -236h-152l45 235l-124 440h161l43 -172q14 -57 22 -108h2q13 26 74 122l100 158h168zM556 794q0 -31 -20.5 -52t-49.5 -21q-28 0 -47 19.5t-19 46.5q0 30 21 51t49 21t47 -19.5t19 -45.5zM342 794q0 -31 -20.5 -52t-49.5 -21q-27 0 -46 19.5 t-19 46.5q0 30 20.5 51t49.5 21q28 0 46.5 -19.5t18.5 -45.5z" />
<glyph unicode="&#x2c6;" horiz-adv-x="413" d="M436 622l-64 -69l-89 79l-118 -79l-48 69l185 138z" />
<glyph unicode="&#x2da;" horiz-adv-x="347" d="M392 646q0 -59 -42 -97t-100 -38q-55 0 -92.5 35t-37.5 88q0 59 42 97.5t99 38.5q56 0 93.5 -35.5t37.5 -88.5zM306 643q0 19 -13.5 33.5t-34.5 14.5q-22 0 -37 -16t-15 -37q0 -20 13.5 -34.5t33.5 -14.5q22 0 37.5 15.5t15.5 38.5z" />
<glyph unicode="&#x2dc;" horiz-adv-x="439" d="M481 667q-48 -97 -133 -97q-37 0 -70 24t-47 24q-31 0 -55 -44l-69 54q51 97 133 97q37 0 70 -24t47 -24q32 0 56 44z" />
<glyph unicode="&#x3bc;" horiz-adv-x="625" d="M591 57q-60 -68 -148 -68q-47 0 -68.5 18.5t-21.5 58.5q0 18 7 43h-1q-27 -52 -70 -84.5t-87 -32.5q-26 0 -40 16l-24 -245h-158l140 734h149l-58 -308q-4 -19 -4 -33q0 -36 26 -36q39 0 85.5 66t62.5 151l30 160h149l-61 -324q-6 -29 -6 -44.5t4 -20.5t13 -5q20 0 41 24 z" />
<glyph unicode="&#x2000;" horiz-adv-x="434" />
<glyph unicode="&#x2001;" horiz-adv-x="869" />
<glyph unicode="&#x2002;" horiz-adv-x="434" />
<glyph unicode="&#x2003;" horiz-adv-x="869" />
<glyph unicode="&#x2004;" horiz-adv-x="289" />
<glyph unicode="&#x2005;" horiz-adv-x="217" />
<glyph unicode="&#x2006;" horiz-adv-x="144" />
<glyph unicode="&#x2007;" horiz-adv-x="144" />
<glyph unicode="&#x2008;" horiz-adv-x="108" />
<glyph unicode="&#x2009;" horiz-adv-x="173" />
<glyph unicode="&#x200a;" horiz-adv-x="48" />
<glyph unicode="&#x2010;" horiz-adv-x="331" d="M312 332l-24 -122h-248l24 122h248z" />
<glyph unicode="&#x2011;" horiz-adv-x="331" d="M312 332l-24 -122h-248l24 122h248z" />
<glyph unicode="&#x2013;" d="M578 365l-26 -134h-550l26 134h550z" />
<glyph unicode="&#x2014;" horiz-adv-x="1000" d="M922 365l-25 -134h-789l25 134h789z" />
<glyph unicode="&#x2018;" horiz-adv-x="276" d="M332 693q-61 -51 -76 -87q-5 -14 -5 -27q0 -21 15 -41q15 -21 15 -45q0 -21 -12 -45q-25 -50 -82 -50q-54 0 -79 48q-14 27 -14 57q0 46 31 100q46 79 153 153z" />
<glyph unicode="&#x2019;" horiz-adv-x="276" d="M221 744q53 0 79 -49q14 -26 14 -56q0 -45 -32 -99q-46 -80 -153 -153l-54 62q61 51 75 87q6 14 6 27q0 21 -14 41q-15 21 -15 45q0 21 12 45q25 50 82 50z" />
<glyph unicode="&#x201a;" horiz-adv-x="276" d="M114 172q54 0 79 -49q14 -26 14 -56q0 -45 -31 -99q-46 -80 -153 -153l-54 63q61 50 75 86q6 15 6 28q0 21 -14 41q-14 25 -14 51v8q3 31 29 55.5t63 24.5z" />
<glyph unicode="&#x201c;" horiz-adv-x="509" d="M574 696q-61 -51 -76 -87q-5 -14 -5 -27q0 -21 15 -41q15 -22 15 -46q0 -21 -12 -44q-25 -49 -82 -49q-54 0 -79 48q-14 26 -14 56q0 46 32 101q46 79 152 152zM332 696q-61 -51 -76 -87q-5 -14 -5 -27q0 -21 15 -41q15 -22 15 -46q0 -21 -12 -44q-25 -49 -82 -49 q-54 0 -79 48q-14 26 -14 56q0 46 32 101q46 79 152 152z" />
<glyph unicode="&#x201d;" horiz-adv-x="509" d="M462 750q54 0 80 -49q13 -26 13 -55q0 -46 -31 -100q-46 -80 -153 -153l-54 62q61 51 75 87q6 15 6 28q0 21 -14 41q-13 24 -13 50v9q3 31 28.5 55.5t62.5 24.5zM221 750q53 0 79 -49q14 -26 14 -56q0 -45 -32 -99q-46 -80 -153 -153l-54 62q61 51 75 87q6 15 6 28 q0 21 -14 41q-15 21 -15 45q0 21 12 44q25 50 82 50z" />
<glyph unicode="&#x201e;" horiz-adv-x="509" d="M356 172q54 0 80 -49q13 -26 13 -55q0 -46 -31 -100q-46 -80 -153 -153l-54 63q61 50 75 86q6 15 6 28q0 21 -14 41q-13 24 -13 50v9q3 31 28.5 55.5t62.5 24.5zM114 172q54 0 79 -49q14 -26 14 -56q0 -45 -31 -99q-46 -80 -153 -153l-54 63q61 50 75 86q6 15 6 28 q0 21 -14 41q-14 25 -14 51v8q3 31 29 55.5t63 24.5z" />
<glyph unicode="&#x2022;" horiz-adv-x="424" d="M392 300q0 -69 -49.5 -119t-117.5 -50q-69 0 -116 47.5t-47 115.5q0 69 49 119t118 50t116 -47.5t47 -115.5z" />
<glyph unicode="&#x2026;" horiz-adv-x="747" d="M677 81q0 -39 -27 -66t-64 -27q-36 0 -61 25.5t-25 61.5q0 39 27 65.5t64 26.5q36 0 61 -25.5t25 -60.5zM436 81q0 -39 -27 -66t-64 -27q-36 0 -60.5 25.5t-24.5 61.5q0 39 26.5 65.5t63.5 26.5q36 0 61 -25.5t25 -60.5zM195 81q0 -39 -26.5 -66t-63.5 -27 q-36 0 -61 25.5t-25 61.5q0 39 26.5 65.5t63.5 26.5q36 0 61 -25.5t25 -60.5z" />
<glyph unicode="&#x202f;" horiz-adv-x="173" />
<glyph unicode="&#x2039;" horiz-adv-x="306" d="M301 440l-112 -148l58 -150l-124 -51l-77 208l145 196z" />
<glyph unicode="&#x203a;" horiz-adv-x="306" d="M290 287l-145 -196l-109 55l111 148l-58 149l125 52z" />
<glyph unicode="&#x205f;" horiz-adv-x="217" />
<glyph unicode="&#x20ac;" d="M598 637l-51 -121q-45 26 -107 26q-92 0 -142 -93h145l-17 -92h-166q-7 -24 -13 -63h167l-17 -92h-154q4 -48 29.5 -70.5t78.5 -22.5q57 0 120 26l19 -116q-79 -32 -175 -32q-229 0 -230 215h-77l17 92h67q7 42 13 63h-68l18 92h80q95 214 328 214q66 0 135 -26z" />
<glyph unicode="&#x2122;" horiz-adv-x="669" d="M685 675l-6 -281h-109l5 104l3 43l-14 -41l-45 -106h-93l-5 109l1 38l-9 -36l-35 -111h-98l97 281h122l7 -102v-38l12 36l45 104h122zM331 675l-17 -92h-59l-37 -189h-103l36 189h-63l18 92h225z" />
</font>
</defs>
</svg>
