<?xml version="1.0" standalone="no"?>
<!DOCTYPE svg PUBLIC "-//W3C//DTD SVG 1.1//EN" "http://www.w3.org/Graphics/SVG/1.1/DTD/svg11.dtd" >
<svg xmlns="http://www.w3.org/2000/svg">
<metadata>
This is a custom SVG webfont generated by Font Squirrel.
</metadata>
<defs>
<font id="webfonthURW4EAE" horiz-adv-x="550" >
<font-face units-per-em="1000" ascent="800" descent="-200" />
<missing-glyph horiz-adv-x="218" />
<glyph unicode=" "  horiz-adv-x="218" />
<glyph unicode="&#x09;" horiz-adv-x="218" />
<glyph unicode="&#xa0;" horiz-adv-x="218" />
<glyph unicode="!" horiz-adv-x="318" d="M368 715l-120 -499h-157l68 499h209zM247 93q0 -46 -33 -76.5t-78 -30.5q-43 0 -70 27t-27 64q0 48 32.5 78.5t78.5 30.5q43 0 70 -27.5t27 -65.5z" />
<glyph unicode="&#x22;" horiz-adv-x="452" d="M515 707l-74 -290h-134l35 290h173zM300 707l-75 -290h-134l35 290h174z" />
<glyph unicode="#" d="M585 497l-24 -126h-73l-26 -90h60l-24 -126h-73l-46 -155h-129l46 155h-97l-46 -155h-129l46 155h-60l24 126h73l26 90h-60l24 126h73l45 153h129l-45 -153h97l45 153h129l-45 -153h60zM359 371h-97l-26 -90h97z" />
<glyph unicode="$" d="M506 637l-30 -154q-57 18 -111 18q-33 0 -51.5 -11t-18.5 -29q0 -14 15 -25.5t37 -19.5t48 -21.5t48 -30t37 -47.5t15 -71q0 -85 -58.5 -145.5t-144.5 -79.5l-20 -106h-125l19 99q-55 0 -108 10l31 160q63 -20 124 -20q38 0 61 11t23 32q0 20 -20.5 33.5t-49.5 25 t-57.5 28.5t-49 52t-20.5 86q0 74 53.5 133t135.5 75l17 90h127l-16 -82q48 -4 89 -11z" />
<glyph unicode="%" horiz-adv-x="760" d="M404 538q0 -95 -58.5 -148.5t-129.5 -53.5q-67 0 -102 33t-35 95q0 92 58.5 146t127.5 54q65 0 102 -32t37 -94zM754 586l-614 -611l-94 87l614 611zM725 188q0 -95 -58.5 -148.5t-129.5 -53.5q-67 0 -102 33t-35 95q0 92 58.5 146t127.5 54q65 0 102 -32t37 -94z M277 527q0 28 -21 28q-22 0 -36 -27t-14 -55t21 -28q22 0 36 25.5t14 56.5zM598 177q0 28 -21 28q-22 0 -36 -27t-14 -55t21 -28q22 0 36 25.5t14 56.5z" />
<glyph unicode="&#x26;" horiz-adv-x="784" d="M779 474q-19 -154 -142 -298q38 -32 108 -81l-124 -123q-59 38 -121 87q-121 -73 -254 -73q-109 0 -163 50.5t-54 134.5q0 113 154 225q-19 29 -35 69.5t-16 74.5q0 78 68.5 139.5t170.5 61.5q99 0 147 -39t48 -108q0 -104 -151 -215q38 -43 96 -97q71 89 92 192h176z M387 572q0 34 -33 34q-16 0 -30 -14.5t-14 -36.5q0 -26 19 -60q58 46 58 77zM374 167q-72 70 -103 109q-52 -43 -52 -75q0 -26 16.5 -42t47.5 -16q43 0 91 24z" />
<glyph unicode="'" horiz-adv-x="236" d="M300 707l-75 -290h-134l35 290h174z" />
<glyph unicode="(" horiz-adv-x="304" d="M409 733q-95 -126 -153 -297.5t-58 -302.5q0 -162 42 -297l-145 -59q-72 164 -72 350q0 158 65 333t195 333z" />
<glyph unicode=")" horiz-adv-x="304" d="M310 443q0 -158 -65 -333t-195 -333l-126 60q95 126 153 297.5t58 302.5q0 162 -42 297l145 59q72 -164 72 -350z" />
<glyph unicode="*" horiz-adv-x="392" d="M450 569l-105 -20l90 -43l-85 -100l-60 80l-1 -105l-123 15l45 99l-91 -60l-37 113l105 20l-91 44l86 100l60 -80v105l122 -15l-44 -99l91 61z" />
<glyph unicode="+" d="M546 374l-29 -152h-153l-31 -166h-174l31 166h-153l29 152h153l31 164h174l-31 -164h153z" />
<glyph unicode="," horiz-adv-x="294" d="M129 200q60 0 91 -52q18 -31 18 -68q0 -44 -26 -96q-48 -96 -178 -184l-64 74q65 53 79 89q5 12 5 25q0 23 -18 47q-16 24 -16 54q0 28 12 52q12 25 38 42t59 17z" />
<glyph unicode="-" horiz-adv-x="333" d="M319 336l-28 -145h-255l28 145h255z" />
<glyph unicode="." horiz-adv-x="300" d="M238 100q0 -47 -34 -80.5t-80 -33.5q-44 0 -75 31.5t-31 74.5q0 47 34 80.5t80 33.5q44 0 75 -31.5t31 -74.5z" />
<glyph unicode="/" horiz-adv-x="490" d="M604 757l-521 -918h-185l523 918h183z" />
<glyph unicode="0" d="M566 451q0 -66 -11 -129.5t-36 -125t-61.5 -107.5t-93 -74.5t-124.5 -28.5q-105 0 -158.5 47t-53.5 166q0 83 18.5 162t55.5 148.5t103 112t152 42.5q103 0 156 -48.5t53 -164.5zM375 447q0 36 -8.5 49t-32.5 13q-37 0 -65 -66t-39 -132.5t-11 -104.5q0 -37 8.5 -49.5 t32.5 -12.5q37 0 65 66t39 132.5t11 104.5z" />
<glyph unicode="1" d="M508 164l-31 -164h-464l31 164h148l55 291l-130 -46v175l215 66h142l-93 -486h127z" />
<glyph unicode="2" d="M534 492q0 -72 -44 -138t-171 -162l-21 -16v-2q75 3 150 3h51l-34 -177h-465l30 153l43 34q153 121 200 172t47 90q0 43 -66 43q-67 0 -133 -37v168q91 40 204 40q105 0 157 -47t52 -124z" />
<glyph unicode="3" d="M539 510q0 -50 -31.5 -92.5t-93.5 -59.5l-2 -3q43 -10 66.5 -42t23.5 -78q0 -31 -10.5 -63t-37 -66t-66.5 -60.5t-104 -43t-144 -16.5q-81 0 -130 14l44 154q44 -17 110 -17q64 0 100.5 20.5t36.5 53.5q0 47 -93 47q-67 0 -119 -7l26 138h39q50 0 90.5 7.5t68 27 t27.5 48.5q0 40 -75 40q-67 0 -135 -28v150q88 30 188 30q221 0 221 -154z" />
<glyph unicode="4" d="M549 650l-69 -359h66l-31 -163h-66l-24 -128h-179l24 128h-257l12 158l273 364h251zM339 467h-1l-129 -177q22 1 96 1z" />
<glyph unicode="5" d="M561 650l-33 -170h-231l-12 -66h14q109 0 160.5 -44t51.5 -115q0 -84 -50 -146.5t-126.5 -92t-167.5 -29.5q-88 0 -139 11l32 163q64 -18 120 -18t90 20.5t34 59.5q0 25 -27.5 37t-92.5 12q-60 0 -103 -8l74 386h406z" />
<glyph unicode="6" d="M558 654l-28 -155q-50 10 -95 10q-108 0 -166 -78q-14 -19 -24 -39h1q49 29 113 29q84 0 130 -43t46 -118q0 -122 -82.5 -198t-212.5 -76q-213 0 -213 207q0 127 48.5 232t146.5 170.5t228 65.5q66 0 108 -7zM347 223q0 50 -53 50q-39 0 -62.5 -22.5t-23.5 -61.5 q0 -25 14 -40t41 -15q36 0 60 26t24 63z" />
<glyph unicode="7" d="M589 650l-30 -157q-140 -202 -269 -493h-215q53 118 130 256.5t131 217.5q-108 -3 -161 -3h-83l34 179h463z" />
<glyph unicode="8" d="M571 515q0 -109 -110 -174q67 -48 67 -120q0 -70 -43 -125t-108 -82.5t-138 -27.5q-112 0 -169.5 40.5t-57.5 114.5q0 39 11 70.5t32 53.5t38.5 35t41.5 27q-53 44 -53 110q0 95 80.5 161t192.5 66q104 0 160 -40t56 -109zM384 490q0 34 -48 34q-33 0 -50.5 -15.5 t-17.5 -42.5q0 -29 49 -52q67 34 67 76zM337 196q0 29 -60 56q-41 -21 -57.5 -39.5t-16.5 -41.5q0 -18 14.5 -29.5t42.5 -11.5q35 0 56 18.5t21 47.5z" />
<glyph unicode="9" d="M564 453q0 -64 -12.5 -126.5t-44 -124.5t-77.5 -108.5t-119.5 -75.5t-164.5 -29q-74 0 -117 8l31 159q42 -15 103 -15q55 0 104 28t69 65q2 4 10 22h-1q-45 -27 -106 -27q-82 0 -132 41t-50 121q0 111 80 192t212 81q215 0 215 -211zM380 466q0 50 -53 50 q-38 0 -61.5 -26.5t-23.5 -63.5q0 -49 55 -49q33 0 58 23.5t25 65.5z" />
<glyph unicode=":" horiz-adv-x="309" d="M303 371q0 -49 -34 -82.5t-80 -33.5q-44 0 -76 31.5t-32 72.5q0 49 34.5 82.5t80.5 33.5q44 0 75.5 -31.5t31.5 -72.5zM252 102q0 -49 -34 -82.5t-80 -33.5q-44 0 -76 31.5t-32 72.5q0 49 34.5 82.5t80.5 33.5q44 0 75.5 -31.5t31.5 -72.5z" />
<glyph unicode=";" horiz-adv-x="309" d="M303 371q0 -49 -34 -82.5t-80 -33.5q-44 0 -76 31.5t-32 72.5q0 49 34.5 82.5t80.5 33.5q44 0 75.5 -31.5t31.5 -72.5zM143 200q60 0 91 -52q18 -31 18 -68q0 -44 -26 -96q-48 -96 -178 -184l-64 74q65 53 79 89q5 12 5 25q0 23 -18 47q-16 24 -16 54q0 28 12 52 q12 25 38 42t59 17z" />
<glyph unicode="&#x3c;" d="M546 482l-243 -187l172 -192l-135 -116l-272 321l371 300z" />
<glyph unicode="=" d="M551 479l-27 -145h-450l27 145h450zM509 259l-27 -145h-450l27 145h450z" />
<glyph unicode="&#x3e;" d="M515 287l-371 -300l-107 126l243 187l-172 192l135 116z" />
<glyph unicode="?" horiz-adv-x="450" d="M483 535q0 -54 -22.5 -95.5t-54.5 -66.5l-63 -47q-31 -22 -51 -50q-16 -22 -16 -49q0 -5 1 -11h-175q-3 19 -3 36q0 30 9 55q16 40 44 64t57.5 43.5t51 40t21.5 42.5q0 35 -45 48.5t-127 16.5l53 165q161 -3 240.5 -56t79.5 -136zM273 93q0 -46 -33 -76.5t-78 -30.5 q-43 0 -70 27t-27 64q0 48 32.5 78.5t78.5 30.5q43 0 70 -27.5t27 -65.5z" />
<glyph unicode="@" horiz-adv-x="959" d="M905 464q0 -66 -18 -125t-53.5 -106.5t-93 -75t-130.5 -27.5q-45 0 -69.5 20t-24.5 58h-4q-58 -78 -136 -78q-42 0 -67.5 31t-25.5 92q0 51 14.5 100.5t45 95t86.5 74t129 28.5q72 0 120 -27l-49 -177q-10 -36 -10 -54q0 -4 1 -7q2 -16 22 -16q43 0 71.5 45.5t28.5 124.5 q0 69 -45 111.5t-143 42.5q-62 0 -114 -20.5t-87 -55t-60 -79t-36.5 -91.5t-11.5 -94q0 -91 54 -136.5t174 -45.5q85 0 186 33l14 -138q-120 -42 -239 -42q-177 0 -266 79.5t-89 222.5q0 97 35.5 189t98 164.5t158.5 116.5t208 44q158 0 242 -75.5t84 -201.5zM523 429 q-9 5 -22 5q-34 0 -58 -50t-24 -95q0 -22 13 -22q18 0 40.5 32t41.5 99z" />
<glyph unicode="A" horiz-adv-x="628" d="M601 0h-194l-14 110h-204l-54 -110h-185l344 675h209zM376 256l-12 109q-5 44 -7 95h-2q-17 -47 -41 -96l-53 -108h115z" />
<glyph unicode="B" horiz-adv-x="582" d="M599 534q0 -120 -109 -173v-1q32 -13 51 -46t19 -74q0 -102 -87.5 -172t-226.5 -70q-17 0 -95.5 1t-142.5 1l128 674q102 6 248 6q215 0 215 -146zM399 490q0 40 -61 40q-23 0 -47 -2l-22 -114q10 -1 30 -1q48 0 74 21t26 56zM364 229q0 47 -63 47q-47 0 -59 -1l-22 -123 q20 -2 41 -2q48 0 75.5 23.5t27.5 55.5z" />
<glyph unicode="C" horiz-adv-x="530" d="M581 662l-50 -170q-48 19 -95 19q-43 0 -77.5 -17.5t-55 -43.5t-33.5 -60t-18 -63.5t-5 -56.5q0 -54 25.5 -81.5t83.5 -27.5q52 0 112 21l-8 -171q-77 -20 -159 -20q-64 0 -112.5 16t-76.5 40.5t-45 58t-22.5 64t-5.5 63.5q0 84 26.5 162.5t75.5 143t129 103t178 38.5 q76 0 133 -18z" />
<glyph unicode="D" horiz-adv-x="638" d="M651 437q0 -118 -47.5 -217t-146 -162t-230.5 -63q-120 0 -219 6l128 672q104 6 235 6q280 0 280 -242zM451 420q0 52 -25 77t-83 25q-40 0 -54 -2l-69 -361q12 -3 34 -3q44 0 79.5 19.5t57 49t35.5 66.5t19.5 69t5.5 60z" />
<glyph unicode="E" horiz-adv-x="470" d="M523 675l-30 -158h-205l-18 -95h195l-30 -152h-194l-21 -109h205l-30 -161h-387l128 675h387z" />
<glyph unicode="F" horiz-adv-x="451" d="M514 675l-31 -160h-195l-20 -109h184l-30 -153h-184l-48 -253h-182l128 675h378z" />
<glyph unicode="G" horiz-adv-x="651" d="M688 660l-54 -175q-82 33 -167 33q-110 0 -168.5 -73t-58.5 -173q0 -114 124 -114q30 0 50 5l39 205h182l-64 -335q-107 -45 -239 -45q-148 0 -219 69t-71 190q0 122 54 221.5t155 158.5t230 59q111 0 207 -26z" />
<glyph unicode="H" horiz-adv-x="657" d="M699 675l-129 -675h-182l51 266h-198l-51 -266h-182l128 675h182l-47 -246h198l47 246h183z" />
<glyph unicode="I" horiz-adv-x="276" d="M318 675l-128 -675h-182l128 675h182z" />
<glyph unicode="J" horiz-adv-x="336" d="M380 675l-93 -488q-7 -38 -23 -71t-43 -63t-71 -47t-101 -17q-51 0 -89 8l30 156q22 -8 44 -8q64 0 76 66l88 464h182z" />
<glyph unicode="K" horiz-adv-x="603" d="M684 675l-256 -338l127 -337h-225l-81 308l-59 -308h-182l128 675h182l-54 -289l190 289h230z" />
<glyph unicode="L" horiz-adv-x="423" d="M404 166l-32 -166h-364l128 675h182l-97 -509h183z" />
<glyph unicode="M" horiz-adv-x="853" d="M827 675l-18 -675h-191l7 225q1 65 9 153h-2q-26 -72 -73 -177l-91 -201h-169l-17 183q-8 81 -8 148q0 25 1 47h-1q-30 -107 -51 -169l-68 -209h-187l238 675h202l25 -234q6 -56 6 -153h2q26 70 68 156l114 231h204z" />
<glyph unicode="N" horiz-adv-x="658" d="M701 675l-129 -675h-214l-67 227q-25 84 -39 152q-4 -42 -16 -107l-52 -272h-176l128 675h216l61 -197q32 -100 47 -175q6 64 20 140l44 232h177z" />
<glyph unicode="O" horiz-adv-x="687" d="M700 438q0 -194 -118 -323t-285 -129q-132 0 -196.5 65.5t-64.5 183.5q0 120 53 224t147 167t206 63q128 0 193 -65t65 -186zM507 416q0 46 -24 74.5t-71 28.5q-84 0 -132.5 -77t-48.5 -174q0 -111 94 -111q81 0 131.5 78t50.5 181z" />
<glyph unicode="P" horiz-adv-x="531" d="M572 494q0 -118 -88.5 -202.5t-224.5 -84.5q-17 0 -30 1l-39 -208h-182l128 675q103 5 209 5q103 0 165 -47t62 -139zM381 472q0 25 -15.5 41t-47.5 16q-19 0 -27 -1l-31 -165q6 -1 12 -1q48 0 78.5 33t30.5 77z" />
<glyph unicode="Q" horiz-adv-x="687" d="M700 438q0 -194 -118 -323t-285 -129q-132 0 -196.5 65.5t-64.5 183.5q0 186 116 320t288 134q128 0 194 -65t66 -186zM632 -67l-30 -158q-55 -9 -104 -9h-22q-57 3 -91.5 13t-85.5 15q-24 3 -50 3q-28 0 -57 -3l30 158q32 4 65 4q67 0 141 -16q66 -13 126 -13q40 0 78 6 zM507 416q0 46 -24 74.5t-71 28.5q-84 0 -132.5 -77t-48.5 -174q0 -111 94 -111q81 0 131.5 78t50.5 181z" />
<glyph unicode="R" horiz-adv-x="574" d="M590 516q0 -170 -166 -241q21 -48 32 -77l76 -198h-211l-77 246h-7l-47 -246h-182l128 675q79 5 223 5q231 0 231 -164zM394 478q0 49 -66 49q-26 0 -38 -2l-27 -145q14 -2 29 -2q46 0 74 30t28 70z" />
<glyph unicode="S" horiz-adv-x="470" d="M488 679l-32 -163q-52 18 -95 18q-88 0 -88 -55q0 -17 13 -31.5t33 -26t42.5 -28t42.5 -34.5t33 -49t13 -70q0 -106 -85 -180t-216 -74q-83 0 -138 16l32 174q55 -26 116 -26q90 0 90 56q0 19 -18 35.5t-44.5 31t-52.5 33.5t-44 52.5t-18 77.5q0 110 74.5 181.5 t216.5 71.5q62 0 125 -10z" />
<glyph unicode="T" horiz-adv-x="492" d="M569 675l-30 -160h-143l-98 -515h-182l98 515h-143l30 160h468z" />
<glyph unicode="U" horiz-adv-x="651" d="M693 675l-82 -427q-26 -132 -111 -197t-218 -65q-232 0 -232 198q0 37 8 81l78 410h182l-82 -430q-4 -18 -4 -34q0 -69 76 -69q57 0 85.5 29t40.5 91l79 413h180z" />
<glyph unicode="V" horiz-adv-x="631" d="M728 675l-343 -675h-214l-90 675h191l38 -338q6 -54 6 -120h2q22 55 58 130l161 328h191z" />
<glyph unicode="W" horiz-adv-x="931" d="M1010 675l-289 -675h-221l-7 253v15q0 66 8 157h-1q-24 -87 -56 -165l-108 -260h-207l-30 675h186l9 -276v-22q0 -57 -8 -125h1q32 99 52 144l122 279h184l16 -268q1 -27 1 -53q0 -48 -4 -96h1q28 84 57 157l104 260h190z" />
<glyph unicode="X" horiz-adv-x="658" d="M724 675l-253 -340l144 -335h-222l-66 204l-144 -204h-222l268 345l-125 330h203l65 -200l139 200h213z" />
<glyph unicode="Y" horiz-adv-x="585" d="M681 675l-294 -442l-44 -233h-182l44 232l-123 443h192l35 -146q12 -54 19 -103h2q12 22 71 118l81 131h199z" />
<glyph unicode="Z" horiz-adv-x="523" d="M565 675l-29 -154l-246 -322q-14 -18 -24 -28q10 1 110 1h98l-32 -172h-439l28 147l237 324q17 22 33 38q-11 -1 -84 -1h-111l31 167h428z" />
<glyph unicode="[" horiz-adv-x="329" d="M408 785l-29 -147h-79l-134 -703h79l-27 -148h-248l190 998h248z" />
<glyph unicode="\" horiz-adv-x="523" d="M454 -161h-165l-181 918h164z" />
<glyph unicode="]" horiz-adv-x="329" d="M391 785l-190 -998h-248l27 148h80l134 703h-79l28 147h248z" />
<glyph unicode="^" d="M527 392l-134 -64l-66 221l-148 -221l-109 62l213 285h134z" />
<glyph unicode="_" d="M493 -94l-28 -148h-550l28 148h550z" />
<glyph unicode="`" horiz-adv-x="372" d="M409 645l-64 -101l-224 103l75 121z" />
<glyph unicode="a" horiz-adv-x="548" d="M557 492q-77 -406 -90 -492h-174q13 51 31 94h-2q-72 -107 -175 -107q-125 0 -125 162q0 154 86 257t243 103q116 0 206 -17zM353 361q-17 5 -34 5q-48 0 -80 -59.5t-32 -122.5q0 -39 19 -39q28 0 69.5 66t53.5 129z" />
<glyph unicode="b" horiz-adv-x="548" d="M543 348q0 -154 -86 -257t-243 -103q-110 0 -205 22l137 720h179l-32 -168q-16 -82 -54 -162h2q74 110 177 110q125 0 125 -162zM358 313q0 39 -19 39q-28 0 -69.5 -66t-53.5 -129l-4 -21q17 -5 34 -5q48 0 80 59.5t32 122.5z" />
<glyph unicode="c" horiz-adv-x="392" d="M417 501l-42 -158q-24 10 -56 10q-51 0 -78 -43.5t-27 -99.5q0 -62 64 -62q37 0 67 10l-19 -158q-46 -14 -103 -14q-198 0 -198 184q0 147 83.5 243.5t218.5 96.5q45 0 90 -9z" />
<glyph unicode="d" horiz-adv-x="548" d="M602 730l-105 -551q-12 -65 -30 -179h-173q8 42 30 94h-2q-72 -107 -175 -107q-125 0 -125 162q0 154 86 257t243 103q14 0 30 -2l42 223h179zM353 361q-17 5 -34 5q-48 0 -80 -59.5t-32 -122.5q0 -39 19 -39q28 0 69.5 66t53.5 129z" />
<glyph unicode="e" horiz-adv-x="498" d="M499 375q0 -97 -81.5 -145t-216.5 -50v-12q0 -21 14 -30t53 -9q72 0 151 30v-137q-100 -34 -206 -34q-103 0 -146 46.5t-43 132.5q0 82 26 149t68.5 108t93.5 63t104 22q102 0 142.5 -39t40.5 -95zM326 351q0 25 -29 25q-54 0 -80 -84q109 2 109 59z" />
<glyph unicode="f" horiz-adv-x="358" d="M461 733l-39 -147q-23 7 -44 7q-29 0 -41.5 -13t-19.5 -52l-6 -31h82l-27 -140h-83l-68 -364q-22 -116 -84 -174.5t-159 -58.5q-46 0 -88 9l41 148q22 -6 42 -6q28 0 43.5 17t25.5 69l68 360h-62l28 140h62l7 40q17 101 74 152.5t170 51.5q46 0 78 -8z" />
<glyph unicode="g" horiz-adv-x="544" d="M557 492l-97 -502q-23 -122 -103 -177.5t-231 -55.5q-89 0 -159 24l43 162q60 -33 141 -33q119 0 136 87q8 37 37 97h-2q-72 -107 -175 -107q-125 0 -125 162q0 154 86 257t243 103q116 0 206 -17zM353 361q-17 5 -34 5q-48 0 -80 -59.5t-32 -122.5q0 -39 19 -39 q28 0 69.5 66t53.5 129z" />
<glyph unicode="h" horiz-adv-x="553" d="M534 349l-66 -349h-179l58 303q3 16 3 26q0 23 -13 23q-25 0 -67 -65t-56 -139l-28 -148h-179l139 730h179l-33 -176q-14 -74 -51 -151h2q74 107 180 107q72 0 99 -45q17 -29 17 -70q0 -21 -5 -46z" />
<glyph unicode="i" horiz-adv-x="273" d="M327 649q0 -49 -35 -81.5t-81 -32.5q-44 0 -73 29t-29 69q0 48 35 80t81 32q44 0 73 -29t29 -67zM281 497l-95 -497h-179l95 497h179z" />
<glyph unicode="j" horiz-adv-x="275" d="M329 649q0 -49 -35 -81.5t-81 -32.5q-44 0 -73 29t-29 69q0 48 35 80t81 32q44 0 73 -29t29 -67zM286 497l-98 -509q-44 -228 -263 -228q-36 0 -71 10l38 153q23 -10 48 -10q28 0 44.5 19t25.5 63l97 502h179z" />
<glyph unicode="k" horiz-adv-x="544" d="M581 446l-179 -183l108 -263h-215l-65 230l-44 -230h-179l139 730h179l-81 -424l191 227z" />
<glyph unicode="l" horiz-adv-x="271" d="M325 730l-139 -730h-179l139 730h179z" />
<glyph unicode="m" horiz-adv-x="835" d="M816 349l-67 -349h-179l58 303q3 16 3 26q0 23 -13 23q-25 0 -67 -65t-56 -139l-28 -148h-178l58 303q3 16 3 26q0 23 -13 23q-25 0 -67 -65t-56 -139l-28 -148h-179l50 260q25 135 41 237h173q-9 -47 -30 -94h2q75 107 178 107q45 0 74 -24.5t29 -73.5q0 -8 -1 -15h1 q73 113 181 113q72 0 99 -45q17 -29 17 -70q0 -21 -5 -46z" />
<glyph unicode="n" horiz-adv-x="553" d="M534 349l-66 -349h-179l58 303q3 16 3 26q0 23 -13 23q-25 0 -67 -65t-56 -139l-28 -148h-179l50 260q25 135 41 237h173q-10 -51 -30 -94h2q74 107 180 107q72 0 99 -45q17 -29 17 -70q0 -21 -5 -46z" />
<glyph unicode="o" horiz-adv-x="553" d="M547 324q0 -148 -93 -242t-220 -94q-114 0 -162.5 46.5t-48.5 134.5q0 106 47 185.5t117 117t151 37.5q209 0 209 -185zM359 300q0 26 -11 38.5t-38 12.5q-47 0 -73.5 -50t-26.5 -105q0 -49 45 -49q51 0 77.5 48.5t26.5 104.5z" />
<glyph unicode="p" horiz-adv-x="548" d="M543 348q0 -154 -86 -257t-243 -103q-14 0 -30 2l-42 -223h-179l94 493q25 135 41 237h174q-13 -51 -31 -94h2q72 107 175 107q125 0 125 -162zM358 313q0 39 -19 39q-28 0 -69.5 -66t-53.5 -129l-4 -21q17 -5 34 -5q48 0 80 59.5t32 122.5z" />
<glyph unicode="q" horiz-adv-x="548" d="M557 491l-138 -724h-179l32 170q15 84 52 157h-2q-72 -107 -175 -107q-125 0 -125 162q0 154 86 257t243 103q110 0 206 -18zM353 361q-17 5 -34 5q-48 0 -80 -59.5t-32 -122.5q0 -39 19 -39q28 0 69.5 66t53.5 129z" />
<glyph unicode="r" horiz-adv-x="353" d="M407 509l-40 -175q-13 4 -28 4h-3q-17 -1 -35.5 -17t-35 -41.5t-32.5 -71.5t-28 -107l-19 -101h-179l50 260q25 135 41 237h171q-9 -49 -30 -101h2q37 64 75 92q31 22 71 22q10 0 20 -1z" />
<glyph unicode="s" horiz-adv-x="371" d="M372 503l-33 -135q-29 8 -55 8q-46 0 -46 -25q0 -11 15.5 -29t34 -36t34 -49.5t15.5 -67.5q0 -72 -62.5 -126.5t-183.5 -54.5q-51 0 -90 11l31 147q34 -16 70 -16q45 0 45 24q0 15 -15 32.5t-32.5 32.5t-32.5 45t-15 69q0 78 60.5 127t176.5 49q45 0 83 -6z" />
<glyph unicode="t" horiz-adv-x="372" d="M397 497l-28 -140h-91l-32 -173q-2 -12 -2 -20q0 -10 3 -16q6 -9 27 -9t53 6l-21 -142q-57 -15 -115 -15q-85 0 -115 43q-18 27 -18 74q0 29 7 66l35 186h-62l28 140h60l27 140l185 35l-33 -175h92z" />
<glyph unicode="u" horiz-adv-x="552" d="M562 497l-50 -260q-25 -135 -41 -237h-173q10 51 30 94h-2q-74 -107 -180 -107q-72 0 -98 45q-18 29 -18 70q0 21 5 46l66 349h179l-58 -303q-3 -16 -3 -26q0 -23 13 -23q25 0 67 65t56 139l28 148h179z" />
<glyph unicode="v" horiz-adv-x="521" d="M572 472l-251 -472h-188l-82 497h188l15 -106q10 -68 13 -149h2l126 278z" />
<glyph unicode="w" horiz-adv-x="791" d="M839 473l-231 -473h-199l-10 116q-4 55 -4 107v21h-1q-37 -89 -112 -244h-174l-50 497h186l4 -77q9 -153 9 -177h1q30 78 111 254h162l7 -77q8 -100 11 -178h1q42 108 114 276z" />
<glyph unicode="x" horiz-adv-x="539" d="M582 452l-187 -215l101 -237h-207l-38 130l-128 -166l-155 82l197 219l-99 232h197l42 -131l127 167z" />
<glyph unicode="y" d="M594 473q-113 -260 -195 -394t-170 -222q-98 -98 -210 -98q-45 0 -80 8l28 153q29 -10 59 -10q47 0 69 17q30 22 30 83q0 189 -83 487h199q41 -149 41 -305v-13h2q76 159 140 339z" />
<glyph unicode="z" horiz-adv-x="446" d="M458 497l-26 -131l-163 -200q12 1 78 1h50l-31 -167h-364l25 130l170 205q-14 -2 -69 -2h-56l31 164h355z" />
<glyph unicode="{" horiz-adv-x="384" d="M465 785l-29 -147q-45 0 -63 -20t-32 -93l-8 -42q-31 -161 -122 -174v-2q64 -9 64 -100q0 -34 -9 -80l-15 -76q-8 -44 -8 -70q0 -18 4 -26q10 -20 55 -20l-28 -148h-25q-114 0 -153 61q-23 35 -23 99q0 45 11 103l15 77q5 24 5 42q0 30 -12 45q-19 25 -62 27l26 134 q45 2 73 24t38 84l7 42q23 141 86.5 200.5t178.5 59.5h26z" />
<glyph unicode="|" horiz-adv-x="286" d="M318 767l-191 -1000h-142l190 1000h143z" />
<glyph unicode="}" horiz-adv-x="384" d="M393 375l-25 -134q-43 -2 -71 -26.5t-41 -87.5l-15 -77q-28 -142 -89.5 -202.5t-175.5 -60.5h-25l27 148q45 0 63 21t33 95l15 76q33 167 124 180v2q-64 10 -64 100q0 32 8 74l8 42q7 43 7 68q0 18 -4 27q-10 18 -55 18l28 147h26q114 0 153 -59q22 -35 22 -98 q0 -44 -11 -103l-8 -42q-5 -24 -5 -42q0 -29 12 -42q19 -22 63 -24z" />
<glyph unicode="~" d="M593 598q-4 -103 -54.5 -156t-133.5 -53q-40 0 -69 15t-41.5 33t-25.5 33t-25 15q-30 0 -39 -69h-135q5 103 55 156t133 53q40 0 69 -15t41.5 -33t25.5 -33t25 -15q30 0 39 69h135z" />
<glyph unicode="&#xa1;" horiz-adv-x="318" d="M295 420q0 -48 -32.5 -78.5t-78.5 -30.5q-43 0 -70 27.5t-27 65.5q0 46 33 76.5t78 30.5q43 0 70 -27t27 -64zM243 281l-68 -499h-209l120 499h157z" />
<glyph unicode="&#xa2;" d="M538 555l-65 -144q-34 17 -80 17q-51 0 -83 -37t-32 -83q0 -34 22.5 -50.5t57.5 -16.5q46 0 85 17l24 -140q-47 -20 -102 -26l-18 -92h-134l18 93q-71 10 -110 57t-39 126q0 105 63.5 187.5t175.5 104.5l16 82h134l-15 -77q41 -3 82 -18z" />
<glyph unicode="&#xa3;" d="M560 649l-54 -152q-51 17 -96 17q-48 0 -66.5 -26t-21.5 -93h138l-26 -140h-122q-3 -59 -43 -102q42 2 64 2h161l-30 -155h-443l23 123q79 48 84 132h-80l26 140h63q3 41 9 72.5t25 70.5t48.5 65t82.5 43.5t124 17.5q62 0 134 -15z" />
<glyph unicode="&#xa4;" d="M594 523l-76 -79q8 -21 8 -51q0 -96 -60 -176l53 -90l-160 -98l-53 96q-30 -5 -56 -5q-12 0 -36 2l-82 -91l-129 104l78 80q-10 23 -10 64q0 91 58 165l-49 87l158 96l50 -91q33 5 59 5q15 0 41 -2l80 90zM367 364q0 47 -49 47q-38 0 -63 -31t-25 -75q0 -25 12 -40 t33 -15q48 0 70 36.5t22 77.5z" />
<glyph unicode="&#xa5;" d="M634 650l-196 -296h97l-21 -111h-141l-8 -43h141l-21 -111h-141l-17 -89h-184l17 89h-141l21 111h141l8 43h-141l21 111h98l-83 296h196l23 -117q8 -38 13 -82h2q15 30 45 80l70 119h201z" />
<glyph unicode="&#xa6;" horiz-adv-x="286" d="M318 767l-70 -368h-142l69 368h143zM199 145l-72 -378h-142l72 378h142z" />
<glyph unicode="&#xa7;" horiz-adv-x="533" d="M524 734l-37 -151q-34 10 -73 10q-77 0 -77 -49q0 -15 16.5 -31.5t39.5 -35.5t46 -42.5t39.5 -62t16.5 -84.5q0 -53 -29 -101t-71 -74q18 -25 18 -70q0 -88 -77.5 -151t-219.5 -63q-57 0 -104 9l39 154q48 -13 77 -13q51 0 70 16.5t19 35.5q0 21 -25 45t-54.5 46 t-54.5 62.5t-25 88.5q0 58 28 106.5t74 78.5q-21 33 -21 78q0 33 15.5 66.5t46.5 66t89 52.5t133 20q49 0 101 -7zM333 255q0 21 -16 41.5t-71 72.5q-25 -21 -25 -58q0 -20 17.5 -42t70.5 -68q24 18 24 54z" />
<glyph unicode="&#xa8;" horiz-adv-x="535" d="M541 643q0 -39 -28 -66.5t-66 -27.5q-37 0 -62.5 26.5t-25.5 63.5q0 38 28.5 65t66.5 27q37 0 62 -26t25 -62zM324 643q0 -39 -28 -66.5t-66 -27.5q-37 0 -62.5 26.5t-25.5 62.5q0 38 28.5 65.5t66.5 27.5q37 0 62 -26t25 -62z" />
<glyph unicode="&#xa9;" horiz-adv-x="755" d="M756 352q0 -157 -110.5 -264t-259.5 -107q-141 0 -237.5 96.5t-96.5 234.5q0 156 110.5 263.5t259.5 107.5q141 0 237.5 -96.5t96.5 -234.5zM621 343q0 87 -59.5 148t-146.5 61q-92 0 -160 -67.5t-68 -166.5q0 -85 60 -145.5t146 -60.5q92 0 160 67t68 164zM526 493 l-44 -115q-12 17 -45 17q-28 0 -44 -24t-16 -59q0 -34 32 -34t59 14l5 -113q-51 -24 -104 -24q-60 0 -98 36t-38 101q0 87 57 153t149 66q56 0 87 -18z" />
<glyph unicode="&#xaa;" horiz-adv-x="427" d="M461 675q-59 -305 -68 -376h-136q12 43 23 72h-1q-55 -82 -132 -82q-98 0 -98 124q0 117 67 196t186 79q89 0 159 -13zM398 264l-26 -140h-349l26 140h349zM301 570q-14 4 -26 4q-35 0 -58 -41t-23 -88q0 -30 14 -30q23 0 54 46t37 93z" />
<glyph unicode="&#xab;" horiz-adv-x="559" d="M565 436l-107 -145l55 -147l-148 -60l-76 215l146 201zM312 445l-103 -154l46 -157l-151 -58l-64 225l137 207z" />
<glyph unicode="&#xac;" d="M531 374l-55 -290h-163l26 138h-302l29 152h465z" />
<glyph unicode="&#xad;" horiz-adv-x="333" d="M319 336l-28 -145h-255l28 145h255z" />
<glyph unicode="&#xae;" horiz-adv-x="555" d="M589 548q0 -113 -79 -188t-185 -75q-100 0 -169 67t-69 166q0 113 78.5 188t184.5 75q101 0 170 -67t69 -166zM485 543q0 58 -40 100.5t-99 42.5q-63 0 -109 -47t-46 -115q0 -59 40 -101.5t99 -42.5q62 0 108.5 47.5t46.5 115.5zM446 591q0 -48 -45 -72q6 -11 8 -26 l9 -63h-89l-2 70h-11l-13 -70h-75l41 215h102q75 0 75 -54zM358 574q0 14 -17 14h-8l-6 -35h6q25 0 25 21z" />
<glyph unicode="&#xaf;" horiz-adv-x="387" d="M433 705l-24 -130h-289l24 130h289z" />
<glyph unicode="&#xb0;" horiz-adv-x="397" d="M440 601q0 -86 -57 -131t-133 -45q-75 0 -115.5 39t-40.5 103q0 81 58 127.5t129 46.5q85 0 122 -40t37 -100zM310 591q0 15 -10 27.5t-26 12.5q-21 0 -35 -14t-14 -38q0 -19 10.5 -30.5t29.5 -11.5q20 0 32.5 15t12.5 39z" />
<glyph unicode="&#xb1;" d="M572 512l-28 -150h-153l-31 -164h-174l31 164h-153l28 150h153l32 163h174l-32 -163h153zM498 152l-29 -152h-468l29 152h468z" />
<glyph unicode="&#xb2;" horiz-adv-x="323" d="M352 582q0 -33 -19 -60.5t-66 -57.5l-14 -9h82l-20 -105h-251l20 100l39 25q68 44 68 65q0 13 -18 13q-23 0 -54 -12v103q59 18 111 18q62 0 92 -21.5t30 -58.5z" />
<glyph unicode="&#xb3;" horiz-adv-x="314" d="M345 588q0 -62 -58 -85q20 -2 32 -17.5t12 -37.5q0 -44 -42.5 -77t-140.5 -33q-43 0 -85 9l23 82q19 -7 47 -7q46 0 46 25q0 19 -35 19q-18 0 -44 -5l14 74h4q78 0 78 30q0 13 -22 13q-31 0 -56 -13v81q53 16 109 16q118 0 118 -74z" />
<glyph unicode="&#xb4;" horiz-adv-x="392" d="M441 645l-227 -101l-55 100l218 124z" />
<glyph unicode="&#xb5;" horiz-adv-x="629" d="M603 54q-68 -66 -162 -66q-53 0 -76 19.5t-23 61.5q0 11 3 25h-1q-57 -102 -138 -102q-16 0 -27 9l-17 -234h-188l139 730h178l-57 -303q-3 -16 -3 -26q0 -23 13 -23q30 0 68.5 60t51.5 129l31 163h178l-59 -311q-5 -28 -5.5 -42.5t2.5 -18.5t11 -4q18 0 39 18z" />
<glyph unicode="&#xb6;" horiz-adv-x="610" d="M662 675l-28 -148h-56l-118 -623h-210l28 148h64l119 623h201zM381 675l-89 -469q-107 0 -161.5 51t-54.5 141q0 117 83 197t222 80z" />
<glyph unicode="&#xb7;" horiz-adv-x="320" d="M288 301q0 -47 -34 -80t-81 -33q-46 0 -76.5 32t-30.5 76q0 46 34 79t81 33q46 0 76.5 -31.5t30.5 -75.5z" />
<glyph unicode="&#xb8;" horiz-adv-x="392" d="M200 -39q18 -39 18 -74q0 -18 -4 -34q-14 -49 -63 -86h-135q40 38 49 73q2 9 2 19q0 28 -17 64z" />
<glyph unicode="&#xb9;" horiz-adv-x="323" d="M337 650l-57 -300h-141l36 191l-62 -22v101l92 30h132z" />
<glyph unicode="&#xba;" horiz-adv-x="426" d="M463 542q0 -112 -68 -183t-168 -71q-79 0 -117.5 40t-38.5 104q0 113 65.5 185t172.5 72q154 0 154 -147zM399 264l-26 -140h-350l26 140h350zM322 524q0 42 -34 42q-39 0 -57.5 -36t-18.5 -78t36 -42q35 0 54.5 35.5t19.5 78.5z" />
<glyph unicode="&#xbb;" horiz-adv-x="559" d="M550 283l-137 -207l-135 63l103 154l-46 157l151 58zM301 285l-146 -201l-130 64l107 145l-55 147l148 60z" />
<glyph unicode="&#xbc;" horiz-adv-x="735" d="M336 650l-57 -300h-141l36 191l-62 -22v101l92 30h132zM731 586l-614 -611l-94 87l614 611zM684 133l-18 -94h-36l-8 -39h-120l7 39h-134l6 89l119 172h179l-31 -167h36zM546 224l-64 -92h46z" />
<glyph unicode="&#xbd;" horiz-adv-x="735" d="M693 232q0 -33 -19 -60.5t-66 -57.5l-14 -9h82l-20 -105h-251l20 100l39 25q68 44 68 65q0 13 -18 13q-23 0 -54 -12v103q59 18 111 18q62 0 92 -21.5t30 -58.5zM731 586l-614 -611l-94 87l614 611zM336 650l-57 -300h-141l36 191l-62 -22v101l92 30h132z" />
<glyph unicode="&#xbe;" horiz-adv-x="745" d="M556 224l-64 -92h46zM694 133l-18 -94h-36l-8 -39h-120l7 39h-134l6 89l119 172h179l-31 -167h36zM741 586l-614 -611l-94 87l614 611zM351 588q0 -62 -58 -85q20 -2 32 -17.5t12 -37.5q0 -44 -42.5 -77t-140.5 -33q-43 0 -85 9l23 82q19 -7 47 -7q46 0 46 25 q0 19 -35 19q-18 0 -44 -5l14 74h4q78 0 78 30q0 13 -22 13q-31 0 -56 -13v81q53 16 109 16q118 0 118 -74z" />
<glyph unicode="&#xbf;" horiz-adv-x="450" d="M401 420q0 -48 -32.5 -78.5t-78.5 -30.5q-43 0 -70 27.5t-27 65.5q0 46 33 76.5t78 30.5q43 0 70 -27t27 -64zM364 281q3 -19 3 -36q0 -30 -9 -55q-16 -40 -44 -64t-57.5 -43.5t-51 -40t-21.5 -42.5q0 -35 45 -48.5t127 -16.5l-53 -165q-161 3 -240.5 56t-79.5 136 q0 54 22.5 95.5t54.5 66.5l63 47q31 22 51 49q16 23 16 50q0 5 -1 11h175z" />
<glyph unicode="&#xc0;" horiz-adv-x="628" d="M601 0h-194l-14 110h-204l-54 -110h-185l344 675h209zM376 256l-12 109q-5 44 -7 95h-2q-17 -47 -41 -96l-53 -108h115zM491 799l-39 -96l-236 49l51 123z" />
<glyph unicode="&#xc1;" horiz-adv-x="628" d="M601 0h-194l-14 110h-204l-54 -110h-185l344 675h209zM376 256l-12 109q-5 44 -7 95h-2q-17 -47 -41 -96l-53 -108h115zM584 752l-249 -49l-15 96l245 76z" />
<glyph unicode="&#xc2;" horiz-adv-x="628" d="M601 0h-194l-14 110h-204l-54 -110h-185l344 675h209zM376 256l-12 109q-5 44 -7 95h-2q-17 -47 -41 -96l-53 -108h115zM585 785l-44 -82l-131 55l-142 -55l-28 82l181 90z" />
<glyph unicode="&#xc3;" horiz-adv-x="628" d="M601 0h-194l-14 110h-204l-54 -110h-185l344 675h209zM376 256l-12 109q-5 44 -7 95h-2q-17 -47 -41 -96l-53 -108h115zM606 812q-55 -95 -145 -95q-39 0 -72 20t-45 20q-17 0 -28 -9t-23 -30l-85 58q57 95 145 95q39 0 72.5 -20t45.5 -20q29 0 51 39z" />
<glyph unicode="&#xc4;" horiz-adv-x="628" d="M601 0h-194l-14 110h-204l-54 -110h-185l344 675h209zM376 256l-12 109q-5 44 -7 95h-2q-17 -47 -41 -96l-53 -108h115zM598 799q0 -35 -23.5 -59t-55.5 -24q-31 0 -52.5 22t-21.5 52q0 35 23.5 58.5t55.5 23.5q31 0 52.5 -22t21.5 -51zM382 799q0 -35 -23.5 -59 t-55.5 -24q-31 0 -52.5 22t-21.5 52q0 35 23.5 58.5t55.5 23.5q31 0 52.5 -22t21.5 -51z" />
<glyph unicode="&#xc5;" horiz-adv-x="628" d="M601 0h-194l-14 110h-204l-54 -110h-185l323 634q-21 32 -21 71q0 64 44.5 104.5t107.5 40.5q61 0 101.5 -38.5t40.5 -95.5q0 -56 -35 -94zM447 713q0 19 -13 32.5t-33 13.5q-22 0 -36 -15t-14 -35q0 -19 13.5 -32.5t32.5 -13.5q22 0 36 14.5t14 35.5zM375 256l-10 85 q-9 69 -10 117h-2q-21 -53 -57 -128l-36 -74h115z" />
<glyph unicode="&#xc6;" horiz-adv-x="772" d="M825 675l-30 -158h-203l-18 -95h196l-29 -152h-196l-21 -109h207l-30 -161h-382l24 121h-153l-71 -121h-193l407 675h492zM420 522h-1q-44 -86 -88 -160l-56 -95h96z" />
<glyph unicode="&#xc7;" horiz-adv-x="530" d="M581 662l-50 -170q-48 19 -95 19q-43 0 -77.5 -17.5t-55 -43.5t-33.5 -60t-18 -63.5t-5 -56.5q0 -54 25.5 -81.5t83.5 -27.5q52 0 112 21l-8 -171q-77 -20 -159 -20q-64 0 -112.5 16t-76.5 40.5t-45 58t-22.5 64t-5.5 63.5q0 84 26.5 162.5t75.5 143t129 103t178 38.5 q76 0 133 -18zM314 -39q18 -39 18 -74q0 -18 -4 -34q-14 -49 -63 -86h-135q40 38 49 73q2 9 2 19q0 28 -17 64z" />
<glyph unicode="&#xc8;" horiz-adv-x="470" d="M523 675l-30 -158h-205l-18 -95h195l-30 -152h-194l-21 -109h205l-30 -161h-387l128 675h387zM446 799l-39 -96l-236 49l51 123z" />
<glyph unicode="&#xc9;" horiz-adv-x="470" d="M523 675l-30 -158h-205l-18 -95h195l-30 -152h-194l-21 -109h205l-30 -161h-387l128 675h387zM540 752l-249 -49l-15 96l245 76z" />
<glyph unicode="&#xca;" horiz-adv-x="470" d="M523 675l-30 -158h-205l-18 -95h195l-30 -152h-194l-21 -109h205l-30 -161h-387l128 675h387zM514 785l-44 -82l-131 55l-142 -55l-28 82l181 90z" />
<glyph unicode="&#xcb;" horiz-adv-x="470" d="M523 675l-30 -158h-205l-18 -95h195l-30 -152h-194l-21 -109h205l-30 -161h-387l128 675h387zM535 799q0 -35 -23.5 -59t-55.5 -24q-31 0 -52.5 22t-21.5 52q0 35 23.5 58.5t55.5 23.5q31 0 52.5 -22t21.5 -51zM319 799q0 -35 -23.5 -59t-55.5 -24q-31 0 -52.5 22 t-21.5 52q0 35 23.5 58.5t55.5 23.5q31 0 52.5 -22t21.5 -51z" />
<glyph unicode="&#xcc;" horiz-adv-x="276" d="M318 675l-128 -675h-182l128 675h182zM359 799l-39 -96l-236 49l51 123z" />
<glyph unicode="&#xcd;" horiz-adv-x="276" d="M318 675l-128 -675h-182l128 675h182zM396 752l-249 -49l-15 96l245 76z" />
<glyph unicode="&#xce;" horiz-adv-x="276" d="M318 675l-128 -675h-182l128 675h182zM416 785l-44 -82l-131 55l-142 -55l-28 82l181 90z" />
<glyph unicode="&#xcf;" horiz-adv-x="276" d="M318 675l-128 -675h-182l128 675h182zM428 799q0 -35 -23.5 -59t-55.5 -24q-31 0 -52.5 22t-21.5 52q0 35 23.5 58.5t55.5 23.5q31 0 52.5 -22t21.5 -51zM212 799q0 -35 -23.5 -59t-55.5 -24q-31 0 -52.5 22t-21.5 52q0 35 23.5 58.5t55.5 23.5q31 0 52.5 -22t21.5 -51z " />
<glyph unicode="&#xd0;" horiz-adv-x="656" d="M655 437q0 -88 -27.5 -167t-78.5 -140.5t-132 -98t-181 -36.5q-120 0 -219 6l51 267h-52l27 140h52l50 265q104 6 230 6q280 0 280 -242zM460 420q0 52 -25 77t-83 25q-40 0 -54 -2l-21 -112h89l-27 -140h-89l-21 -109q12 -3 34 -3q44 0 79.5 19.5t57 49t35.5 66.5 t19.5 69t5.5 60z" />
<glyph unicode="&#xd1;" horiz-adv-x="658" d="M701 675l-129 -675h-214l-67 227q-25 84 -39 152q-4 -42 -16 -107l-52 -272h-176l128 675h216l61 -197q32 -100 47 -175q6 64 20 140l44 232h177zM639 812q-55 -95 -145 -95q-39 0 -72 20t-45 20q-29 0 -51 -39l-85 58q57 95 145 95q39 0 72.5 -20t45.5 -20q28 0 51 39z " />
<glyph unicode="&#xd2;" horiz-adv-x="687" d="M700 438q0 -194 -118 -323t-285 -129q-132 0 -196.5 65.5t-64.5 183.5q0 120 53 224t147 167t206 63q128 0 193 -65t65 -186zM507 416q0 46 -24 74.5t-71 28.5q-84 0 -132.5 -77t-48.5 -174q0 -111 94 -111q81 0 131.5 78t50.5 181zM565 799l-39 -96l-236 49l51 123z" />
<glyph unicode="&#xd3;" horiz-adv-x="687" d="M700 438q0 -194 -118 -323t-285 -129q-132 0 -196.5 65.5t-64.5 183.5q0 120 53 224t147 167t206 63q128 0 193 -65t65 -186zM507 416q0 46 -24 74.5t-71 28.5q-84 0 -132.5 -77t-48.5 -174q0 -111 94 -111q81 0 131.5 78t50.5 181zM628 752l-249 -49l-15 96l245 76z" />
<glyph unicode="&#xd4;" horiz-adv-x="687" d="M700 438q0 -194 -118 -323t-285 -129q-132 0 -196.5 65.5t-64.5 183.5q0 120 53 224t147 167t206 63q128 0 193 -65t65 -186zM507 416q0 46 -24 74.5t-71 28.5q-84 0 -132.5 -77t-48.5 -174q0 -111 94 -111q81 0 131.5 78t50.5 181zM630 785l-44 -82l-131 55l-142 -55 l-28 82l181 90z" />
<glyph unicode="&#xd5;" horiz-adv-x="687" d="M700 438q0 -194 -118 -323t-285 -129q-132 0 -196.5 65.5t-64.5 183.5q0 120 53 224t147 167t206 63q128 0 193 -65t65 -186zM507 416q0 46 -24 74.5t-71 28.5q-84 0 -132.5 -77t-48.5 -174q0 -111 94 -111q81 0 131.5 78t50.5 181zM656 812q-55 -95 -145 -95 q-39 0 -72 20t-45 20q-17 0 -28 -9t-23 -30l-85 58q57 95 145 95q39 0 72.5 -20t45.5 -20q29 0 51 39z" />
<glyph unicode="&#xd6;" horiz-adv-x="687" d="M700 438q0 -194 -118 -323t-285 -129q-132 0 -196.5 65.5t-64.5 183.5q0 120 53 224t147 167t206 63q128 0 193 -65t65 -186zM507 416q0 46 -24 74.5t-71 28.5q-84 0 -132.5 -77t-48.5 -174q0 -111 94 -111q81 0 131.5 78t50.5 181zM651 799q0 -35 -23.5 -59t-55.5 -24 q-31 0 -52.5 22t-21.5 52q0 35 23.5 58.5t55.5 23.5q31 0 52.5 -22t21.5 -51zM435 799q0 -35 -23.5 -59t-55.5 -24q-31 0 -52.5 22t-21.5 52q0 35 23.5 58.5t55.5 23.5q31 0 52.5 -22t21.5 -51z" />
<glyph unicode="&#xd7;" d="M558 431l-161 -136l111 -139l-124 -99l-109 136l-161 -136l-90 107l164 138l-110 138l124 98l107 -133l158 133z" />
<glyph unicode="&#xd8;" horiz-adv-x="687" d="M700 438q0 -194 -118 -323t-285 -129q-15 0 -41 2l-47 -98l-129 42l49 96q-93 63 -93 207q0 186 116 320t288 134q22 0 33 -1l46 91l127 -40l-46 -89q100 -61 100 -212zM514 420q0 26 -8 48l-165 -319q22 3 46 14q58 28 92.5 100t34.5 157zM388 526q-16 -3 -31 -9 q-63 -25 -98 -97.5t-35 -155.5q0 -24 5 -47z" />
<glyph unicode="&#xd9;" horiz-adv-x="651" d="M693 675l-82 -427q-26 -132 -111 -197t-218 -65q-232 0 -232 198q0 37 8 81l78 410h182l-82 -430q-4 -18 -4 -34q0 -69 76 -69q57 0 85.5 29t40.5 91l79 413h180zM520 799l-39 -96l-236 49l51 123z" />
<glyph unicode="&#xda;" horiz-adv-x="651" d="M693 675l-82 -427q-26 -132 -111 -197t-218 -65q-232 0 -232 198q0 37 8 81l78 410h182l-82 -430q-4 -18 -4 -34q0 -69 76 -69q57 0 85.5 29t40.5 91l79 413h180zM626 752l-249 -49l-15 96l245 76z" />
<glyph unicode="&#xdb;" horiz-adv-x="651" d="M693 675l-82 -427q-26 -132 -111 -197t-218 -65q-232 0 -232 198q0 37 8 81l78 410h182l-82 -430q-4 -18 -4 -34q0 -69 76 -69q57 0 85.5 29t40.5 91l79 413h180zM604 785l-44 -82l-131 55l-142 -55l-28 82l181 90z" />
<glyph unicode="&#xdc;" horiz-adv-x="651" d="M693 675l-82 -427q-26 -132 -111 -197t-218 -65q-232 0 -232 198q0 37 8 81l78 410h182l-82 -430q-4 -18 -4 -34q0 -69 76 -69q57 0 85.5 29t40.5 91l79 413h180zM607 799q0 -35 -23.5 -59t-55.5 -24q-31 0 -52.5 22t-21.5 52q0 35 23.5 58.5t55.5 23.5q31 0 52.5 -22 t21.5 -51zM391 799q0 -35 -23.5 -59t-55.5 -24q-31 0 -52.5 22t-21.5 52q0 35 23.5 58.5t55.5 23.5q31 0 52.5 -22t21.5 -51z" />
<glyph unicode="&#xdd;" horiz-adv-x="585" d="M681 675l-294 -442l-44 -233h-182l44 232l-123 443h192l35 -146q12 -54 19 -103h2q12 22 71 118l81 131h199zM570 752l-249 -49l-15 96l245 76z" />
<glyph unicode="&#xde;" horiz-adv-x="553" d="M576 409q0 -130 -91.5 -215.5t-229.5 -85.5q-34 0 -44 1l-21 -109h-182l128 675h183l-16 -83q30 2 52 2q106 0 163.5 -46t57.5 -139zM384 378q0 29 -17 47t-52 18q-15 0 -41 -2l-34 -179q20 -3 33 -3q47 0 79 34.5t32 84.5z" />
<glyph unicode="&#xdf;" horiz-adv-x="620" d="M607 584q0 -42 -19 -77.5t-42 -55t-42 -43t-19 -44.5q0 -13 14 -33.5t30.5 -40t30.5 -51t14 -65.5q0 -76 -62.5 -131t-183.5 -55q-45 0 -90 9l31 145q33 -14 70 -14q45 0 45 32q0 20 -21 47t-42 62.5t-21 78.5q0 39 18.5 73t40.5 54.5t40.5 45.5t18.5 48q0 13 -11.5 21.5 t-31.5 8.5q-35 0 -60.5 -27.5t-35.5 -78.5l-95 -501q-45 -233 -254 -233q-35 0 -76 9l41 142q12 -3 38 -3q31 0 47 20t26 69l93 490q24 125 104.5 189t192.5 64q97 0 154 -40t57 -115z" />
<glyph unicode="&#xe0;" horiz-adv-x="548" d="M557 492q-77 -406 -90 -492h-174q13 51 31 94h-2q-72 -107 -175 -107q-125 0 -125 162q0 154 86 257t243 103q116 0 206 -17zM353 361q-17 5 -34 5q-48 0 -80 -59.5t-32 -122.5q0 -39 19 -39q28 0 69.5 66t53.5 129zM495 645l-64 -101l-224 103l75 121z" />
<glyph unicode="&#xe1;" horiz-adv-x="548" d="M557 492q-77 -406 -90 -492h-174q13 51 31 94h-2q-72 -107 -175 -107q-125 0 -125 162q0 154 86 257t243 103q116 0 206 -17zM353 361q-17 5 -34 5q-48 0 -80 -59.5t-32 -122.5q0 -39 19 -39q28 0 69.5 66t53.5 129zM585 645l-227 -101l-55 100l218 124z" />
<glyph unicode="&#xe2;" horiz-adv-x="548" d="M557 492q-77 -406 -90 -492h-174q13 51 31 94h-2q-72 -107 -175 -107q-125 0 -125 162q0 154 86 257t243 103q116 0 206 -17zM353 361q-17 5 -34 5q-48 0 -80 -59.5t-32 -122.5q0 -39 19 -39q28 0 69.5 66t53.5 129zM560 626l-74 -82l-92 77l-121 -77l-54 82l197 142z " />
<glyph unicode="&#xe3;" horiz-adv-x="548" d="M557 492q-77 -406 -90 -492h-174q13 51 31 94h-2q-72 -107 -175 -107q-125 0 -125 162q0 154 86 257t243 103q116 0 206 -17zM353 361q-17 5 -34 5q-48 0 -80 -59.5t-32 -122.5q0 -39 19 -39q28 0 69.5 66t53.5 129zM589 664q-52 -106 -144 -106q-37 0 -69.5 22.5 t-44.5 22.5q-31 0 -52 -43l-81 64q54 106 144 106q37 0 69.5 -22.5t44.5 -22.5q30 0 53 43z" />
<glyph unicode="&#xe4;" horiz-adv-x="548" d="M557 492q-77 -406 -90 -492h-174q13 51 31 94h-2q-72 -107 -175 -107q-125 0 -125 162q0 154 86 257t243 103q116 0 206 -17zM353 361q-17 5 -34 5q-48 0 -80 -59.5t-32 -122.5q0 -39 19 -39q28 0 69.5 66t53.5 129zM597 643q0 -39 -28 -66.5t-66 -27.5q-37 0 -62.5 26.5 t-25.5 63.5q0 38 28.5 65t66.5 27q37 0 62 -26t25 -62zM380 643q0 -39 -28 -66.5t-66 -27.5q-37 0 -62.5 26.5t-25.5 62.5q0 38 28.5 65.5t66.5 27.5q37 0 62 -26t25 -62z" />
<glyph unicode="&#xe5;" horiz-adv-x="548" d="M557 492q-77 -406 -90 -492h-174q13 51 31 94h-2q-72 -107 -175 -107q-125 0 -125 162q0 154 86 257t243 103q116 0 206 -17zM353 361q-17 5 -34 5q-48 0 -80 -59.5t-32 -122.5q0 -39 19 -39q28 0 69.5 66t53.5 129zM555 679q0 -63 -45 -103.5t-107 -40.5 q-61 0 -101.5 38.5t-40.5 94.5q0 64 44.5 104.5t107.5 40.5q61 0 101.5 -38.5t40.5 -95.5zM456 676q0 19 -13 32.5t-33 13.5q-22 0 -36 -15t-14 -35q0 -19 13 -32.5t33 -13.5q22 0 36 14.5t14 35.5z" />
<glyph unicode="&#xe6;" horiz-adv-x="761" d="M762 375q0 -89 -75.5 -137.5t-223.5 -48.5q-1 -9 -1 -21q0 -21 15 -30t54 -9q72 0 151 30v-137q-100 -34 -206 -34q-126 0 -161 78q-29 -38 -72.5 -58t-89.5 -20q-77 0 -110 39t-33 94q0 89 76.5 137t220.5 48l4 17q1 5 1 10q0 14 -12 23q-15 13 -55 13q-72 0 -138 -29 v145q81 26 181 26q98 0 143 -39q72 38 146 38q55 0 93 -12t57 -33t27 -42.5t8 -47.5zM589 351q0 12 -8 19.5t-23 7.5q-28 0 -48 -23.5t-29 -54.5q108 0 108 51zM286 195q-105 0 -105 -46q0 -25 31 -25t51.5 21t22.5 50z" />
<glyph unicode="&#xe7;" horiz-adv-x="392" d="M417 501l-42 -158q-24 10 -56 10q-51 0 -78 -43.5t-27 -99.5q0 -62 64 -62q37 0 67 10l-19 -158q-46 -14 -103 -14q-198 0 -198 184q0 147 83.5 243.5t218.5 96.5q45 0 90 -9zM235 -39q18 -39 18 -74q0 -18 -4 -34q-14 -49 -63 -86h-135q40 38 49 73q2 9 2 19 q0 28 -17 64z" />
<glyph unicode="&#xe8;" horiz-adv-x="498" d="M499 375q0 -97 -81.5 -145t-216.5 -50v-12q0 -21 14 -30t53 -9q72 0 151 30v-137q-100 -34 -206 -34q-103 0 -146 46.5t-43 132.5q0 82 26 149t68.5 108t93.5 63t104 22q102 0 142.5 -39t40.5 -95zM326 351q0 25 -29 25q-54 0 -80 -84q109 2 109 59zM462 645l-64 -101 l-224 103l75 121z" />
<glyph unicode="&#xe9;" horiz-adv-x="498" d="M499 375q0 -97 -81.5 -145t-216.5 -50v-12q0 -21 14 -30t53 -9q72 0 151 30v-137q-100 -34 -206 -34q-103 0 -146 46.5t-43 132.5q0 82 26 149t68.5 108t93.5 63t104 22q102 0 142.5 -39t40.5 -95zM326 351q0 25 -29 25q-54 0 -80 -84q109 2 109 59zM508 645l-227 -101 l-55 100l218 124z" />
<glyph unicode="&#xea;" horiz-adv-x="498" d="M499 375q0 -97 -81.5 -145t-216.5 -50v-12q0 -21 14 -30t53 -9q72 0 151 30v-137q-100 -34 -206 -34q-103 0 -146 46.5t-43 132.5q0 82 26 149t68.5 108t93.5 63t104 22q102 0 142.5 -39t40.5 -95zM326 351q0 25 -29 25q-54 0 -80 -84q109 2 109 59zM505 626l-74 -82 l-92 77l-121 -77l-54 82l197 142z" />
<glyph unicode="&#xeb;" horiz-adv-x="498" d="M499 375q0 -97 -81.5 -145t-216.5 -50v-12q0 -21 14 -30t53 -9q72 0 151 30v-137q-100 -34 -206 -34q-103 0 -146 46.5t-43 132.5q0 82 26 149t68.5 108t93.5 63t104 22q102 0 142.5 -39t40.5 -95zM326 351q0 25 -29 25q-54 0 -80 -84q109 2 109 59zM544 643 q0 -39 -28 -66.5t-66 -27.5q-37 0 -62.5 26.5t-25.5 63.5q0 38 28.5 65t66.5 27q37 0 62 -26t25 -62zM327 643q0 -39 -28 -66.5t-66 -27.5q-37 0 -62.5 26.5t-25.5 62.5q0 38 28.5 65.5t66.5 27.5q37 0 62 -26t25 -62z" />
<glyph unicode="&#xec;" horiz-adv-x="273" d="M281 497l-95 -497h-179l95 497h179zM349 645l-64 -101l-224 103l75 121z" />
<glyph unicode="&#xed;" horiz-adv-x="273" d="M281 497l-95 -497h-179l95 497h179zM340 645l-227 -101l-55 100l218 124z" />
<glyph unicode="&#xee;" horiz-adv-x="273" d="M281 497l-95 -497h-179l95 497h179zM385 626l-74 -82l-92 77l-121 -77l-54 82l197 142z" />
<glyph unicode="&#xef;" horiz-adv-x="273" d="M281 497l-95 -497h-179l95 497h179zM421 643q0 -39 -28 -66.5t-66 -27.5q-37 0 -62.5 26.5t-25.5 63.5q0 38 28.5 65t66.5 27q37 0 62 -26t25 -62zM204 643q0 -39 -28 -66.5t-66 -27.5q-37 0 -62.5 26.5t-25.5 62.5q0 38 28.5 65.5t66.5 27.5q37 0 62 -26t25 -62z" />
<glyph unicode="&#xf0;" horiz-adv-x="556" d="M564 666l-77 -33q65 -104 65 -237q0 -107 -29 -189.5t-76.5 -128t-99.5 -68t-105 -22.5q-217 0 -217 189q0 148 89.5 238t203.5 90q32 0 47 -9q-1 2 -5 11t-7 14q-15 30 -26 45l-88 -37l-54 81l75 32q-23 22 -55 43l174 74q31 -27 48 -47l83 35zM358 297q0 56 -45 56 q-44 0 -72 -41t-28 -102q0 -64 46 -64q28 0 49 17.5t31 44t14.5 49t4.5 40.5z" />
<glyph unicode="&#xf1;" horiz-adv-x="553" d="M534 349l-66 -349h-179l58 303q3 16 3 26q0 23 -13 23q-25 0 -67 -65t-56 -139l-28 -148h-179l50 260q25 135 41 237h173q-10 -51 -30 -94h2q74 107 180 107q72 0 99 -45q17 -29 17 -70q0 -21 -5 -46zM533 664q-52 -106 -144 -106q-37 0 -69.5 22.5t-44.5 22.5 q-31 0 -52 -43l-81 64q54 106 144 106q37 0 69.5 -22.5t44.5 -22.5q30 0 53 43z" />
<glyph unicode="&#xf2;" horiz-adv-x="553" d="M547 324q0 -148 -93 -242t-220 -94q-114 0 -162.5 46.5t-48.5 134.5q0 106 47 185.5t117 117t151 37.5q209 0 209 -185zM359 300q0 26 -11 38.5t-38 12.5q-47 0 -73.5 -50t-26.5 -105q0 -49 45 -49q51 0 77.5 48.5t26.5 104.5zM461 645l-64 -101l-224 103l75 121z" />
<glyph unicode="&#xf3;" horiz-adv-x="553" d="M547 324q0 -148 -93 -242t-220 -94q-114 0 -162.5 46.5t-48.5 134.5q0 106 47 185.5t117 117t151 37.5q209 0 209 -185zM359 300q0 26 -11 38.5t-38 12.5q-47 0 -73.5 -50t-26.5 -105q0 -49 45 -49q51 0 77.5 48.5t26.5 104.5zM538 645l-227 -101l-55 100l218 124z" />
<glyph unicode="&#xf4;" horiz-adv-x="553" d="M547 324q0 -148 -93 -242t-220 -94q-114 0 -162.5 46.5t-48.5 134.5q0 106 47 185.5t117 117t151 37.5q209 0 209 -185zM359 300q0 26 -11 38.5t-38 12.5q-47 0 -73.5 -50t-26.5 -105q0 -49 45 -49q51 0 77.5 48.5t26.5 104.5zM533 626l-74 -82l-92 77l-121 -77l-54 82 l197 142z" />
<glyph unicode="&#xf5;" horiz-adv-x="553" d="M547 324q0 -148 -93 -242t-220 -94q-114 0 -162.5 46.5t-48.5 134.5q0 106 47 185.5t117 117t151 37.5q209 0 209 -185zM359 300q0 26 -11 38.5t-38 12.5q-47 0 -73.5 -50t-26.5 -105q0 -49 45 -49q51 0 77.5 48.5t26.5 104.5zM566 664q-52 -106 -144 -106 q-37 0 -69.5 22.5t-44.5 22.5q-31 0 -52 -43l-81 64q54 106 144 106q37 0 69.5 -22.5t44.5 -22.5q30 0 53 43z" />
<glyph unicode="&#xf6;" horiz-adv-x="553" d="M547 324q0 -148 -93 -242t-220 -94q-114 0 -162.5 46.5t-48.5 134.5q0 106 47 185.5t117 117t151 37.5q209 0 209 -185zM359 300q0 26 -11 38.5t-38 12.5q-47 0 -73.5 -50t-26.5 -105q0 -49 45 -49q51 0 77.5 48.5t26.5 104.5zM566 643q0 -39 -28 -66.5t-66 -27.5 q-37 0 -62.5 26.5t-25.5 63.5q0 38 28.5 65t66.5 27q37 0 62 -26t25 -62zM349 643q0 -39 -28 -66.5t-66 -27.5q-37 0 -62.5 26.5t-25.5 62.5q0 38 28.5 65.5t66.5 27.5q37 0 62 -26t25 -62z" />
<glyph unicode="&#xf7;" d="M434 503q0 -46 -32 -77.5t-76 -31.5q-42 0 -71 29.5t-29 69.5q0 46 32 77.5t76 31.5q42 0 71 -29.5t29 -69.5zM546 374l-29 -152h-480l29 152h480zM358 103q0 -46 -32 -77.5t-76 -31.5q-42 0 -71 29.5t-29 69.5q0 46 32 77.5t76 31.5q42 0 71 -29.5t29 -69.5z" />
<glyph unicode="&#xf8;" horiz-adv-x="553" d="M547 324q0 -148 -92.5 -242t-219.5 -94q-16 0 -42 2l-57 -100l-90 42l49 86q-72 42 -72 151q0 150 88 245t226 95q15 0 39 -2l62 108l88 -40l-55 -96q76 -44 76 -155zM376 299q0 10 -1 19l-105 -184q8 0 18 3q47 14 67.5 65.5t20.5 96.5zM298 363q-10 0 -21 -3 q-35 -11 -60 -54t-25 -99q0 -11 3 -22z" />
<glyph unicode="&#xf9;" horiz-adv-x="552" d="M562 497l-50 -260q-25 -135 -41 -237h-173q10 51 30 94h-2q-74 -107 -180 -107q-72 0 -98 45q-18 29 -18 70q0 21 5 46l66 349h179l-58 -303q-3 -16 -3 -26q0 -23 13 -23q25 0 67 65t56 139l28 148h179zM446 645l-64 -101l-224 103l75 121z" />
<glyph unicode="&#xfa;" horiz-adv-x="552" d="M562 497l-50 -260q-25 -135 -41 -237h-173q10 51 30 94h-2q-74 -107 -180 -107q-72 0 -98 45q-18 29 -18 70q0 21 5 46l66 349h179l-58 -303q-3 -16 -3 -26q0 -23 13 -23q25 0 67 65t56 139l28 148h179zM548 645l-227 -101l-55 100l218 124z" />
<glyph unicode="&#xfb;" horiz-adv-x="552" d="M562 497l-50 -260q-25 -135 -41 -237h-173q10 51 30 94h-2q-74 -107 -180 -107q-72 0 -98 45q-18 29 -18 70q0 21 5 46l66 349h179l-58 -303q-3 -16 -3 -26q0 -23 13 -23q25 0 67 65t56 139l28 148h179zM528 626l-74 -82l-92 77l-121 -77l-54 82l197 142z" />
<glyph unicode="&#xfc;" horiz-adv-x="552" d="M562 497l-50 -260q-25 -135 -41 -237h-173q10 51 30 94h-2q-74 -107 -180 -107q-72 0 -98 45q-18 29 -18 70q0 21 5 46l66 349h179l-58 -303q-3 -16 -3 -26q0 -23 13 -23q25 0 67 65t56 139l28 148h179zM545 643q0 -39 -28 -66.5t-66 -27.5q-37 0 -62.5 26.5t-25.5 63.5 q0 38 28.5 65t66.5 27q37 0 62 -26t25 -62zM328 643q0 -39 -28 -66.5t-66 -27.5q-37 0 -62.5 26.5t-25.5 62.5q0 38 28.5 65.5t66.5 27.5q37 0 62 -26t25 -62z" />
<glyph unicode="&#xfd;" d="M594 473q-113 -260 -195 -394t-170 -222q-98 -98 -210 -98q-45 0 -80 8l28 153q29 -10 59 -10q47 0 69 17q30 22 30 83q0 189 -83 487h199q41 -149 41 -305v-13h2q76 159 140 339zM539 645l-227 -101l-55 100l218 124z" />
<glyph unicode="&#xfe;" horiz-adv-x="548" d="M543 348q0 -154 -86 -257t-243 -103q-14 0 -30 2l-42 -223h-179l183 963h182l-22 -115q-26 -132 -62 -205h3q73 100 174 100q122 0 122 -162zM358 313q0 39 -19 39q-28 0 -69.5 -66t-53.5 -129l-4 -21q17 -5 34 -5q48 0 80 59.5t32 122.5z" />
<glyph unicode="&#xff;" d="M594 473q-113 -260 -195 -394t-170 -222q-98 -98 -210 -98q-45 0 -80 8l28 153q29 -10 59 -10q47 0 69 17q30 22 30 83q0 189 -83 487h199q41 -149 41 -305v-13h2q76 159 140 339zM546 643q0 -39 -28 -66.5t-66 -27.5q-37 0 -62.5 26.5t-25.5 63.5q0 38 28.5 65t66.5 27 q37 0 62 -26t25 -62zM329 643q0 -39 -28 -66.5t-66 -27.5q-37 0 -62.5 26.5t-25.5 62.5q0 38 28.5 65.5t66.5 27.5q37 0 62 -26t25 -62z" />
<glyph unicode="&#x131;" horiz-adv-x="273" d="M281 497l-95 -497h-179l95 497h179z" />
<glyph unicode="&#x152;" horiz-adv-x="839" d="M892 675l-31 -158h-204l-18 -95h194l-29 -152h-194l-21 -109h205l-31 -161h-366q-56 -14 -100 -14q-132 0 -196.5 65.5t-64.5 183.5q0 120 53 224t147 167t206 63q55 0 105 -14h345zM472 506q-29 13 -60 13q-84 0 -132.5 -77t-48.5 -174q0 -111 94 -111q40 0 85 19z" />
<glyph unicode="&#x153;" horiz-adv-x="816" d="M819 375q0 -97 -82 -145t-216 -50v-12q0 -21 14 -30t53 -9q72 0 151 30v-137q-100 -34 -206 -34q-101 0 -141 49q-67 -49 -157 -49q-114 0 -163 46.5t-49 134.5q0 106 47 185.5t117 117t150 37.5q104 0 151 -47q64 47 148 47q102 0 142.5 -39t40.5 -95zM646 351 q0 25 -29 25q-54 0 -80 -84q109 2 109 59zM359 300q0 26 -11 38.5t-38 12.5q-47 0 -73.5 -50t-26.5 -105q0 -49 45 -49q51 0 77.5 48.5t26.5 104.5z" />
<glyph unicode="&#x178;" horiz-adv-x="585" d="M681 675l-294 -442l-44 -233h-182l44 232l-123 443h192l35 -146q12 -54 19 -103h2q12 22 71 118l81 131h199zM578 799q0 -35 -23.5 -59t-55.5 -24q-31 0 -52.5 22t-21.5 52q0 35 23.5 58.5t55.5 23.5q31 0 52.5 -22t21.5 -51zM362 799q0 -35 -23.5 -59t-55.5 -24 q-31 0 -52.5 22t-21.5 52q0 35 23.5 58.5t55.5 23.5q31 0 52.5 -22t21.5 -51z" />
<glyph unicode="&#x2c6;" horiz-adv-x="408" d="M455 626l-74 -82l-92 77l-121 -77l-54 82l197 142z" />
<glyph unicode="&#x2da;" horiz-adv-x="333" d="M395 640q0 -63 -45 -103.5t-107 -40.5q-61 0 -101.5 38.5t-40.5 94.5q0 64 44.5 104.5t107.5 40.5q61 0 101.5 -38.5t40.5 -95.5zM296 637q0 19 -13 32.5t-33 13.5q-22 0 -36 -15t-14 -35q0 -19 13 -32.5t33 -13.5q22 0 36 14.5t14 35.5z" />
<glyph unicode="&#x2dc;" horiz-adv-x="417" d="M491 664q-52 -106 -144 -106q-37 0 -69.5 22.5t-44.5 22.5q-31 0 -52 -43l-81 64q54 106 144 106q37 0 69.5 -22.5t44.5 -22.5q30 0 53 43z" />
<glyph unicode="&#x3bc;" horiz-adv-x="629" d="M603 54q-68 -66 -162 -66q-53 0 -76 19.5t-23 61.5q0 11 3 25h-1q-57 -102 -138 -102q-16 0 -27 9l-17 -234h-188l139 730h178l-57 -303q-3 -16 -3 -26q0 -23 13 -23q30 0 68.5 60t51.5 129l31 163h178l-59 -311q-5 -28 -5.5 -42.5t2.5 -18.5t11 -4q18 0 39 18z" />
<glyph unicode="&#x2000;" horiz-adv-x="437" />
<glyph unicode="&#x2001;" horiz-adv-x="875" />
<glyph unicode="&#x2002;" horiz-adv-x="437" />
<glyph unicode="&#x2003;" horiz-adv-x="875" />
<glyph unicode="&#x2004;" horiz-adv-x="291" />
<glyph unicode="&#x2005;" horiz-adv-x="218" />
<glyph unicode="&#x2006;" horiz-adv-x="145" />
<glyph unicode="&#x2007;" horiz-adv-x="145" />
<glyph unicode="&#x2008;" horiz-adv-x="109" />
<glyph unicode="&#x2009;" horiz-adv-x="175" />
<glyph unicode="&#x200a;" horiz-adv-x="48" />
<glyph unicode="&#x2010;" horiz-adv-x="333" d="M319 336l-28 -145h-255l28 145h255z" />
<glyph unicode="&#x2011;" horiz-adv-x="333" d="M319 336l-28 -145h-255l28 145h255z" />
<glyph unicode="&#x2013;" d="M582 378l-30 -160h-550l30 160h550z" />
<glyph unicode="&#x2014;" horiz-adv-x="1000" d="M932 378l-30 -160h-800l30 160h800z" />
<glyph unicode="&#x2018;" horiz-adv-x="294" d="M353 685q-65 -53 -79 -89q-5 -12 -5 -25q0 -23 18 -47q16 -24 16 -54q0 -28 -12 -52q-12 -25 -38 -42t-59 -17q-60 0 -91 52q-18 31 -18 68q0 44 26 96q48 96 178 184z" />
<glyph unicode="&#x2019;" horiz-adv-x="294" d="M227 745q60 0 91 -52q18 -31 18 -68q0 -44 -26 -96q-48 -96 -178 -184l-64 74q65 53 79 89q5 12 5 25q0 23 -18 47q-16 24 -16 54q0 28 12 52q12 25 38 42t59 17z" />
<glyph unicode="&#x201a;" horiz-adv-x="294" d="M129 200q60 0 91 -52q18 -31 18 -68q0 -44 -26 -96q-48 -96 -178 -184l-64 74q65 53 79 89q5 12 5 25q0 23 -18 47q-16 24 -16 54q0 28 12 52q12 25 38 42t59 17z" />
<glyph unicode="&#x201c;" horiz-adv-x="549" d="M620 689q-65 -53 -79 -89q-5 -12 -5 -25q0 -23 18 -47q16 -24 16 -54q0 -28 -12 -52q-12 -25 -38 -42t-59 -17q-60 0 -91 52q-18 31 -18 68q0 44 26 96q48 96 178 184zM353 689q-65 -53 -79 -89q-5 -12 -5 -25q0 -23 18 -47q16 -24 16 -54q0 -28 -12 -52q-12 -25 -38 -42 t-59 -17q-60 0 -91 52q-18 31 -18 68q0 44 26 96q48 96 178 184z" />
<glyph unicode="&#x201d;" horiz-adv-x="549" d="M494 753q60 0 91 -52q18 -31 18 -68q0 -44 -26 -96q-48 -96 -178 -184l-64 74q65 53 79 89q5 12 5 25q0 23 -18 47q-16 24 -16 54q0 28 12 52q12 25 38 42t59 17zM227 753q60 0 91 -52q18 -31 18 -68q0 -44 -26 -96q-48 -96 -178 -184l-64 74q65 53 79 89q5 12 5 25 q0 23 -18 47q-16 24 -16 54q0 28 12 52q12 25 38 42t59 17z" />
<glyph unicode="&#x201e;" horiz-adv-x="549" d="M396 200q60 0 91 -52q18 -31 18 -68q0 -44 -26 -96q-48 -96 -178 -184l-64 74q65 53 79 89q5 12 5 25q0 23 -18 47q-16 24 -16 54q0 28 12 52q12 25 38 42t59 17zM129 200q60 0 91 -52q18 -31 18 -68q0 -44 -26 -96q-48 -96 -178 -184l-64 74q65 53 79 89q5 12 5 25 q0 23 -18 47q-16 24 -16 54q0 28 12 52q12 25 38 42t59 17z" />
<glyph unicode="&#x2022;" horiz-adv-x="426" d="M416 300q0 -78 -55.5 -134.5t-132.5 -56.5q-78 0 -131 53.5t-53 131.5t55 134.5t133 56.5q77 0 130.5 -54t53.5 -131z" />
<glyph unicode="&#x2026;" horiz-adv-x="792" d="M731 93q0 -45 -31 -76t-73 -31t-71 30t-29 71q0 45 31 76t73 31t71 -30t29 -71zM476 93q0 -45 -31 -76t-73 -31t-71 30t-29 71q0 45 31 76t73 31t71 -30t29 -71zM221 93q0 -45 -31 -76t-73 -31t-71 30t-29 71q0 45 31 76t73 31t71 -30t29 -71z" />
<glyph unicode="&#x202f;" horiz-adv-x="175" />
<glyph unicode="&#x2039;" horiz-adv-x="305" d="M313 442l-106 -151l51 -153l-150 -59l-70 220l143 206z" />
<glyph unicode="&#x203a;" horiz-adv-x="305" d="M300 285l-143 -206l-132 63l106 151l-51 153l150 59z" />
<glyph unicode="&#x205f;" horiz-adv-x="218" />
<glyph unicode="&#x20ac;" d="M607 639l-61 -143q-43 24 -103 24q-72 0 -114 -63h124l-20 -107h-150q-6 -17 -10 -50h150l-20 -107h-134q6 -35 29 -49t64 -14q54 0 113 24l22 -137q-79 -31 -179 -31q-234 0 -238 207h-72l20 107h60q4 27 10 50h-60l20 107h76q96 207 335 207q70 0 138 -25z" />
<glyph unicode="&#x2122;" horiz-adv-x="662" d="M690 675l-4 -281h-128l4 83l3 38l-12 -38l-30 -83h-106v86l2 35l-8 -35l-26 -86h-115l98 281h139l3 -78l-1 -34l11 34l30 78h140zM328 675l-20 -109h-54l-33 -172h-120l32 172h-58l21 109h232z" />
</font>
</defs>
</svg>
