<?xml version="1.0" standalone="no"?>
<!DOCTYPE svg PUBLIC "-//W3C//DTD SVG 1.1//EN" "http://www.w3.org/Graphics/SVG/1.1/DTD/svg11.dtd" >
<svg xmlns="http://www.w3.org/2000/svg">
<metadata></metadata>
<defs>
<font id="gothambold" horiz-adv-x="1617" >
<font-face units-per-em="2048" ascent="1638" descent="-410" />
<missing-glyph horiz-adv-x="614" />
<glyph unicode="&#xfb01;" horiz-adv-x="1400" d="M63 831v256h130v70q0 178 88 266q86 86 251 86q127 0 222 -30v-258q-73 26 -142 26q-112 0 -112 -119v-43h252v-254h-248v-831h-311v831h-130zM928 1219v276h327v-276h-327zM936 0v1098h311v-1098h-311z" />
<glyph unicode="&#xfb02;" horiz-adv-x="1400" d="M63 831v256h130v70q0 178 88 266q86 86 251 86q127 0 222 -30v-258q-73 26 -142 26q-112 0 -112 -119v-43h252v-254h-248v-831h-311v831h-130zM936 0v1495h311v-1495h-311z" />
<glyph unicode="&#xfb03;" horiz-adv-x="2183" d="M63 831v256h130v70q0 178 88 266q86 86 251 86q127 0 222 -30v-258q-73 26 -142 26q-112 0 -112 -119v-43h252v-254h-248v-831h-311v831h-130zM846 831v256h129v70q0 178 88 266q86 86 252 86q126 0 221 -30v-258q-73 26 -141 26q-113 0 -113 -119v-43h252v-254h-248 v-831h-311v831h-129zM1710 1219v276h328v-276h-328zM1718 0v1098h312v-1098h-312z" />
<glyph unicode="&#xfb04;" horiz-adv-x="2183" d="M63 831v256h130v70q0 178 88 266q86 86 251 86q127 0 222 -30v-258q-73 26 -142 26q-112 0 -112 -119v-43h252v-254h-248v-831h-311v831h-130zM846 831v256h129v70q0 178 88 266q86 86 252 86q126 0 221 -30v-258q-73 26 -141 26q-113 0 -113 -119v-43h252v-254h-248 v-831h-311v831h-129zM1718 0v1495h312v-1495h-312z" />
<glyph horiz-adv-x="2048" />
<glyph horiz-adv-x="2048" />
<glyph unicode="&#xd;" horiz-adv-x="2048" />
<glyph unicode=" "  horiz-adv-x="614" />
<glyph unicode="&#x09;" horiz-adv-x="614" />
<glyph unicode="&#xa0;" horiz-adv-x="614" />
<glyph unicode="!" horiz-adv-x="663" d="M150 1393v41h364v-41l-96 -906h-172zM166 0v328h332v-328h-332z" />
<glyph unicode="&#x22;" horiz-adv-x="1064" d="M117 780l37 654h344v-11l-224 -643h-157zM600 780l37 654h344v-11l-223 -643h-158z" />
<glyph unicode="#" horiz-adv-x="1433" d="M72 307v262h198l54 303h-181v263h226l51 299h270l-51 -299h297l51 299h270l-51 -299h156v-263h-201l-53 -303h182v-262h-227l-51 -307h-271l52 307h-295l-54 -307h-270l51 307h-153zM535 561h309l53 320h-309z" />
<glyph unicode="$" horiz-adv-x="1323" d="M90 201l160 233q176 -133 334 -166v326q-115 31 -194 67.5t-136.5 87.5t-84 119.5t-26.5 159.5v4q0 167 117 274.5t313 127.5v118h213v-125q201 -25 381 -149l-137 -240q-130 87 -254 121v-311q235 -64 340 -166t105 -272v-4q0 -169 -119 -276t-316 -128v-203h-213v207 q-272 36 -483 195zM442 1047q0 -52 30 -85t112 -63v279q-142 -17 -142 -127v-4zM776 258q146 21 146 131v4q0 52 -32.5 87t-113.5 65v-287z" />
<glyph unicode="%" horiz-adv-x="1761" d="M92 1079v4q0 155 98 261t252 106q153 0 249.5 -104.5t96.5 -258.5v-4q0 -154 -98 -260t-252 -106q-153 0 -249.5 104t-96.5 258zM236 0l573 772l473 662h244l-574 -772l-473 -662h-243zM307 1083q0 -74 37.5 -127t97.5 -53q62 0 96.5 51.5t34.5 124.5v4q0 75 -37.5 128 t-97.5 53q-62 0 -96.5 -51t-34.5 -126v-4zM973 346v4q0 155 98 261t252 106q153 0 249.5 -104.5t96.5 -258.5v-4q0 -154 -98 -260t-252 -106q-153 0 -249.5 104t-96.5 258zM1188 350q0 -74 37.5 -127t97.5 -53q62 0 96.5 51.5t34.5 124.5v4q0 74 -37.5 127t-97.5 53 q-62 0 -96.5 -50.5t-34.5 -125.5v-4z" />
<glyph unicode="&#x26;" horiz-adv-x="1425" d="M70 393v4q0 267 278 394q-100 140 -100 286v4q0 74 29.5 142t83.5 120.5t137.5 83.5t183.5 31q180 0 291.5 -103t111.5 -257v-4q0 -257 -301 -375l191 -191q68 107 139 246l232 -127q-105 -191 -189 -303l211 -211l-231 -162l-166 168q-194 -159 -420 -159 q-209 0 -345 113t-136 300zM387 406q0 -75 56.5 -121.5t144.5 -46.5q102 0 207 81l-275 279q-133 -69 -133 -188v-4zM537 1063q0 -46 19 -86t65 -92q98 37 144 81t46 109v4q0 61 -37 97t-98 36q-63 0 -101 -40t-38 -105v-4z" />
<glyph unicode="'" horiz-adv-x="585" d="M117 780l37 654h348v-11l-223 -643h-162z" />
<glyph unicode="(" horiz-adv-x="911" d="M121 588q0 292 140.5 506.5t426.5 369.5l137 -207q-210 -147 -302.5 -301t-92.5 -368t92.5 -368.5t302.5 -301.5l-137 -207q-286 155 -426.5 370t-140.5 507z" />
<glyph unicode=")" horiz-adv-x="911" d="M86 -82q210 147 302.5 301.5t92.5 368.5t-92.5 368t-302.5 301l137 207q286 -155 427 -369.5t141 -506.5t-141 -507t-427 -370z" />
<glyph unicode="*" horiz-adv-x="880" d="M104 1004l230 96l-230 96l86 147l199 -151l-33 246h168l-32 -246l198 151l86 -147l-229 -96l229 -96l-86 -148l-198 152l32 -246h-168l33 246l-199 -152z" />
<glyph unicode="+" horiz-adv-x="1310" d="M139 580v282h371v369h291v-369h370v-282h-370v-369h-291v369h-371z" />
<glyph unicode="," horiz-adv-x="585" d="M53 -203q105 10 157 62.5t44 140.5h-127v328h332v-277q0 -197 -95.5 -288.5t-283.5 -94.5z" />
<glyph unicode="-" horiz-adv-x="835" d="M102 485v299h631v-299h-631z" />
<glyph unicode="." horiz-adv-x="585" d="M127 0v328h332v-328h-332z" />
<glyph unicode="/" horiz-adv-x="1085" d="M-57 -262l907 1896h264l-907 -1896h-264z" />
<glyph unicode="0" horiz-adv-x="1495" d="M111 713v4q0 207 79.5 375.5t226 267t333.5 98.5q186 0 331.5 -97.5t224 -265t78.5 -374.5v-4q0 -207 -79 -376t-226 -267.5t-334 -98.5q-141 0 -260.5 57t-201 156t-127 234.5t-45.5 290.5zM434 717q0 -199 87.5 -328t228.5 -129q140 0 225.5 127.5t85.5 325.5v4 q0 197 -88 327t-228 130t-225.5 -127t-85.5 -326v-4z" />
<glyph unicode="1" horiz-adv-x="864" d="M49 1321l412 123h215v-1444h-311v1124l-250 -61z" />
<glyph unicode="2" horiz-adv-x="1275" d="M100 0v250l478 391q140 116 193.5 187t53.5 157q0 89 -52.5 137.5t-139.5 48.5q-80 0 -144.5 -44.5t-148.5 -147.5l-221 178q113 155 232 226t302 71q223 0 358.5 -120.5t135.5 -321.5v-4q0 -71 -16 -131.5t-42.5 -109.5t-77.5 -103.5t-103 -99.5t-138 -111l-233 -181 h624v-272h-1061z" />
<glyph unicode="3" horiz-adv-x="1271" d="M78 223l217 207q77 -87 159 -129.5t187 -42.5q90 0 146.5 47.5t56.5 126.5v4q0 87 -74 134.5t-207 47.5h-131l-49 201l342 344h-563v271h968v-238l-362 -346q79 -13 143.5 -40t121 -72.5t88.5 -119t32 -169.5v-5q0 -206 -140.5 -337.5t-375.5 -131.5q-349 0 -559 248z " />
<glyph unicode="4" horiz-adv-x="1411" d="M63 532l787 912h266v-879h193v-256h-193v-309h-301v309h-700zM434 565h381v447z" />
<glyph unicode="5" horiz-adv-x="1290" d="M88 190l191 228q86 -77 168.5 -116.5t173.5 -39.5q111 0 175 52.5t64 146.5v4q0 91 -69.5 142.5t-184.5 51.5t-239 -53l-183 121l41 707h881v-277h-610l-17 -248q102 25 189 25q85 0 159 -16.5t137.5 -52t108.5 -88.5t70.5 -130t25.5 -172v-4q0 -227 -148 -361.5 t-396 -134.5q-312 0 -537 215z" />
<glyph unicode="6" horiz-adv-x="1355" d="M111 672v4q0 134 24 251t74 215t123.5 168t177 109t229.5 39q139 0 243 -39t206 -119l-166 -243q-78 60 -142.5 87t-150.5 27q-62 0 -111.5 -23t-80.5 -57.5t-52.5 -80.5t-31.5 -87t-13 -83q137 92 297 92q222 0 363 -120t141 -337v-4q0 -218 -156 -357t-391 -139 q-259 0 -413 154q-83 83 -126.5 211t-43.5 332zM432 459q0 -93 67.5 -153t182.5 -60t180.5 58.5t65.5 152.5v4q0 92 -67.5 150.5t-182.5 58.5t-180.5 -57t-65.5 -150v-4z" />
<glyph unicode="7" horiz-adv-x="1267" d="M139 1161v273h1032v-238l-643 -1196h-356l641 1161h-674z" />
<glyph unicode="8" horiz-adv-x="1290" d="M92 393v4q0 127 57.5 209.5t174.5 136.5q-89 55 -136 129.5t-47 184.5v4q0 167 140.5 280t363.5 113q224 0 364 -112.5t140 -280.5v-4q0 -110 -46.5 -185t-135.5 -129q116 -61 173.5 -138.5t57.5 -198.5v-5q0 -195 -154.5 -308t-398.5 -113q-241 0 -397 114t-156 299z M397 418q0 -76 67 -127t181 -51t181 50.5t67 127.5v4q0 82 -69 129t-179 47t-179 -47t-69 -129v-4zM440 1024q0 -76 56.5 -126t148.5 -50t148.5 49t56.5 125v4q0 69 -56 118.5t-149 49.5t-149 -48.5t-56 -117.5v-4z" />
<glyph unicode="9" horiz-adv-x="1355" d="M115 952v4q0 218 153 360t394 142q143 0 236.5 -36t176.5 -119q82 -82 126 -211t44 -330v-4q0 -234 -70.5 -409t-213.5 -274.5t-343 -99.5q-147 0 -259.5 44t-211.5 126l166 240q80 -65 152.5 -94t161.5 -29q62 0 112 22.5t81 56.5t52.5 79.5t31.5 86t14 81.5 q-120 -99 -291 -99q-235 0 -373.5 123.5t-138.5 339.5zM428 967q0 -97 67 -156t183 -59q115 0 180.5 59.5t65.5 153.5v4q0 97 -68 158t-184 61q-115 0 -179.5 -60t-64.5 -157v-4z" />
<glyph unicode=":" horiz-adv-x="606" d="M137 0v328h332v-328h-332zM137 770v328h332v-328h-332z" />
<glyph unicode=";" horiz-adv-x="606" d="M63 -203q105 10 157 62.5t44 140.5h-127v328h332v-277q0 -197 -95.5 -288.5t-283.5 -94.5zM137 770v328h332v-328h-332z" />
<glyph unicode="&#x3c;" horiz-adv-x="1310" d="M139 580v282l991 434v-288l-692 -285l692 -285v-293z" />
<glyph unicode="=" horiz-adv-x="1310" d="M150 313v283h1011v-283h-1011zM150 846v282h1011v-282h-1011z" />
<glyph unicode="&#x3e;" horiz-adv-x="1310" d="M180 145v289l692 285l-692 285v292l991 -434v-282z" />
<glyph unicode="?" horiz-adv-x="1114" d="M41 1231q201 221 502 221q225 0 360 -111.5t135 -312.5v-4q0 -76 -21 -138.5t-56.5 -106t-88 -77.5t-110 -55t-127.5 -35l-23 -125h-209l-47 332l11 10q188 7 273 54.5t85 132.5v4q0 69 -49.5 107t-138.5 38q-167 0 -308 -141zM336 0v328h332v-328h-332z" />
<glyph unicode="@" horiz-adv-x="2007" d="M109 561q0 181 70 346t189.5 286t286 193t351.5 72q183 0 350 -68t285 -179.5t187.5 -259.5t69.5 -304q0 -125 -32 -224t-87.5 -161.5t-129 -95.5t-158.5 -33q-207 0 -313 123q-137 -123 -304 -123q-161 0 -267.5 108t-106.5 287q0 141 64.5 260t169.5 186.5t224 67.5 q181 0 283 -139l23 109l241 -39l-96 -551q-6 -30 -6 -64q0 -57 40 -93t109 -36q113 0 186.5 110.5t73.5 307.5q0 141 -62 273.5t-167.5 233t-257 161.5t-319.5 61q-136 0 -261.5 -41.5t-224.5 -116.5t-172.5 -175.5t-113 -224.5t-39.5 -257q0 -167 62 -316.5t170 -258.5 t262.5 -172.5t332.5 -63.5q147 0 264.5 33.5t237.5 103.5l41 -65q-253 -154 -543 -154q-129 0 -249.5 32.5t-220.5 90.5t-183 140.5t-140 180.5t-88.5 213t-31.5 236zM754 543q0 -93 53 -146t139 -53q88 0 156 68q88 88 88 227q0 87 -53.5 139.5t-137.5 52.5q-90 0 -159 -69 q-86 -86 -86 -219z" />
<glyph unicode="A" d="M49 0l615 1444h290l615 -1444h-330l-131 322h-606l-131 -322h-322zM614 600h381l-190 465z" />
<glyph unicode="B" horiz-adv-x="1478" d="M172 0v1434h666q247 0 374 -127q99 -99 99 -244v-4q0 -203 -189 -309q133 -50 201 -132.5t68 -220.5v-4q0 -192 -144 -292.5t-393 -100.5h-682zM479 276h375q107 0 165 39t58 117v4q0 74 -57.5 115t-175.5 41h-365v-316zM479 854h291q227 0 227 152v4q0 71 -53 109 t-153 38h-312v-303z" />
<glyph unicode="C" horiz-adv-x="1511" d="M109 713v4q0 203 94 372t266 269t387 100q190 0 323 -57t242 -164l-200 -231q-88 79 -176 120t-191 41q-179 0 -297.5 -129.5t-118.5 -316.5v-4q0 -188 117.5 -319.5t298.5 -131.5q114 0 198 41t179 127l201 -203q-119 -128 -255.5 -192t-332.5 -64q-207 0 -376 98 t-264 267t-95 373z" />
<glyph unicode="D" horiz-adv-x="1601" d="M172 0v1434h559q166 0 309 -55t242 -150t155 -226.5t56 -281.5v-4q0 -150 -56 -282t-155 -228t-242 -151.5t-309 -55.5h-559zM487 285h244q193 0 312.5 118.5t119.5 309.5v4q0 191 -119.5 311.5t-312.5 120.5h-244v-864z" />
<glyph unicode="E" horiz-adv-x="1372" d="M172 0v1434h1081v-281h-768v-291h676v-280h-676v-301h779v-281h-1092z" />
<glyph unicode="F" horiz-adv-x="1343" d="M172 0v1434h1092v-287h-777v-305h684v-287h-684v-555h-315z" />
<glyph unicode="G" horiz-adv-x="1605" d="M109 713v4q0 151 57 287.5t155.5 236.5t239 158.5t299.5 58.5q186 0 315 -48t248 -148l-198 -240q-91 75 -174.5 110t-200.5 35q-171 0 -291.5 -131t-120.5 -315v-4q0 -197 122 -326t312 -129q176 0 297 86v205h-317v272h623v-622q-268 -228 -613 -228q-165 0 -305.5 56 t-238.5 154t-153.5 234.5t-55.5 293.5z" />
<glyph unicode="H" horiz-adv-x="1556" d="M172 0v1434h315v-568h582v568h315v-1434h-315v575h-582v-575h-315z" />
<glyph unicode="I" horiz-adv-x="688" d="M186 0v1434h316v-1434h-316z" />
<glyph unicode="J" horiz-adv-x="1155" d="M29 195l198 221q65 -72 127.5 -108t134.5 -36q92 0 142.5 58.5t50.5 179.5v924h324v-938q0 -247 -136 -383q-133 -133 -372 -133q-289 0 -469 215z" />
<glyph unicode="K" horiz-adv-x="1495" d="M172 0v1434h315v-627l582 627h381l-584 -609l611 -825h-379l-445 610l-166 -172v-438h-315z" />
<glyph unicode="L" horiz-adv-x="1267" d="M172 0v1434h315v-1147h715v-287h-1030z" />
<glyph unicode="M" horiz-adv-x="1777" d="M172 0v1434h340l377 -607l377 607h340v-1434h-314v936l-403 -612h-8l-400 606v-930h-309z" />
<glyph unicode="N" d="M172 0v1434h291l672 -883v883h311v-1434h-268l-695 911v-911h-311z" />
<glyph unicode="O" horiz-adv-x="1740" d="M109 713v4q0 151 57.5 287.5t157.5 236.5t243 158.5t305 58.5q216 0 391 -99t272 -267.5t97 -370.5v-4q0 -151 -58 -287.5t-158 -236.5t-243 -159t-305 -59t-304.5 58t-241.5 157.5t-156 235.5t-57 287zM438 717q0 -122 55 -225t155 -164.5t224 -61.5t223.5 60.5 t153.5 162.5t54 224v4q0 187 -123.5 318.5t-311.5 131.5q-124 0 -223 -60t-153 -162t-54 -224v-4z" />
<glyph unicode="P" horiz-adv-x="1368" d="M172 0v1434h586q253 0 401 -136.5t148 -359.5v-4q0 -121 -45 -218t-124.5 -159t-184 -94.5t-226.5 -32.5h-240v-430h-315zM487 711h250q116 0 183 61t67 156v4q0 104 -68 160.5t-188 56.5h-244v-438z" />
<glyph unicode="Q" horiz-adv-x="1740" d="M109 713v4q0 151 57.5 287.5t157.5 236.5t243 158.5t305 58.5q216 0 391 -99t272 -267.5t97 -370.5v-4q0 -223 -127 -412l148 -125l-201 -223l-158 141q-191 -123 -426 -123q-162 0 -304.5 58t-241.5 157.5t-156 235.5t-57 287zM438 717q0 -122 55 -225t155 -164.5 t224 -61.5q110 0 189 39l-234 199l201 225l236 -213q39 89 39 197v4q0 187 -123.5 318.5t-311.5 131.5q-124 0 -223 -60t-153 -162t-54 -224v-4z" />
<glyph unicode="R" horiz-adv-x="1480" d="M172 0v1434h655q272 0 418 -146q123 -123 123 -327v-5q0 -167 -82 -279t-225 -165l350 -512h-369l-307 459h-248v-459h-315zM487 737h320q114 0 178 55.5t64 147.5v4q0 100 -65.5 152.5t-182.5 52.5h-314v-412z" />
<glyph unicode="S" horiz-adv-x="1310" d="M74 209l186 223q212 -174 428 -174q97 0 152 36t55 99v4q0 42 -22 70t-84.5 55.5t-182.5 57.5q-68 17 -117.5 32.5t-102.5 37t-89 44.5t-69.5 55t-53.5 70.5t-31.5 88.5t-11.5 110v4q0 194 140.5 313t361.5 119q306 0 532 -182l-164 -238q-205 142 -372 142 q-88 0 -136.5 -35t-48.5 -90v-4q0 -69 60 -105t250 -84q115 -30 194.5 -64.5t140.5 -84.5t90 -119.5t29 -161.5v-4q0 -209 -144.5 -326.5t-381.5 -117.5q-166 0 -324 58t-284 171z" />
<glyph unicode="T" horiz-adv-x="1327" d="M70 1143v291h1187v-291h-436v-1143h-315v1143h-436z" />
<glyph unicode="U" horiz-adv-x="1548" d="M150 614v820h315v-811q0 -173 81 -264t228 -91t228 88t81 256v822h316v-809q0 -319 -166.5 -483.5t-462.5 -164.5q-294 0 -457 162.5t-163 474.5z" />
<glyph unicode="V" horiz-adv-x="1536" d="M49 1434h348l375 -1010l375 1010h340l-580 -1444h-278z" />
<glyph unicode="W" horiz-adv-x="2297" d="M61 1434h338l297 -971l322 975h270l322 -975l297 971h329l-489 -1444h-274l-324 938l-324 -938h-274z" />
<glyph unicode="X" horiz-adv-x="1499" d="M63 0l500 729l-479 705h369l299 -465l305 465h358l-479 -701l500 -733h-369l-322 492l-323 -492h-359z" />
<glyph unicode="Y" horiz-adv-x="1466" d="M25 1434h368l342 -576l348 576h359l-551 -863v-571h-316v565z" />
<glyph unicode="Z" horiz-adv-x="1449" d="M129 0v240l789 917h-764v277h1169v-240l-788 -918h788v-276h-1194z" />
<glyph unicode="[" horiz-adv-x="952" d="M170 -266v1700h661v-244h-362v-1213h362v-243h-661z" />
<glyph unicode="\" horiz-adv-x="1085" d="M-29 1634h265l907 -1896h-264z" />
<glyph unicode="]" horiz-adv-x="952" d="M121 -23h362v1213h-362v244h661v-1700h-661v243z" />
<glyph unicode="^" horiz-adv-x="1024" d="M102 1010l304 424h212l304 -424h-226l-186 239l-186 -239h-222z" />
<glyph unicode="_" horiz-adv-x="1228" d="M-4 -90h1237v-238h-1237v238z" />
<glyph unicode="`" horiz-adv-x="1024" d="M225 1464l269 117l227 -362h-229z" />
<glyph unicode="a" horiz-adv-x="1212" d="M74 315v4q0 174 119.5 262.5t322.5 88.5q138 0 268 -45v18q0 98 -59.5 149.5t-175.5 51.5q-141 0 -303 -60l-78 238q100 44 198 66t228 22q248 0 371 -123q118 -118 118 -350v-637h-301v119q-126 -139 -331 -139q-162 0 -269.5 89t-107.5 246zM375 328q0 -62 47 -97.5 t123 -35.5q108 0 175.5 53.5t67.5 138.5v55q-87 41 -198 41q-101 0 -158 -39t-57 -112v-4z" />
<glyph unicode="b" horiz-adv-x="1382" d="M139 0v1495h312v-555q133 178 342 178q97 0 186 -37.5t159 -107.5t112 -179.5t42 -242.5v-4q0 -133 -41 -242.5t-111 -179.5t-159 -107.5t-188 -37.5q-205 0 -342 163v-143h-312zM446 547q0 -134 78 -218.5t189 -84.5q112 0 190 84t78 219v4q0 133 -78 218t-190 85 q-111 0 -189 -84.5t-78 -218.5v-4z" />
<glyph unicode="c" horiz-adv-x="1169" d="M86 543v4q0 156 73 286t206 207.5t297 77.5q149 0 253 -46.5t185 -137.5l-191 -205q-58 61 -115 91t-135 30q-115 0 -190.5 -87.5t-75.5 -211.5v-4q0 -129 77 -216t202 -87q74 0 132 29t120 87l182 -184q-89 -98 -192.5 -149.5t-256.5 -51.5q-162 0 -293.5 76.5 t-204.5 206.5t-73 285z" />
<glyph unicode="d" horiz-adv-x="1382" d="M90 547v4q0 133 41.5 242.5t111.5 179.5t159 107.5t188 37.5q204 0 342 -164v541h311v-1495h-311v158q-133 -178 -342 -178q-97 0 -186 37.5t-159.5 107.5t-112.5 179.5t-42 242.5zM401 547q0 -133 78.5 -218t190.5 -85q111 0 188.5 84.5t77.5 218.5v4q0 134 -77.5 218.5 t-188.5 84.5q-112 0 -190.5 -84.5t-78.5 -218.5v-4z" />
<glyph unicode="e" horiz-adv-x="1255" d="M86 543v4q0 156 68.5 286t193.5 207.5t281 77.5q133 0 237.5 -49t168 -133t96 -189.5t32.5 -224.5q0 -24 -4 -82h-764q23 -105 93.5 -160t175.5 -55q78 0 139.5 26.5t126.5 86.5l178 -158q-165 -205 -449 -205q-249 0 -411 159t-162 409zM391 635h469q-14 107 -74.5 170 t-156.5 63q-95 0 -157 -62.5t-81 -170.5z" />
<glyph unicode="f" horiz-adv-x="782" d="M63 831v256h130v70q0 178 88 266q86 86 251 86q127 0 222 -30v-258q-73 26 -142 26q-112 0 -112 -119v-43h252v-254h-248v-831h-311v831h-130z" />
<glyph unicode="g" horiz-adv-x="1382" d="M90 602v4q0 119 40.5 217.5t109 162t156 98t182.5 34.5q118 0 200 -42.5t154 -121.5v144h311v-850q0 -293 -139 -432q-148 -148 -473 -148q-270 0 -486 115l107 233q179 -100 371 -100q313 0 313 299v53q-74 -89 -157 -133.5t-201 -44.5q-97 0 -184.5 35t-155.5 98.5 t-108 161.5t-40 217zM401 602q0 -113 76 -183.5t191 -70.5t191.5 71.5t76.5 182.5v4q0 111 -76.5 182.5t-191.5 71.5t-191 -71t-76 -183v-4z" />
<glyph unicode="h" horiz-adv-x="1275" d="M139 0v1495h312v-553q64 82 138.5 129t182.5 47q176 0 274.5 -108.5t98.5 -298.5v-711h-311v612q0 109 -49.5 166.5t-139.5 57.5q-91 0 -142.5 -57.5t-51.5 -166.5v-612h-312z" />
<glyph unicode="i" horiz-adv-x="618" d="M145 1219v276h328v-276h-328zM154 0v1098h311v-1098h-311z" />
<glyph unicode="j" horiz-adv-x="618" d="M-23 -78q37 -6 66 -6q111 0 111 127v1055h311v-1080q0 -352 -352 -352q-71 0 -136 12v244zM145 1219v276h328v-276h-328z" />
<glyph unicode="k" horiz-adv-x="1212" d="M139 0v1495h312v-797l364 400h373l-418 -432l432 -666h-360l-281 451l-110 -117v-334h-312z" />
<glyph unicode="l" horiz-adv-x="618" d="M154 0v1495h311v-1495h-311z" />
<glyph unicode="m" horiz-adv-x="1945" d="M139 0v1098h312v-156q64 82 139.5 129t183.5 47q107 0 186.5 -45t122.5 -129q148 174 361 174q175 0 273 -103.5t98 -299.5v-715h-312v612q0 110 -47 167t-135 57q-89 0 -138.5 -57.5t-49.5 -166.5v-612h-312v612q0 110 -47 167t-135 57q-89 0 -138.5 -57.5t-49.5 -166.5 v-612h-312z" />
<glyph unicode="n" horiz-adv-x="1275" d="M139 0v1098h312v-156q64 82 138.5 129t182.5 47q176 0 274.5 -108.5t98.5 -298.5v-711h-311v612q0 109 -49.5 166.5t-139.5 57.5q-91 0 -142.5 -57.5t-51.5 -166.5v-612h-312z" />
<glyph unicode="o" horiz-adv-x="1359" d="M86 543v4q0 117 45.5 222t124 182t189.5 122t237 45q167 0 303 -75.5t212.5 -205.5t76.5 -286v-4q0 -156 -77 -287t-214 -208t-305 -77q-167 0 -303 76t-212.5 206t-76.5 286zM393 547q0 -125 81.5 -214t207.5 -89q129 0 207 86.5t78 212.5v4q0 125 -81.5 214t-207.5 89 q-129 0 -207 -86.5t-78 -212.5v-4z" />
<glyph unicode="p" horiz-adv-x="1382" d="M139 -328v1426h312v-158q133 178 342 178q97 0 186 -37.5t159 -107.5t112 -179.5t42 -242.5v-4q0 -133 -41 -242.5t-111 -179.5t-159 -107.5t-188 -37.5q-205 0 -342 163v-471h-312zM446 547q0 -134 78 -218.5t189 -84.5q112 0 190 84t78 219v4q0 133 -78 218t-190 85 q-111 0 -189 -84.5t-78 -218.5v-4z" />
<glyph unicode="q" horiz-adv-x="1382" d="M90 547v4q0 133 41.5 242.5t111.5 179.5t159 107.5t188 37.5q204 0 342 -164v144h311v-1426h-311v486q-133 -178 -342 -178q-97 0 -186 37.5t-159.5 107.5t-112.5 179.5t-42 242.5zM401 547q0 -133 78.5 -218t190.5 -85q111 0 188.5 84.5t77.5 218.5v4q0 134 -77.5 218.5 t-188.5 84.5q-112 0 -190.5 -84.5t-78.5 -218.5v-4z" />
<glyph unicode="r" horiz-adv-x="856" d="M139 0v1098h312v-221q100 241 330 241h20v-325h-17q-159 0 -246 -97t-87 -290v-406h-312z" />
<glyph unicode="s" horiz-adv-x="1028" d="M53 145l133 205q181 -131 346 -131q66 0 99 22t33 60v4q0 11 -3.5 21t-11.5 18.5t-16.5 15.5t-24 14t-27.5 12t-32.5 12t-34.5 11t-38.5 11.5t-39.5 11.5q-54 16 -94 31.5t-86.5 43t-76.5 60.5t-50 83.5t-20 111.5v4q0 162 114.5 255t286.5 93q104 0 212.5 -33.5 t197.5 -93.5l-119 -215q-176 102 -297 102q-55 0 -85 -21t-30 -54v-4q0 -26 28.5 -48.5t63 -36t98.5 -35.5q7 -2 11 -3.5t10.5 -3.5t11.5 -4q55 -18 94.5 -34t88 -44.5t78 -60.5t50.5 -80.5t21 -106.5v-4q0 -175 -116 -264.5t-304 -89.5q-121 0 -243.5 41t-227.5 124z" />
<glyph unicode="t" horiz-adv-x="849" d="M59 831v267h131v280h312v-280h258v-267h-258v-469q0 -54 24 -80t76 -26q84 0 154 39v-250q-107 -63 -246 -63q-154 0 -237 74.5t-83 254.5v520h-131z" />
<glyph unicode="u" horiz-adv-x="1275" d="M131 387v711h311v-613q0 -109 49.5 -166t139.5 -57q91 0 142.5 57.5t51.5 165.5v613h312v-1098h-312v156q-64 -82 -138.5 -129t-182.5 -47q-176 0 -274.5 108.5t-98.5 298.5z" />
<glyph unicode="v" horiz-adv-x="1228" d="M41 1098h330l245 -736l248 736h324l-432 -1106h-283z" />
<glyph unicode="w" horiz-adv-x="1763" d="M49 1098h316l176 -666l207 670h268l209 -672l180 668h309l-342 -1106h-280l-211 674l-215 -674h-279z" />
<glyph unicode="x" horiz-adv-x="1196" d="M47 0l385 557l-371 541h334l205 -322l207 322h326l-371 -537l387 -561h-334l-221 342l-221 -342h-326z" />
<glyph unicode="y" horiz-adv-x="1228" d="M41 1098h330l250 -748l239 748h324l-422 -1125q-64 -169 -143.5 -238t-217.5 -69q-147 0 -276 76l104 225q71 -43 133 -43q40 0 64.5 15.5t44.5 56.5z" />
<glyph unicode="z" horiz-adv-x="1153" d="M102 0v219l568 627h-549v252h936v-219l-570 -627h570v-252h-955z" />
<glyph unicode="{" horiz-adv-x="1003" d="M100 469v238h54q122 0 173.5 46.5t51.5 164.5q0 18 -3 72t-3 69q0 82 22.5 143t76 112.5t147.5 88.5t233 61l55 -207q-81 -23 -130.5 -45.5t-76 -52.5t-35 -62t-8.5 -83q0 -20 3.5 -75t3.5 -77q0 -109 -53 -174t-160 -100q106 -35 159.5 -100.5t53.5 -174.5 q0 -22 -3.5 -76.5t-3.5 -74.5q0 -51 8.5 -83t35 -62.5t76 -53t130.5 -45.5l-55 -207q-139 24 -233 61t-147.5 89t-76 113t-22.5 143q0 15 3 69t3 72q0 118 -51.5 164.5t-173.5 46.5h-54z" />
<glyph unicode="|" horiz-adv-x="716" d="M236 -262v1896h245v-1896h-245z" />
<glyph unicode="}" horiz-adv-x="1003" d="M96 -82q81 23 130.5 45.5t76 53t35 62.5t8.5 83q0 20 -3 74.5t-3 76.5q0 109 53.5 174.5t159.5 100.5q-107 35 -160 100t-53 174q0 22 3 77t3 75q0 51 -8.5 83t-35 62t-76 52.5t-130.5 45.5l56 207q139 -24 233 -61t147.5 -88.5t76 -112.5t22.5 -143q0 -15 -3 -69t-3 -72 q0 -118 51.5 -164.5t173.5 -46.5h53v-238h-53q-122 0 -173.5 -46.5t-51.5 -164.5q0 -18 3 -72t3 -69q0 -82 -22.5 -143t-76 -113t-147.5 -89t-233 -61z" />
<glyph unicode="~" horiz-adv-x="1044" d="M100 510q39 141 96 212t158 71q72 0 187 -45q91 -35 121 -35q44 0 68 23t48 77l166 -51q-39 -141 -96 -212t-158 -71q-71 0 -186 45q-91 35 -121 35q-44 0 -68.5 -23t-48.5 -77z" />
<glyph unicode="&#xa1;" horiz-adv-x="663" d="M150 0v41l96 905h172l96 -905v-41h-364zM166 1106v328h332v-328h-332z" />
<glyph unicode="&#xa2;" horiz-adv-x="1189" d="M96 723v4q0 156 73.5 286.5t205.5 207.5t295 77h12l29 148h213l-37 -180q133 -46 223 -152l-184 -199q-50 50 -101 76l-110 -565q112 16 219 115l176 -179q-179 -201 -438 -206l-33 -168h-213l39 200q-164 61 -266.5 206.5t-102.5 328.5zM397 727q0 -88 34 -158t97 -108 l111 567q-105 -7 -173.5 -93t-68.5 -204v-4z" />
<glyph unicode="&#xa3;" horiz-adv-x="1318" d="M123 0v207l156 51v289h-156v260h156v166q0 228 122 350q131 131 363 131q161 0 270 -62t191 -173l-240 -193q-55 71 -104.5 103t-112.5 32q-72 0 -117 -45q-53 -53 -53 -151v-158h467v-260h-467v-275h623v-272h-1098z" />
<glyph unicode="&#xa5;" horiz-adv-x="1404" d="M29 1434h362l314 -531l319 531h352l-440 -676h295v-221h-377v-127h377v-222h-377v-188h-303v188h-377v222h377v127h-377v221h293z" />
<glyph unicode="&#xa7;" horiz-adv-x="1294" d="M113 702v5q0 170 182 239q-86 69 -86 187v4q0 147 112 232t308 85q299 0 477 -194l-168 -168q-148 135 -301 135q-64 0 -99.5 -20t-35.5 -54v-4q0 -35 43.5 -59t181.5 -54q249 -55 352 -122t103 -183v-4q0 -171 -183 -240q41 -32 63.5 -81.5t22.5 -104.5v-4 q0 -146 -110.5 -231.5t-308.5 -85.5q-300 0 -478 194l168 168q148 -135 301 -135q67 0 101.5 20t34.5 54v4q0 36 -46.5 59.5t-179.5 52.5q-247 55 -350.5 123t-103.5 182zM385 748q0 -38 48.5 -65t158.5 -54q145 -37 205 -37q49 0 80.5 24t31.5 66v4q0 38 -48.5 65 t-158.5 54q-145 37 -204 37q-49 0 -81 -24t-32 -66v-4z" />
<glyph unicode="&#xa8;" horiz-adv-x="1024" d="M150 1219v276h299v-276h-299zM575 1219v276h299v-276h-299z" />
<glyph unicode="&#xa9;" horiz-adv-x="1699" d="M109 713v4q0 149 58 285.5t157 236.5t237 159.5t291 59.5t290.5 -59t235.5 -158t155.5 -235t57.5 -285v-4q0 -149 -58 -285.5t-157 -237t-237 -160t-291 -59.5t-290.5 59t-235.5 158.5t-155.5 235.5t-57.5 285zM195 713q0 -134 50 -255t136 -209t208 -140t259 -52 q138 0 260.5 52.5t209 141.5t137 210.5t50.5 255.5v4q0 179 -84.5 329t-235 238t-333.5 88q-138 0 -260.5 -52.5t-209 -141t-137 -210t-50.5 -255.5v-4zM455 723v4q0 171 115.5 289.5t293.5 118.5q106 0 178.5 -31t133.5 -90l-113 -131q-98 88 -199 88q-97 0 -161 -70.5 t-64 -171.5v-4q0 -100 63.5 -171t161.5 -71q61 0 106 22.5t97 69.5l115 -114q-66 -71 -141 -106.5t-183 -35.5q-172 0 -287.5 117t-115.5 287z" />
<glyph unicode="&#xaa;" horiz-adv-x="798" d="M100 567v135h570v-135h-570zM106 1001v5q0 95 66 143.5t178 48.5q74 0 148 -24v10q0 53 -33.5 81.5t-97.5 28.5q-78 0 -166 -32l-43 129q107 49 233 49q137 0 205 -68q66 -66 66 -192v-351h-166v66q-68 -78 -183 -78q-90 0 -148.5 49t-58.5 135zM272 1010q0 -34 25.5 -54 t67.5 -20q60 0 97.5 30t37.5 76v31q-59 23 -111 23q-55 0 -86 -21.5t-31 -60.5v-4z" />
<glyph unicode="&#xab;" horiz-adv-x="1320" d="M84 541v16l365 455l217 -107l-246 -354l246 -354l-217 -111zM641 541v16l365 455l217 -107l-246 -354l246 -354l-217 -111z" />
<glyph unicode="&#xad;" horiz-adv-x="835" d="M102 485v299h631v-299h-631z" />
<glyph unicode="&#xae;" horiz-adv-x="753" d="M20 1094v2q0 147 104.5 252.5t252.5 105.5q150 0 253 -104.5t103 -251.5v-2q0 -147 -104 -253t-252 -106q-150 0 -253.5 105t-103.5 252zM61 1094q0 -132 91 -225t225 -93q132 0 223.5 94t91.5 226v2q0 132 -90.5 224.5t-224.5 92.5q-133 0 -224.5 -94t-91.5 -225v-2z M221 913v377h180q72 0 115 -31.5t43 -95.5q0 -43 -21 -74t-57 -45l90 -131h-122l-76 113h-45v-113h-107zM328 1110h67q27 0 42.5 12t15.5 33q0 45 -58 45h-67v-90z" />
<glyph unicode="&#xaf;" horiz-adv-x="1024" d="M143 1229v215h738v-215h-738z" />
<glyph unicode="&#xb0;" horiz-adv-x="983" d="M137 1098v4q0 91 49.5 171t131.5 126.5t174 46.5q140 0 247 -102.5t107 -241.5v-4q0 -139 -107 -241.5t-247 -102.5q-92 0 -174 46.5t-131.5 126.5t-49.5 171zM303 1098q0 -78 54.5 -134.5t134.5 -56.5t134 56.5t54 134.5v4q0 78 -54 134t-134 56t-134.5 -56t-54.5 -134 v-4z" />
<glyph unicode="&#xb1;" horiz-adv-x="1310" d="M150 0v258h1011v-258h-1011zM150 776v271l368 -3l-2 363h279l-2 -363l368 3v-271l-368 2l2 -362h-279l2 362z" />
<glyph unicode="&#xb2;" horiz-adv-x="819" d="M106 860v154l273 221q77 63 107 101t30 83q0 43 -31 68.5t-77 25.5q-90 0 -175 -108l-127 104q65 86 135.5 128t176.5 42q129 0 206.5 -67t77.5 -176q0 -82 -37 -142t-130 -133l-185 -145h357v-156h-601z" />
<glyph unicode="&#xb3;" horiz-adv-x="819" d="M82 963l104 133q109 -95 217 -95q49 0 85 28t36 71q0 48 -39.5 73t-107.5 25h-96l-29 113l213 188h-328v160h553v-139l-227 -193q108 -8 175 -64t67 -157q0 -120 -82 -193t-222 -73q-179 0 -319 123z" />
<glyph unicode="&#xb4;" horiz-adv-x="1024" d="M303 1219l227 362l269 -117l-267 -245h-229z" />
<glyph unicode="&#xb6;" horiz-adv-x="1208" d="M72 948v4q0 223 155 352.5t410 129.5h399v-1434h-315v471h-49q-175 0 -308.5 52t-212.5 161.5t-79 263.5z" />
<glyph unicode="&#xb7;" horiz-adv-x="585" d="M127 471v328h332v-328h-332z" />
<glyph unicode="&#xb8;" horiz-adv-x="1024" d="M242 -246l196 287h224l-160 -395z" />
<glyph unicode="&#xb9;" horiz-adv-x="665" d="M90 1571l250 98h131v-809h-176v621l-154 -58z" />
<glyph unicode="&#xba;" horiz-adv-x="798" d="M84 1126v4q0 131 91.5 222.5t225.5 91.5t224 -90t90 -221v-5q0 -131 -92 -222t-226 -91t-223.5 90t-89.5 221zM104 567v135h590v-135h-590zM252 1128q0 -68 41.5 -116.5t107.5 -48.5t106 47.5t40 115.5v4q0 68 -42 117t-108 49q-65 0 -105 -47.5t-40 -115.5v-5z" />
<glyph unicode="&#xbb;" horiz-adv-x="1320" d="M98 193l246 354l-246 354l217 111l365 -455v-16l-365 -455zM655 193l246 354l-246 354l217 111l365 -455v-16l-365 -455z" />
<glyph unicode="&#xbc;" horiz-adv-x="1689" d="M90 1346l250 98h131v-809h-176v620l-154 -57zM248 0l520 752l453 682h170l-521 -752l-452 -682h-170zM948 334l385 473h180v-502h107v-141h-107v-168h-163v168h-385zM1102 303h250v311z" />
<glyph unicode="&#xbd;" horiz-adv-x="1689" d="M90 1346l250 98h131v-809h-176v620l-154 -57zM227 0l521 752l452 682h170l-520 -752l-453 -682h-170zM997 0v154l273 221q77 63 107 101t30 83q0 43 -31.5 68.5t-77.5 25.5q-89 0 -174 -108l-127 104q65 86 135.5 128t176.5 42q128 0 206 -67.5t78 -176.5 q0 -81 -37.5 -140.5t-130.5 -133.5l-184 -145h356v-156h-600z" />
<glyph unicode="&#xbe;" horiz-adv-x="1843" d="M82 737l104 133q108 -94 217 -94q49 0 85 27.5t36 70.5q0 48 -39.5 73.5t-107.5 25.5h-96l-29 112l213 189h-328v160h553v-140l-227 -192q108 -8 175 -64t67 -157q0 -120 -82 -193.5t-222 -73.5q-179 0 -319 123zM391 0l520 752l453 682h170l-520 -752l-453 -682h-170z M1102 334l385 473h180v-502h107v-141h-107v-168h-164v168h-385zM1255 303h250v311z" />
<glyph unicode="&#xbf;" horiz-adv-x="1114" d="M76 406v4q0 94 30.5 166.5t88 120t126.5 77t158 47.5l23 125h209l47 -332l-10 -10q-188 -7 -273.5 -54t-85.5 -132v-4q0 -69 50 -107.5t139 -38.5q165 0 307 142l188 -207q-201 -221 -502 -221q-225 0 -360 111.5t-135 312.5zM446 1106v328h332v-328h-332z" />
<glyph unicode="&#xc0;" d="M49 0l615 1444h290l615 -1444h-330l-131 322h-606l-131 -322h-322zM420 1772l268 116l248 -321h-238zM614 600h381l-190 465z" />
<glyph unicode="&#xc1;" d="M49 0l615 1444h290l615 -1444h-330l-131 322h-606l-131 -322h-322zM614 600h381l-190 465zM682 1567l248 321l268 -116l-278 -205h-238z" />
<glyph unicode="&#xc2;" d="M49 0l615 1444h290l615 -1444h-330l-131 322h-606l-131 -322h-322zM399 1556l263 302h294l263 -302h-250l-162 115l-162 -115h-246zM614 600h381l-190 465z" />
<glyph unicode="&#xc3;" d="M49 0l615 1444h290l615 -1444h-330l-131 322h-606l-131 -322h-322zM389 1597q38 140 96.5 211.5t159.5 71.5q78 0 199 -47q90 -33 121 -33q44 0 69 23.5t49 77.5l166 -52q-38 -140 -96.5 -211t-159.5 -71q-77 0 -198 47q-90 33 -121 33q-45 0 -70 -23.5t-49 -77.5z M614 600h381l-190 465z" />
<glyph unicode="&#xc4;" d="M49 0l615 1444h290l615 -1444h-330l-131 322h-606l-131 -322h-322zM436 1567v260h299v-260h-299zM614 600h381l-190 465zM883 1567v260h299v-260h-299z" />
<glyph unicode="&#xc5;" d="M49 0l578 1360q-72 62 -72 160t74.5 161.5t179.5 63.5t179.5 -63.5t74.5 -161.5q0 -95 -72 -160l578 -1360h-330l-131 322h-606l-131 -322h-322zM614 600h381l-190 465zM680 1520q0 -48 36 -81.5t93 -33.5t93 33.5t36 81.5t-36 81t-93 33t-93 -33t-36 -81z" />
<glyph unicode="&#xc6;" horiz-adv-x="2140" d="M18 0l773 1434h1230v-281h-716v-291h624v-280h-624v-301h727v-281h-1041v322h-481l-170 -322h-322zM657 600h334v561h-37z" />
<glyph unicode="&#xc7;" horiz-adv-x="1511" d="M109 713v4q0 203 94 372t266 269t387 100q190 0 323 -57t242 -164l-200 -231q-88 79 -176 120t-191 41q-179 0 -297.5 -129.5t-118.5 -316.5v-4q0 -188 117.5 -319.5t298.5 -131.5q114 0 198 41t179 127l201 -203q-110 -118 -235.5 -181.5t-299.5 -72.5l-133 -331 l-260 108l164 242q-248 56 -403.5 254.5t-155.5 462.5z" />
<glyph unicode="&#xc8;" horiz-adv-x="1372" d="M172 0v1434h1081v-281h-768v-291h676v-280h-676v-301h779v-281h-1092zM328 1751l268 117l248 -322h-238z" />
<glyph unicode="&#xc9;" horiz-adv-x="1372" d="M172 0v1434h1081v-281h-768v-291h676v-280h-676v-301h779v-281h-1092zM590 1546l248 322l268 -117l-279 -205h-237z" />
<glyph unicode="&#xca;" horiz-adv-x="1372" d="M172 0v1434h1081v-281h-768v-291h676v-280h-676v-301h779v-281h-1092zM307 1546l262 301h295l262 -301h-249l-162 115l-162 -115h-246z" />
<glyph unicode="&#xcb;" horiz-adv-x="1372" d="M172 0v1434h1081v-281h-768v-291h676v-280h-676v-301h779v-281h-1092zM344 1546v260h299v-260h-299zM791 1546v260h299v-260h-299z" />
<glyph unicode="&#xcc;" horiz-adv-x="688" d="M-45 1751l268 117l248 -322h-238zM186 0v1434h316v-1434h-316z" />
<glyph unicode="&#xcd;" horiz-adv-x="688" d="M186 0v1434h316v-1434h-316zM217 1546l248 322l268 -117l-278 -205h-238z" />
<glyph unicode="&#xce;" horiz-adv-x="688" d="M-66 1546l263 301h295l262 -301h-250l-162 115l-162 -115h-246zM186 0v1434h316v-1434h-316z" />
<glyph unicode="&#xcf;" horiz-adv-x="688" d="M-29 1546v260h299v-260h-299zM186 0v1434h316v-1434h-316zM418 1546v260h299v-260h-299z" />
<glyph unicode="&#xd0;" horiz-adv-x="1662" d="M80 582v278h153v574h560q166 0 308.5 -55t241.5 -150t155 -226.5t56 -281.5v-4q0 -150 -56 -282t-155 -228t-241.5 -151.5t-308.5 -55.5h-560v582h-153zM549 285h244q193 0 312.5 118.5t119.5 309.5v4q0 191 -119.5 311.5t-312.5 120.5h-244v-289h307v-278h-307v-297z " />
<glyph unicode="&#xd1;" d="M172 0v1434h291l672 -883v883h311v-1434h-268l-695 911v-911h-311zM389 1577q38 140 96.5 211.5t159.5 71.5q76 0 199 -48q87 -32 121 -32q45 0 69.5 23t48.5 77l166 -51q-38 -140 -96.5 -211.5t-159.5 -71.5q-77 0 -198 47q-90 33 -121 33q-45 0 -70.5 -23.5 t-48.5 -76.5z" />
<glyph unicode="&#xd2;" horiz-adv-x="1740" d="M109 713v4q0 151 57.5 287.5t157.5 236.5t243 158.5t305 58.5q216 0 391 -99t272 -267.5t97 -370.5v-4q0 -151 -58 -287.5t-158 -236.5t-243 -159t-305 -59t-304.5 58t-241.5 157.5t-156 235.5t-57 287zM438 717q0 -122 55 -225t155 -164.5t224 -61.5t223.5 60.5 t153.5 162.5t54 224v4q0 187 -123.5 318.5t-311.5 131.5q-124 0 -223 -60t-153 -162t-54 -224v-4zM481 1772l269 116l247 -321h-237z" />
<glyph unicode="&#xd3;" horiz-adv-x="1740" d="M109 713v4q0 151 57.5 287.5t157.5 236.5t243 158.5t305 58.5q216 0 391 -99t272 -267.5t97 -370.5v-4q0 -151 -58 -287.5t-158 -236.5t-243 -159t-305 -59t-304.5 58t-241.5 157.5t-156 235.5t-57 287zM438 717q0 -122 55 -225t155 -164.5t224 -61.5t223.5 60.5 t153.5 162.5t54 224v4q0 187 -123.5 318.5t-311.5 131.5q-124 0 -223 -60t-153 -162t-54 -224v-4zM743 1567l248 321l269 -116l-279 -205h-238z" />
<glyph unicode="&#xd4;" horiz-adv-x="1740" d="M109 713v4q0 151 57.5 287.5t157.5 236.5t243 158.5t305 58.5q216 0 391 -99t272 -267.5t97 -370.5v-4q0 -151 -58 -287.5t-158 -236.5t-243 -159t-305 -59t-304.5 58t-241.5 157.5t-156 235.5t-57 287zM438 717q0 -122 55 -225t155 -164.5t224 -61.5t223.5 60.5 t153.5 162.5t54 224v4q0 187 -123.5 318.5t-311.5 131.5q-124 0 -223 -60t-153 -162t-54 -224v-4zM461 1567l262 301h295l262 -301h-250l-162 114l-161 -114h-246z" />
<glyph unicode="&#xd5;" horiz-adv-x="1740" d="M109 713v4q0 151 57.5 287.5t157.5 236.5t243 158.5t305 58.5q216 0 391 -99t272 -267.5t97 -370.5v-4q0 -151 -58 -287.5t-158 -236.5t-243 -159t-305 -59t-304.5 58t-241.5 157.5t-156 235.5t-57 287zM438 717q0 -122 55 -225t155 -164.5t224 -61.5t223.5 60.5 t153.5 162.5t54 224v4q0 187 -123.5 318.5t-311.5 131.5q-124 0 -223 -60t-153 -162t-54 -224v-4zM451 1597q38 140 96.5 211.5t159.5 71.5q77 0 198 -47q90 -33 121 -33q45 0 70 23.5t49 77.5l166 -52q-38 -140 -96.5 -211t-159.5 -71q-78 0 -199 47q-90 33 -121 33 q-45 0 -70 -23.5t-49 -77.5z" />
<glyph unicode="&#xd6;" horiz-adv-x="1740" d="M109 713v4q0 151 57.5 287.5t157.5 236.5t243 158.5t305 58.5q216 0 391 -99t272 -267.5t97 -370.5v-4q0 -151 -58 -287.5t-158 -236.5t-243 -159t-305 -59t-304.5 58t-241.5 157.5t-156 235.5t-57 287zM438 717q0 -122 55 -225t155 -164.5t224 -61.5t223.5 60.5 t153.5 162.5t54 224v4q0 187 -123.5 318.5t-311.5 131.5q-124 0 -223 -60t-153 -162t-54 -224v-4zM498 1567v260h299v-260h-299zM944 1567v260h299v-260h-299z" />
<glyph unicode="&#xd7;" horiz-adv-x="1310" d="M145 401l326 318l-326 317l195 195l317 -326l318 326l190 -191l-325 -317l325 -317l-194 -195l-318 326l-317 -326z" />
<glyph unicode="&#xd8;" horiz-adv-x="1740" d="M92 -10l201 233q-88 97 -136 223.5t-48 266.5v4q0 151 57.5 287.5t157.5 236.5t243 158.5t305 58.5q213 0 396 -102l80 88h301l-201 -234q88 -98 136 -223.5t48 -265.5v-4q0 -151 -58 -287.5t-158 -236.5t-243 -159t-305 -59q-219 0 -395 103l-80 -88h-301zM432 717 q0 -141 72 -254l567 661q-95 50 -203 50q-189 0 -312.5 -132t-123.5 -321v-4zM670 309q93 -49 202 -49q189 0 313 132t124 321v4q0 136 -72 254z" />
<glyph unicode="&#xd9;" horiz-adv-x="1548" d="M150 614v820h315v-811q0 -173 81 -264t228 -91t228 88t81 256v822h316v-809q0 -319 -166.5 -483.5t-462.5 -164.5q-294 0 -457 162.5t-163 474.5zM385 1751l268 117l248 -322h-237z" />
<glyph unicode="&#xda;" horiz-adv-x="1548" d="M150 614v820h315v-811q0 -173 81 -264t228 -91t228 88t81 256v822h316v-809q0 -319 -166.5 -483.5t-462.5 -164.5q-294 0 -457 162.5t-163 474.5zM647 1546l248 322l268 -117l-278 -205h-238z" />
<glyph unicode="&#xdb;" horiz-adv-x="1548" d="M150 614v820h315v-811q0 -173 81 -264t228 -91t228 88t81 256v822h316v-809q0 -319 -166.5 -483.5t-462.5 -164.5q-294 0 -457 162.5t-163 474.5zM365 1546l262 301h295l262 -301h-250l-162 115l-162 -115h-245z" />
<glyph unicode="&#xdc;" horiz-adv-x="1548" d="M150 614v820h315v-811q0 -173 81 -264t228 -91t228 88t81 256v822h316v-809q0 -319 -166.5 -483.5t-462.5 -164.5q-294 0 -457 162.5t-163 474.5zM401 1546v260h299v-260h-299zM848 1546v260h299v-260h-299z" />
<glyph unicode="&#xdd;" horiz-adv-x="1466" d="M25 1434h368l342 -576l348 576h359l-551 -863v-571h-316v565zM606 1546l248 322l268 -117l-278 -205h-238z" />
<glyph unicode="&#xde;" horiz-adv-x="1378" d="M172 0v1434h315v-209h271q253 0 401 -136.5t148 -359.5v-4q0 -121 -45 -218t-124.5 -159t-184 -94.5t-226.5 -32.5h-240v-221h-315zM487 502h250q116 0 183 61t67 156v4q0 104 -68 160.5t-188 56.5h-244v-438z" />
<glyph unicode="&#xdf;" horiz-adv-x="1269" d="M139 0v1030q0 225 136 352t368 127q213 0 335 -112t122 -285v-4q0 -83 -27 -149.5t-64.5 -105.5t-95.5 -79q269 -116 269 -362v-4q0 -203 -154.5 -313t-415.5 -99v233q127 6 194.5 54t67.5 135v4q0 80 -72 131.5t-190 67.5v204q181 114 181 254v4q0 76 -44.5 120 t-119.5 44q-80 0 -130 -56t-50 -149v-1042h-310z" />
<glyph unicode="&#xe0;" horiz-adv-x="1212" d="M74 315v4q0 174 119.5 262.5t322.5 88.5q138 0 268 -45v18q0 98 -59.5 149.5t-175.5 51.5q-141 0 -303 -60l-78 238q100 44 198 66t228 22q248 0 371 -123q118 -118 118 -350v-637h-301v119q-126 -139 -331 -139q-162 0 -269.5 89t-107.5 246zM238 1464l268 117l227 -362 h-229zM375 328q0 -62 47 -97.5t123 -35.5q108 0 175.5 53.5t67.5 138.5v55q-87 41 -198 41q-101 0 -158 -39t-57 -112v-4z" />
<glyph unicode="&#xe1;" horiz-adv-x="1212" d="M74 315v4q0 174 119.5 262.5t322.5 88.5q138 0 268 -45v18q0 98 -59.5 149.5t-175.5 51.5q-141 0 -303 -60l-78 238q100 44 198 66t228 22q248 0 371 -123q118 -118 118 -350v-637h-301v119q-126 -139 -331 -139q-162 0 -269.5 89t-107.5 246zM375 328q0 -62 47 -97.5 t123 -35.5q108 0 175.5 53.5t67.5 138.5v55q-87 41 -198 41q-101 0 -158 -39t-57 -112v-4zM487 1219l228 362l268 -117l-266 -245h-230z" />
<glyph unicode="&#xe2;" horiz-adv-x="1212" d="M74 315v4q0 174 119.5 262.5t322.5 88.5q138 0 268 -45v18q0 98 -59.5 149.5t-175.5 51.5q-141 0 -303 -60l-78 238q100 44 198 66t228 22q248 0 371 -123q118 -118 118 -350v-637h-301v119q-126 -139 -331 -139q-162 0 -269.5 89t-107.5 246zM211 1219l252 321h295 l252 -321h-240l-162 135l-162 -135h-235zM375 328q0 -62 47 -97.5t123 -35.5q108 0 175.5 53.5t67.5 138.5v55q-87 41 -198 41q-101 0 -158 -39t-57 -112v-4z" />
<glyph unicode="&#xe3;" horiz-adv-x="1212" d="M74 315v4q0 174 119.5 262.5t322.5 88.5q138 0 268 -45v18q0 98 -59.5 149.5t-175.5 51.5q-141 0 -303 -60l-78 238q100 44 198 66t228 22q248 0 371 -123q118 -118 118 -350v-637h-301v119q-126 -139 -331 -139q-162 0 -269.5 89t-107.5 246zM199 1249q39 141 96 212 t158 71q71 0 186 -45q91 -35 121 -35q44 0 68.5 23t48.5 77l165 -51q-38 -141 -95.5 -211.5t-158.5 -70.5q-71 0 -186 45q-89 34 -121 34q-44 0 -68 -23t-48 -77zM375 328q0 -62 47 -97.5t123 -35.5q108 0 175.5 53.5t67.5 138.5v55q-87 41 -198 41q-101 0 -158 -39 t-57 -112v-4z" />
<glyph unicode="&#xe4;" horiz-adv-x="1212" d="M74 315v4q0 174 119.5 262.5t322.5 88.5q138 0 268 -45v18q0 98 -59.5 149.5t-175.5 51.5q-141 0 -303 -60l-78 238q100 44 198 66t228 22q248 0 371 -123q118 -118 118 -350v-637h-301v119q-126 -139 -331 -139q-162 0 -269.5 89t-107.5 246zM248 1219v276h299v-276 h-299zM375 328q0 -62 47 -97.5t123 -35.5q108 0 175.5 53.5t67.5 138.5v55q-87 41 -198 41q-101 0 -158 -39t-57 -112v-4zM674 1219v276h299v-276h-299z" />
<glyph unicode="&#xe5;" horiz-adv-x="1212" d="M74 315v4q0 174 119.5 262.5t322.5 88.5q138 0 268 -45v18q0 98 -59.5 149.5t-175.5 51.5q-141 0 -303 -60l-78 238q100 44 198 66t228 22q248 0 371 -123q118 -118 118 -350v-637h-301v119q-126 -139 -331 -139q-162 0 -269.5 89t-107.5 246zM362 1454q0 100 72.5 170 t175.5 70t175.5 -70t72.5 -170t-72.5 -170t-175.5 -70t-175.5 70t-72.5 170zM375 328q0 -62 47 -97.5t123 -35.5q108 0 175.5 53.5t67.5 138.5v55q-87 41 -198 41q-101 0 -158 -39t-57 -112v-4zM475 1454q0 -56 39.5 -95.5t95.5 -39.5t95.5 39.5t39.5 95.5t-39.5 95.5 t-95.5 39.5t-95.5 -39.5t-39.5 -95.5z" />
<glyph unicode="&#xe6;" horiz-adv-x="1947" d="M74 315v4q0 174 119.5 262.5t322.5 88.5q138 0 268 -45v18q0 98 -59.5 149.5t-175.5 51.5q-141 0 -303 -60l-78 238q100 44 198 66t228 22q259 0 373 -139q144 147 362 147q129 0 231.5 -49t165.5 -133t96 -189.5t33 -224.5q0 -24 -4 -82h-764q23 -105 93.5 -160 t175.5 -55q78 0 139.5 26.5t126.5 86.5l178 -158q-165 -205 -448 -205q-125 0 -233 43.5t-185 122.5q-219 -161 -447 -161q-183 0 -298 89.5t-115 245.5zM375 328q0 -59 48.5 -94t121.5 -35q147 0 280 104q-31 74 -39 141q-90 39 -196 39q-101 0 -158 -39t-57 -112v-4z M1083 635h469q-14 107 -74.5 170t-156.5 63q-95 0 -157 -62.5t-81 -170.5z" />
<glyph unicode="&#xe7;" horiz-adv-x="1169" d="M86 543v4q0 156 73 286t206 207.5t297 77.5q149 0 253 -46.5t185 -137.5l-191 -205q-58 61 -115 91t-135 30q-115 0 -190.5 -87.5t-75.5 -211.5v-4q0 -129 77 -216t202 -87q74 0 132 29t120 87l182 -184q-81 -90 -173 -140.5t-224 -58.5l-134 -331l-260 108l168 246 q-179 53 -288 202t-109 341z" />
<glyph unicode="&#xe8;" horiz-adv-x="1255" d="M86 543v4q0 156 68.5 286t193.5 207.5t281 77.5q133 0 237.5 -49t168 -133t96 -189.5t32.5 -224.5q0 -24 -4 -82h-764q23 -105 93.5 -160t175.5 -55q78 0 139.5 26.5t126.5 86.5l178 -158q-165 -205 -449 -205q-249 0 -411 159t-162 409zM252 1464l268 117l228 -362h-230 zM391 635h469q-14 107 -74.5 170t-156.5 63q-95 0 -157 -62.5t-81 -170.5z" />
<glyph unicode="&#xe9;" horiz-adv-x="1255" d="M86 543v4q0 156 68.5 286t193.5 207.5t281 77.5q133 0 237.5 -49t168 -133t96 -189.5t32.5 -224.5q0 -24 -4 -82h-764q23 -105 93.5 -160t175.5 -55q78 0 139.5 26.5t126.5 86.5l178 -158q-165 -205 -449 -205q-249 0 -411 159t-162 409zM391 635h469q-14 107 -74.5 170 t-156.5 63q-95 0 -157 -62.5t-81 -170.5zM502 1219l227 362l268 -117l-266 -245h-229z" />
<glyph unicode="&#xea;" horiz-adv-x="1255" d="M86 543v4q0 156 68.5 286t193.5 207.5t281 77.5q133 0 237.5 -49t168 -133t96 -189.5t32.5 -224.5q0 -24 -4 -82h-764q23 -105 93.5 -160t175.5 -55q78 0 139.5 26.5t126.5 86.5l178 -158q-165 -205 -449 -205q-249 0 -411 159t-162 409zM225 1219l252 321h295l252 -321 h-240l-161 135l-162 -135h-236zM391 635h469q-14 107 -74.5 170t-156.5 63q-95 0 -157 -62.5t-81 -170.5z" />
<glyph unicode="&#xeb;" horiz-adv-x="1255" d="M86 543v4q0 156 68.5 286t193.5 207.5t281 77.5q133 0 237.5 -49t168 -133t96 -189.5t32.5 -224.5q0 -24 -4 -82h-764q23 -105 93.5 -160t175.5 -55q78 0 139.5 26.5t126.5 86.5l178 -158q-165 -205 -449 -205q-249 0 -411 159t-162 409zM262 1219v276h299v-276h-299z M391 635h469q-14 107 -74.5 170t-156.5 63q-95 0 -157 -62.5t-81 -170.5zM688 1219v276h299v-276h-299z" />
<glyph unicode="&#xec;" horiz-adv-x="618" d="M-63 1464l268 117l227 -362h-229zM154 0v1098h311v-1098h-311z" />
<glyph unicode="&#xed;" horiz-adv-x="618" d="M154 0v1098h311v-1098h-311zM186 1219l228 362l268 -117l-266 -245h-230z" />
<glyph unicode="&#xee;" horiz-adv-x="618" d="M-90 1219l252 321h295l252 -321h-240l-162 135l-162 -135h-235zM154 0v1098h311v-1098h-311z" />
<glyph unicode="&#xef;" horiz-adv-x="618" d="M-53 1219v276h299v-276h-299zM154 0v1098h311v-1098h-311zM373 1219v276h299v-276h-299z" />
<glyph unicode="&#xf0;" horiz-adv-x="1361" d="M86 559v4q0 146 64.5 268t176.5 192.5t246 70.5q73 0 129.5 -17t122.5 -55q-69 101 -172 201l-254 -64l-53 164l156 39q-64 51 -178 133h411l70 -57l246 61l51 -162l-152 -39q322 -338 322 -698v-4q0 -126 -40.5 -238t-115 -197.5t-188 -135.5t-250.5 -50 q-167 0 -303 76.5t-212.5 210t-76.5 297.5zM393 543q0 -124 81.5 -211.5t207.5 -87.5q130 0 207.5 84.5t77.5 210.5v4q0 124 -81.5 211.5t-207.5 87.5q-130 0 -207.5 -84.5t-77.5 -210.5v-4z" />
<glyph unicode="&#xf1;" horiz-adv-x="1275" d="M139 0v1098h312v-156q64 82 138.5 129t182.5 47q176 0 274.5 -108.5t98.5 -298.5v-711h-311v612q0 109 -49.5 166.5t-139.5 57.5q-91 0 -142.5 -57.5t-51.5 -166.5v-612h-312zM229 1249q39 141 96 212t158 71q72 0 187 -45q91 -35 121 -35q44 0 68 23t48 77l166 -51 q-38 -141 -95.5 -211.5t-158.5 -70.5q-71 0 -186 45q-89 34 -121 34q-44 0 -68.5 -23t-48.5 -77z" />
<glyph unicode="&#xf2;" horiz-adv-x="1359" d="M86 543v4q0 117 45.5 222t124 182t189.5 122t237 45q167 0 303 -75.5t212.5 -205.5t76.5 -286v-4q0 -156 -77 -287t-214 -208t-305 -77q-167 0 -303 76t-212.5 206t-76.5 286zM307 1464l268 117l228 -362h-230zM393 547q0 -125 81.5 -214t207.5 -89q129 0 207 86.5 t78 212.5v4q0 125 -81.5 214t-207.5 89q-129 0 -207 -86.5t-78 -212.5v-4z" />
<glyph unicode="&#xf3;" horiz-adv-x="1359" d="M86 543v4q0 117 45.5 222t124 182t189.5 122t237 45q167 0 303 -75.5t212.5 -205.5t76.5 -286v-4q0 -156 -77 -287t-214 -208t-305 -77q-167 0 -303 76t-212.5 206t-76.5 286zM393 547q0 -125 81.5 -214t207.5 -89q129 0 207 86.5t78 212.5v4q0 125 -81.5 214t-207.5 89 q-129 0 -207 -86.5t-78 -212.5v-4zM557 1219l227 362l269 -117l-267 -245h-229z" />
<glyph unicode="&#xf4;" horiz-adv-x="1359" d="M86 543v4q0 117 45.5 222t124 182t189.5 122t237 45q167 0 303 -75.5t212.5 -205.5t76.5 -286v-4q0 -156 -77 -287t-214 -208t-305 -77q-167 0 -303 76t-212.5 206t-76.5 286zM281 1219l251 321h295l252 -321h-239l-162 135l-162 -135h-235zM393 547q0 -125 81.5 -214 t207.5 -89q129 0 207 86.5t78 212.5v4q0 125 -81.5 214t-207.5 89q-129 0 -207 -86.5t-78 -212.5v-4z" />
<glyph unicode="&#xf5;" horiz-adv-x="1359" d="M86 543v4q0 117 45.5 222t124 182t189.5 122t237 45q167 0 303 -75.5t212.5 -205.5t76.5 -286v-4q0 -156 -77 -287t-214 -208t-305 -77q-167 0 -303 76t-212.5 206t-76.5 286zM268 1249q39 141 96 212t158 71q72 0 187 -45q91 -35 120 -35q44 0 68.5 23t48.5 77l166 -51 q-38 -141 -95.5 -211.5t-158.5 -70.5q-71 0 -186 45q-89 34 -121 34q-44 0 -68.5 -23t-48.5 -77zM393 547q0 -125 81.5 -214t207.5 -89q129 0 207 86.5t78 212.5v4q0 125 -81.5 214t-207.5 89q-129 0 -207 -86.5t-78 -212.5v-4z" />
<glyph unicode="&#xf6;" horiz-adv-x="1359" d="M86 543v4q0 117 45.5 222t124 182t189.5 122t237 45q167 0 303 -75.5t212.5 -205.5t76.5 -286v-4q0 -156 -77 -287t-214 -208t-305 -77q-167 0 -303 76t-212.5 206t-76.5 286zM317 1219v276h299v-276h-299zM393 547q0 -125 81.5 -214t207.5 -89q129 0 207 86.5t78 212.5 v4q0 125 -81.5 214t-207.5 89q-129 0 -207 -86.5t-78 -212.5v-4zM743 1219v276h299v-276h-299z" />
<glyph unicode="&#xf7;" horiz-adv-x="1310" d="M139 590v262h1032v-262h-1032zM496 133v295h319v-295h-319zM496 1014v295h319v-295h-319z" />
<glyph unicode="&#xf8;" horiz-adv-x="1359" d="M55 -10l164 188q-133 155 -133 365v4q0 117 45.5 222t124 182t189.5 122t237 45q160 0 293 -71l57 61h273l-166 -190q135 -158 135 -367v-4q0 -156 -77 -287t-214 -208t-305 -77q-157 0 -295 72l-55 -57h-273zM385 547q0 -74 33 -148l377 435q-60 24 -117 24 q-134 0 -213.5 -89t-79.5 -218v-4zM565 258q55 -22 117 -22q134 0 213.5 89t79.5 218v4q0 79 -35 147z" />
<glyph unicode="&#xf9;" horiz-adv-x="1275" d="M131 387v711h311v-613q0 -109 49.5 -166t139.5 -57q91 0 142.5 57.5t51.5 165.5v613h312v-1098h-312v156q-64 -82 -138.5 -129t-182.5 -47q-176 0 -274.5 108.5t-98.5 298.5zM260 1464l268 117l228 -362h-230z" />
<glyph unicode="&#xfa;" horiz-adv-x="1275" d="M131 387v711h311v-613q0 -109 49.5 -166t139.5 -57q91 0 142.5 57.5t51.5 165.5v613h312v-1098h-312v156q-64 -82 -138.5 -129t-182.5 -47q-176 0 -274.5 108.5t-98.5 298.5zM510 1219l227 362l269 -117l-267 -245h-229z" />
<glyph unicode="&#xfb;" horiz-adv-x="1275" d="M131 387v711h311v-613q0 -109 49.5 -166t139.5 -57q91 0 142.5 57.5t51.5 165.5v613h312v-1098h-312v156q-64 -82 -138.5 -129t-182.5 -47q-176 0 -274.5 108.5t-98.5 298.5zM233 1219l252 321h295l252 -321h-239l-162 135l-162 -135h-236z" />
<glyph unicode="&#xfc;" horiz-adv-x="1275" d="M131 387v711h311v-613q0 -109 49.5 -166t139.5 -57q91 0 142.5 57.5t51.5 165.5v613h312v-1098h-312v156q-64 -82 -138.5 -129t-182.5 -47q-176 0 -274.5 108.5t-98.5 298.5zM270 1219v276h299v-276h-299zM696 1219v276h299v-276h-299z" />
<glyph unicode="&#xfd;" horiz-adv-x="1228" d="M41 1098h330l250 -748l239 748h324l-422 -1125q-64 -169 -143.5 -238t-217.5 -69q-147 0 -276 76l104 225q71 -43 133 -43q40 0 64.5 15.5t44.5 56.5zM489 1219l228 362l268 -117l-266 -245h-230z" />
<glyph unicode="&#xfe;" horiz-adv-x="1382" d="M139 -328v1823h312v-555q133 178 342 178q97 0 186 -37.5t159 -107.5t112 -179.5t42 -242.5v-4q0 -133 -41 -242.5t-111 -179.5t-159 -107.5t-188 -37.5q-205 0 -342 163v-471h-312zM446 547q0 -134 78 -218.5t189 -84.5q112 0 190 84t78 219v4q0 133 -78 218t-190 85 q-111 0 -189 -84.5t-78 -218.5v-4z" />
<glyph unicode="&#xff;" horiz-adv-x="1228" d="M41 1098h330l250 -748l239 748h324l-422 -1125q-64 -169 -143.5 -238t-217.5 -69q-147 0 -276 76l104 225q71 -43 133 -43q40 0 64.5 15.5t44.5 56.5zM250 1219v276h299v-276h-299zM676 1219v276h299v-276h-299z" />
<glyph unicode="&#x152;" horiz-adv-x="2201" d="M109 713v4q0 150 56 282t155 228t241.5 151.5t308.5 55.5h1213v-281h-717v-291h625v-280h-625v-301h727v-281h-1223q-166 0 -308.5 55t-241.5 150t-155 226.5t-56 281.5zM438 717q0 -191 119.5 -311.5t312.5 -120.5h183v864h-183q-193 0 -312.5 -118.5t-119.5 -309.5v-4z " />
<glyph unicode="&#x153;" horiz-adv-x="2115" d="M86 543v4q0 155 78 286.5t213 208t295 76.5q125 0 231.5 -48t181.5 -134q73 86 177.5 134t226.5 48q133 0 237.5 -49t168 -133t96 -189.5t32.5 -224.5q0 -24 -4 -82h-764q23 -105 93.5 -160t175.5 -55q78 0 139.5 26.5t126.5 86.5l178 -158q-165 -205 -448 -205 q-133 0 -246.5 49t-192.5 138q-76 -88 -185.5 -137.5t-236.5 -49.5q-115 0 -221 45t-183 120.5t-123 181t-46 221.5zM393 547q0 -125 78.5 -214t200.5 -89q125 0 199.5 86.5t74.5 212.5v4q0 125 -78 214t-200 89q-124 0 -199.5 -87.5t-75.5 -211.5v-4zM1251 635h469 q-14 107 -74.5 170t-156.5 63q-95 0 -157 -62.5t-81 -170.5z" />
<glyph unicode="&#x178;" horiz-adv-x="1466" d="M25 1434h368l342 -576l348 576h359l-551 -863v-571h-316v565zM360 1546v260h299v-260h-299zM807 1546v260h299v-260h-299z" />
<glyph unicode="&#x2c6;" horiz-adv-x="1024" d="M113 1219l252 321h294l252 -321h-239l-162 135l-162 -135h-235z" />
<glyph unicode="&#x2dc;" horiz-adv-x="1024" d="M90 1249q39 141 96 212t158 71q71 0 186 -45q91 -35 121 -35q44 0 68.5 23t48.5 77l166 -51q-38 -141 -95.5 -211.5t-158.5 -70.5q-71 0 -186 45q-89 34 -121 34q-44 0 -68.5 -23t-48.5 -77z" />
<glyph unicode="&#x2000;" horiz-adv-x="950" />
<glyph unicode="&#x2001;" horiz-adv-x="1901" />
<glyph unicode="&#x2002;" horiz-adv-x="950" />
<glyph unicode="&#x2003;" horiz-adv-x="1901" />
<glyph unicode="&#x2004;" horiz-adv-x="633" />
<glyph unicode="&#x2005;" horiz-adv-x="475" />
<glyph unicode="&#x2006;" horiz-adv-x="316" />
<glyph unicode="&#x2007;" horiz-adv-x="316" />
<glyph unicode="&#x2008;" horiz-adv-x="237" />
<glyph unicode="&#x2009;" horiz-adv-x="380" />
<glyph unicode="&#x200a;" horiz-adv-x="105" />
<glyph unicode="&#x2010;" horiz-adv-x="835" d="M102 485v299h631v-299h-631z" />
<glyph unicode="&#x2011;" horiz-adv-x="835" d="M102 485v299h631v-299h-631z" />
<glyph unicode="&#x2012;" horiz-adv-x="835" d="M102 485v299h631v-299h-631z" />
<glyph unicode="&#x2013;" horiz-adv-x="1081" d="M102 489v291h877v-291h-877z" />
<glyph unicode="&#x2014;" horiz-adv-x="1839" d="M102 489v291h1635v-291h-1635z" />
<glyph unicode="&#x2018;" horiz-adv-x="585" d="M117 784v277q0 197 95.5 288.5t283.5 94.5l26 -129q-105 -10 -156.5 -62.5t-43.5 -140.5h127v-328h-332z" />
<glyph unicode="&#x2019;" horiz-adv-x="585" d="M63 903q105 10 157 62.5t44 140.5h-127v328h332v-277q0 -197 -95.5 -288.5t-283.5 -94.5z" />
<glyph unicode="&#x201a;" horiz-adv-x="585" d="M53 -203q105 10 157 62.5t44 140.5h-127v328h332v-277q0 -197 -95.5 -288.5t-283.5 -94.5z" />
<glyph unicode="&#x201c;" horiz-adv-x="1105" d="M117 784v277q0 197 95.5 288.5t283.5 94.5l26 -129q-105 -10 -156.5 -62.5t-43.5 -140.5h127v-328h-332zM637 784v277q0 197 95.5 288.5t283.5 94.5l26 -129q-105 -10 -156.5 -62.5t-43.5 -140.5h127v-328h-332z" />
<glyph unicode="&#x201d;" horiz-adv-x="1105" d="M63 903q105 10 157 62.5t44 140.5h-127v328h332v-277q0 -197 -95.5 -288.5t-283.5 -94.5zM584 903q105 10 156.5 62.5t43.5 140.5h-127v328h332v-277q0 -197 -95.5 -288.5t-283.5 -94.5z" />
<glyph unicode="&#x201e;" horiz-adv-x="1105" d="M53 -203q105 10 157 62.5t44 140.5h-127v328h332v-277q0 -197 -95.5 -288.5t-283.5 -94.5zM573 -203q105 10 157 62.5t44 140.5h-127v328h332v-277q0 -197 -95.5 -288.5t-283.5 -94.5z" />
<glyph unicode="&#x2022;" horiz-adv-x="1024" d="M207 719v4q0 126 89.5 214.5t215.5 88.5t215.5 -88.5t89.5 -214.5v-4q0 -126 -89.5 -214.5t-215.5 -88.5t-215.5 88.5t-89.5 214.5z" />
<glyph unicode="&#x2026;" horiz-adv-x="1720" d="M127 0v319h324v-319h-324zM698 0v319h324v-319h-324zM1270 0v319h323v-319h-323z" />
<glyph unicode="&#x202f;" horiz-adv-x="380" />
<glyph unicode="&#x2039;" horiz-adv-x="763" d="M84 541v16l365 455l217 -107l-246 -354l246 -354l-217 -111z" />
<glyph unicode="&#x203a;" horiz-adv-x="763" d="M98 193l246 354l-246 354l217 111l365 -455v-16l-365 -455z" />
<glyph unicode="&#x205f;" horiz-adv-x="475" />
<glyph unicode="&#x20ac;" horiz-adv-x="1474" d="M100 444v207h154q-2 20 -2 64q0 51 2 76h-154v206h193q65 210 220 335.5t376 125.5q122 0 219.5 -35.5t161.5 -90t123 -136.5l-238 -180q-62 83 -124.5 122.5t-147.5 39.5q-178 0 -260 -181h376v-206h-426q-2 -23 -2 -72q0 -48 2 -68h426v-207h-381q40 -91 110.5 -139.5 t166.5 -48.5q84 0 143.5 39t132.5 129l226 -166q-98 -138 -216.5 -210.5t-285.5 -72.5q-229 0 -386.5 126.5t-219.5 342.5h-189z" />
<glyph unicode="&#x2122;" horiz-adv-x="1413" d="M53 1307v127h520v-127h-188v-504h-143v504h-189zM707 803v631h151l166 -267l166 267h147v-631h-135v426l-174 -277h-12l-174 277v-426h-135z" />
<glyph unicode="&#x25fc;" horiz-adv-x="1095" d="M0 0v1096h1096v-1096h-1096z" />
</font>
</defs>
</svg>
