<?xml version="1.0" standalone="no"?>
<!DOCTYPE svg PUBLIC "-//W3C//DTD SVG 1.1//EN" "http://www.w3.org/Graphics/SVG/1.1/DTD/svg11.dtd" >
<svg xmlns="http://www.w3.org/2000/svg">
<metadata>
This is a custom SVG font generated by IcoMoon.
<iconset grid="16"></iconset>
</metadata>
<defs>
<font id="yggdrasil" horiz-adv-x="512" >
<font-face units-per-em="512" ascent="480" descent="-32" />
<missing-glyph horiz-adv-x="512" />
<glyph class="hidden" unicode="&#xf000;" d="M0,480L 512 -32L0 -32 z" horiz-adv-x="0" />
<glyph unicode="&#xe062;" d="M 448,192.001c0,43.358-31.479,64-70.271,64L 70.293,256.001 c-38.795,0-70.271-20.642-70.271-64
		l0-176.001 L 336,16 L 336,16 l 176,0 l0,32 l-64,0 L 448,192.001 zM 504,384.001l-56,0 l0,56 c0,4.4-3.6,8-8,8l-16,0 c-4.4,0-8-3.6-8-8l0-56 l-56,0 
		c-4.4,0-8-3.6-8-8l0-16 c0-4.4, 3.6-8, 8-8l 56,0 L 416,296 c0-4.399, 3.6-8, 8-8l 16,0 c 4.4,0, 8,3.601, 8,8
		l0,56.001 l 56,0 c 4.4,0, 8,3.6, 8,8l0,16 C 512,380.401, 508.4,384.001, 504,384.001z"  />
<glyph unicode="&#xe0b0;" d="M 256.223,432C 141.45,432, 48.445,338.945, 48.445,224.223
		c0-114.772, 93.029-207.778, 207.777-207.778C 370.97,16.445, 464,109.475, 464,224.223
		C 464,338.97, 370.97,432, 256.223,432z M 394,221c0-11-9-20-20-20l-72,0 c-11,0-20,0-20,0l0-92 c0-11-9-20-20-20l-12,0 
		c-11,0-20,9-20,20l0,92 l-88,0 c-11,0-20,9-20,20l0,7.975 c0,11, 9,20, 20,20L 229.976,249l0,92 c0,11, 9,20, 20,20L 262,361 c 11,0, 20-9, 20-20
		l0-91.975 L 374,249c 11,0, 20-9, 20-20L 394,221 z"  />
<glyph unicode="&#xe000;" d="M 400,208L 400,240L 272,240L 272,368L 240,368L 240,240L 112,240L 112,208L 240,208L 240,80L 272,80L 272,208 z"  />
<glyph unicode="&#xe02a;" d="M 432,128c0,0,0,8.162,0,15.128s-16.41,17.192-41.664,27.218
		c-25.172,9.992-33.219,18.428-33.219,36.488c0,10.838, 7.69,7.299, 11.059,27.15
		c 1.399,8.234, 8.19,0.134, 9.498,18.928c0,7.489-3.707,9.359-3.707,9.359
		s 1.889,11.094, 2.624,19.617c 0.899,10.638-5.637,38.101-40.581,38.101
		c-34.935,0-41.49-27.463-40.571-38.101c 0.735-8.523, 2.624-19.617, 2.624-19.617
		s-3.716-1.859-3.716-9.359c 1.296-18.794, 8.087-10.693, 9.485-18.928
		c 3.381-19.852, 11.070-16.313, 11.070-27.15c0-18.061-8.047-26.496-33.219-36.488
		c-25.264-10.016-41.664-20.241-41.664-27.218c0-6.966,0-15.128,0-15.128l 95.99,0 L 432,128 zM 96,272L 224,272L 224,240L 96,240zM 96,336L 224,336L 224,304L 96,304zM 462,432L 50,432 C 22.5,432,0,409.5,0,382l0-300 c0-27.5, 22.5-50, 50-50l 412,0 c 27.525,0, 50,22.5, 50,50L 512,382 
		C 512,409.5, 489.525,432, 462,432z M 464,80L 48,80 L 48,384 l 416,0 L 464,80 zM 96,208L 224,208L 224,176L 96,176z"  />
<glyph unicode="&#xe02b;" d="M 462,99.001C 462,57.594, 428.406,24, 386.999,24L 137.001,24 C 95.594,24, 62,57.594, 62,99.001L 62,349 
		c0,41.406, 33.594,75, 75.001,75l 249.998,0 C 428.406,424, 462,390.406, 462,349L 462,99.001 z M 400.282,220.354
		c-3.646,15.364-16.147,26.563-30.99,28.124c-35.418,3.909-71.354,3.909-107.292,3.909c-35.677,0-71.616,0-107.031-3.909
		c-15.104-1.562-27.605-12.76-30.99-28.124c-4.947-21.613-5.208-45.313-5.208-67.706c0-22.137,0-45.835, 5.208-67.709
		c 3.385-15.105, 15.887-26.303, 30.729-28.126c 35.676-3.905, 71.615-3.905, 107.292-3.905s 71.615,0, 107.292,3.905
		c 14.843,1.823, 27.344,13.021, 30.729,28.126c 5.208,21.874, 5.208,45.572, 5.208,67.709C 405.229,175.040, 405.229,198.74, 400.282,220.354
		z M 200.541,200.823l-20.832,0 l0-110.156 l-19.272,0 L 160.437,200.823 l-20.311,0 l0,18.229 l 60.415,0 L 200.541,200.823 z M 232.052,399.261l-19.53,0 l-13.282-50.782
		l-13.802,50.782l-20.313,0 c 3.906-11.979, 8.334-23.959, 12.239-35.938c 6.252-18.229, 10.156-31.771, 11.98-41.146l0-52.344 l 19.27,0 l0,52.344 
		L 232.052,399.261z M 252.886,90.667l-17.448,0 l0,10.417 c-6.771-7.813-13.281-11.721-19.791-11.721c-5.469,0-9.375,2.346-10.938,7.293
		c-1.041,2.866-1.562,7.292-1.562,14.063l0,75.522 l 17.186,0 l0-70.315 c0-3.904,0-6.249, 0.261-6.771c 0.261-2.604, 1.563-3.904, 3.906-3.904
		c 3.646,0, 7.032,2.604, 10.938,8.071l0,72.919 l 17.448,0 L 252.886,90.667 z M 283.874,334.937c0,10.156-1.822,17.708-5.468,22.656
		c-4.947,6.51-11.718,9.896-20.313,9.896c-8.854,0-15.625-3.386-20.313-9.896c-3.646-4.948-5.468-12.5-5.468-22.656l0-33.854 
		c0-10.156, 1.822-17.709, 5.468-22.657c 4.688-6.511, 11.46-9.896, 20.313-9.896c 8.595,0, 15.365,3.385, 20.313,9.896
		c 3.646,4.688, 5.468,12.501, 5.468,22.657L 283.874,334.937 z M 266.428,297.698c0-8.854-2.864-13.281-8.334-13.281
		c-5.729,0-8.333,4.427-8.333,13.281l0,40.624 c0,8.854, 2.604,13.542, 8.333,13.542c 5.47,0, 8.334-4.688, 8.334-13.542L 266.428,297.698 z
		 M 318.511,119.313c0-8.595-0.521-15.105-1.822-19.012c-2.085-7.29-6.771-10.938-13.803-10.938c-5.989,0-11.98,3.648-17.709,10.678
		l0-9.374 l-17.448,0 L 267.729,219.053 l 17.448,0 l0-41.928 c 5.468,6.771, 11.459,10.417, 17.709,10.417c 7.031,0, 11.718-3.646, 13.803-10.938
		c 1.301-3.904, 1.822-10.154, 1.822-19.271L 318.511,119.313 z M 301.322,158.896c0,8.593-2.604,13.021-7.553,13.021
		c-2.864,0-5.729-1.303-8.593-4.167l0-58.334 c 2.864-2.864, 5.729-4.165, 8.593-4.165c 4.949,0, 7.553,4.165, 7.553,12.76L 301.322,158.896 z
		 M 348.458,269.833l0,96.355 L 331.010,366.188 l0-73.699 c-3.906-5.469-7.551-8.072-10.936-8.072c-2.346,0-3.907,1.302-4.168,4.166
		c-0.26,0.521-0.26,2.604-0.26,6.771l0,70.834 l-17.449,0 l0-76.303 c0-6.77, 0.521-11.197, 1.563-14.322
		c 1.822-4.688, 5.729-7.031, 11.197-7.031c 6.51,0, 13.021,3.906, 20.052,11.719l0-10.417 L 348.458,269.834 z M 383.874,121.396
		c0-5.73-0.259-9.375-0.52-11.199c-0.521-3.904-1.823-7.292-3.906-10.414c-4.688-7.032-11.98-10.42-20.834-10.42
		c-9.113,0-16.146,3.388-21.094,9.898c-3.646,4.687-5.469,12.238-5.469,22.394l0,33.594 c0,10.158, 1.563,17.45, 5.208,22.397
		c 4.948,6.51, 11.98,9.896, 20.834,9.896c 8.595,0, 15.624-3.386, 20.313-9.896c 3.646-4.947, 5.468-12.239, 5.468-22.397l0-19.792 L 349.24,135.457 
		l0-16.925 c0-8.855, 2.864-13.281, 8.854-13.281c 4.167,0, 6.771,2.343, 7.813,6.771c0,1.043, 0.261,4.947, 0.261,11.718l 17.707,0 L 383.875,121.396 z
		 M 366.428,149.78l0,8.855 c0,8.854-2.864,13.281-8.595,13.281c-5.729,0-8.593-4.428-8.593-13.281l0-8.855 L 366.428,149.78 z"  />
<glyph unicode="&#xe02c;" d="M 426.599,61.054c-4.24-17.635-18.526-30.58-35.714-32.367C 349.813,24, 308.296,24, 267,24
		c-41.295,0-82.812,0-123.884,4.687c-17.188,1.787-31.697,14.732-35.713,32.367c-5.804,24.999-5.804,52.454-5.804,78.125
		c0,25.892, 0.223,53.125, 5.804,78.124c 4.24,17.635, 18.526,30.582, 35.937,32.59c 40.849,4.465, 82.366,4.465, 123.661,4.465
		c 41.296,0, 82.813,0, 123.885-4.465c 17.188-2.008, 31.696-14.955, 35.714-32.59c 5.803-24.999, 5.803-52.232, 5.803-78.124
		C 432.401,113.508, 432.179,86.053, 426.599,61.054z M 196.019,194.759l0,20.982 l-69.644,0 l0-20.982 l 23.438,0 l0-127.010 l 22.321,0 l0,127.010 L 196.019,194.759 
		z M 232.402,424l-27.008-89.063l0-60.491 l-22.323,0 l0,60.491 c-2.008,10.938-6.472,26.563-13.615,47.322
		c-4.911,13.84-9.821,27.902-14.509,41.741l 23.661,0 l 15.848-58.706L 209.634,424L 232.402,424 z M 256.286,67.749L 256.286,178.018 L 236.42,178.018 l0-84.374 
		c-4.465-6.25-8.706-9.376-12.724-9.376c-2.678,0-4.24,1.563-4.687,4.689c-0.223,0.668-0.223,3.123-0.223,7.81l0,81.251 L 198.92,178.018 
		l0-87.277 c0-7.811, 0.67-12.946, 1.785-16.294c 1.787-5.581, 6.474-8.259, 12.947-8.259c 7.142,0, 14.732,4.465, 22.768,13.615l0-12.054 
		L 256.286,67.749 z M 292.224,310.606c0-11.829-2.009-20.758-6.251-26.339c-5.58-7.589-13.393-11.384-23.659-11.384
		c-10.046,0-17.857,3.795-23.438,11.384c-4.242,5.804-6.25,14.51-6.25,26.339l0,39.063 c0,11.831, 2.009,20.536, 6.25,26.117
		c 5.581,7.588, 13.392,11.384, 23.438,11.384c 10.267,0, 18.079-3.795, 23.659-11.384c 4.242-5.581, 6.251-14.286, 6.251-26.117L 292.224,310.606 z
		 M 271.91,353.687c0,10.268-2.901,15.401-9.597,15.401c-6.474,0-9.599-5.134-9.599-15.401l0-46.875 
		c0-10.268, 3.125-15.625, 9.599-15.625c 6.695,0, 9.597,5.357, 9.597,15.625L 271.91,353.687 z M 332.179,144.76
		c0,10.267-0.447,17.634-2.009,22.098c-2.455,8.259-8.035,12.5-15.849,12.5c-7.365,0-14.286-4.019-20.758-12.054l0,48.438 l-19.866,0 
		l0-147.992 l 19.866,0 l0,10.716 c 6.695-8.259, 13.615-12.277, 20.758-12.277c 7.813,0, 13.394,4.241, 15.849,12.277
		c 1.562,4.688, 2.009,12.052, 2.009,22.32L 332.179,144.76 z M 312.313,99.224c0-10.046-2.901-14.956-8.705-14.956
		c-3.349,0-6.695,1.563-10.044,4.91l0,67.188 c 3.349,3.348, 6.695,4.911, 10.044,4.911c 5.804,0, 8.705-5.134, 8.705-14.956L 312.313,99.224 z
		 M 367,274.446l-20.313,0 l0,12.276 c-8.035-9.374-15.624-13.839-22.991-13.839c-6.474,0-11.16,2.679-13.169,8.259
		c-1.116,3.349-1.787,8.706-1.787,16.741L 308.74,385.831 l 20.313,0 l0-81.92 c0-4.688,0-7.365, 0.223-7.812c 0.447-3.125, 2.011-4.911, 4.688-4.911
		c 4.018,0, 8.259,3.125, 12.723,9.598L 346.687,385.831 L 367,385.831 L 367,274.446 z M 407.626,105.921l-20.313,0 c0-8.037-0.223-12.501-0.446-13.617
		c-1.117-5.357-4.019-8.036-8.929-8.036c-6.919,0-10.268,5.134-10.268,15.403l0,19.417 l 39.956,0 l0,22.991 
		c0,11.831-2.011,20.314-6.027,25.895c-5.804,7.589-13.615,11.384-23.661,11.384c-10.268,0-18.079-3.795-23.883-11.384
		c-4.242-5.58-6.25-14.063-6.25-25.895l0-38.615 c0-11.83, 2.231-20.534, 6.472-25.893c 5.804-7.589, 13.617-11.384, 24.107-11.384
		c 10.491,0, 18.75,4.019, 24.108,11.83c 2.455,3.572, 4.24,7.589, 4.687,12.054c 0.447,2.009, 0.447,6.473, 0.447,12.946L 407.626,105.921 z
		 M 387.76,135.83l-20.090,0 L 367.67,146.1 c0,10.044, 3.349,15.178, 10.044,15.178c 6.697,0, 10.046-5.134, 10.046-15.178L 387.76,135.83 z"  />
<glyph unicode="&#xe02d;" d="M 456,93.001C 456,51.594, 422.406,18, 380.999,18L 131.001,18 C 89.594,18, 56,51.594, 56,93.001L 56,343 
		c0,41.406, 33.594,75, 75.001,75l 249.998,0 C 422.406,418, 456,384.406, 456,343L 456,93.001 z M 357.822,283.625
		c 11.459,6.771, 20.052,17.708, 24.219,30.469c-10.677-6.25-22.395-10.938-34.895-13.281C 337.251,311.489, 322.928,318, 307.303,318
		c-30.208,0-54.688-24.479-54.688-54.688c0-4.167, 0.261-8.594, 1.303-12.5c-45.574,2.344-85.938,23.958-113.020,57.292
		c-4.688-8.073-7.553-17.708-7.553-27.605c0-19.010, 8.854-35.676, 23.698-45.571c-9.116,0.26-17.709,2.864-26.042,6.771
		c0,0,0-0.261,0-0.521c0-26.563, 20.050-48.697, 45.051-53.646c-4.688-1.301-8.334-2.083-13.281-2.083
		c-3.386,0-6.771,0.521-10.156,1.042c 7.031-21.615, 27.083-37.502, 51.042-38.021c-18.751-14.584-42.189-23.438-67.97-23.438
		c-4.428,0-8.854,0.261-13.021,0.782c 24.219-15.366, 52.864-24.48, 83.855-24.48c 100.521,0, 155.729,83.334, 155.729,155.729
		c0,2.344,0,4.688-0.261,7.031c 10.678,7.553, 20.052,17.188, 27.344,28.385C 379.438,288.052, 369.021,285.187, 357.822,283.625z"  />
<glyph unicode="&#xe02e;" d="M 425.635,293.328c 0.254-3.553, 0.254-7.106, 0.254-10.66c0-108.375-82.488-233.25-233.25-233.25
		c-46.447,0-89.595,13.451-125.888,36.8c 6.599-0.76, 12.944-1.014, 19.795-1.014c 38.326,0, 73.605,12.944, 101.778,35.026
		c-36.041,0.761-66.243,24.363-76.649,56.851c 5.075-0.76, 10.152-1.268, 15.482-1.268c 7.361,0, 14.72,1.017, 21.573,2.791
		c-37.563,7.615-65.735,40.611-65.735,80.458c0,0.254,0,0.761,0,1.015c 10.913-6.091, 23.603-9.898, 37.055-10.406
		C 97.969,264.394, 83.5,289.521, 83.5,317.948c0,15.228, 4.062,29.188, 11.168,41.371c 40.356-49.747, 101.016-82.234, 169.036-85.787
		c-1.27,6.091-2.029,12.437-2.029,18.781c0,45.179, 36.547,81.981, 81.979,81.981c 23.604,0, 44.926-9.898, 59.899-25.889
		c 18.527,3.554, 36.295,10.407, 52.030,19.798c-6.091-19.037-19.034-35.026-36.041-45.178c 16.498,1.776, 32.488,6.345, 47.208,12.69
		C 455.584,319.47, 441.625,305.003, 425.635,293.328z"  />
<glyph unicode="&#xe02f;" d="M 460,99c0-41.406-33.594-75-75.001-75L 135.001,24 C 93.594,24, 60,57.594, 60,99L 60,349 c0,41.406, 33.594,75, 75.001,75l 249.998,0 
		C 426.406,424, 460,390.406, 460,349L 460,99 z M 352.447,137.541c-15.104-9.635-30.209-14.583-45.312-14.583
		c-8.595,0-16.146,1.823-22.917,5.99c-4.949,2.863-8.334,6.771-10.156,11.718c-1.824,4.948-2.863,16.146-2.863,33.594l0,76.824 
		l 71.352,0 l0,47.134 l-71.352,0 L 271.199,374 l-42.71,0 c-1.822-15.365-5.208-28.125-10.415-38.281c-4.949-9.896-11.72-18.489-20.313-25.781
		c-8.334-7.031-18.49-12.5-30.208-16.406l0-42.447 l 33.072,0 l0-105.208 c0-13.803, 1.562-24.221, 4.426-31.511
		c 2.867-7.031, 8.074-14.063, 15.366-20.313c 7.553-6.512, 16.667-11.458, 27.083-14.845c 10.417-3.385, 22.656-5.208, 36.458-5.208
		c 11.979,0, 23.177,1.302, 33.594,3.646c 10.416,2.342, 22.135,6.771, 34.895,12.76L 352.447,137.541 z"  />
<glyph unicode="&#xe030;" d="M 286.67,414.255l0-101.041 l 95.061,0 l0-62.761 L 286.67,250.453 l0-102.604 c0-23.177, 1.045-38.020, 3.656-44.79
		c 2.352-6.511, 7.052-11.721, 13.58-15.626c 8.881-5.468, 19.065-8.074, 30.555-8.074c 20.37,0, 40.479,6.51, 60.588,19.791l0-63.019 
		c-17.236-8.073-32.644-13.802-46.484-16.929c-13.842-3.384-28.988-4.947-45.181-4.947c-18.279,0-34.471,2.345-48.573,7.031
		c-14.103,4.426-26.115,11.196-36.038,19.531c-9.924,8.595-16.975,17.707-20.631,27.344c-3.917,9.636-5.745,23.696-5.745,41.927
		L 192.397,250.453 L 148,250.453 l0,56.51 c 15.668,5.208, 29.249,12.5, 40.479,21.875c 11.229,9.635, 20.109,21.094, 26.899,34.376
		c 6.79,13.541, 11.489,30.468, 14.103,51.041L 286.67,414.255 z"  />
<glyph unicode="&#xe031;" d="M 366.283,24c-22.917,0-44.011,7.814-60.938,20.835c-12.499-2.605-25.78-4.168-39.062-4.168
		c-101.303,0-183.333,82.031-183.333,183.334c0,13.281, 1.563,26.562, 4.167,39.063C 74.097,279.99, 66.283,301.084, 66.283,324
		c0,55.208, 44.792,100, 100,100c 22.917,0, 44.010-7.813, 60.938-20.834c 12.499,2.605, 25.78,4.167, 39.062,4.167
		c 101.302,0, 183.333-82.031, 183.333-183.333c0-13.282-1.563-26.563-4.167-39.062c 13.021-16.928, 20.833-38.022, 20.833-60.939
		C 466.282,68.792, 421.49,24, 366.283,24z M 290.763,249.781l-27.084,6.25c-19.791,4.688-34.636,8.074-34.636,23.178
		c0,13.802, 14.584,20.052, 37.5,20.052c 40.886,0, 41.667-29.948, 66.928-29.948c 16.927,0, 27.083,13.281, 27.083,28.385
		c0,29.948-49.739,49.479-98.959,49.479c-45.051,0-97.394-19.531-97.394-72.396c0-43.75, 29.166-59.376, 67.186-68.488l 38.021-9.377
		c 23.177-5.729, 37.5-8.334, 37.5-24.999c0-13.281-14.845-23.439-37.761-23.439c-48.176,0-50.782,40.104-78.645,40.104
		c-18.23,0-26.302-13.021-26.302-27.342c0-32.033, 48.958-58.074, 107.55-58.074c 48.959,0, 100,24.48, 100,77.344
		C 371.751,225.825, 327.741,241.449, 290.763,249.781z"  />
<glyph unicode="&#xe032;" d="M 389.724,59.992c-12.724-6.473-29.688-20.762-35.939-26.789c-4.689-4.464-24.11-6.695-35.048-1.114
		c-12.726,6.472-6.027,16.741-25.672,17.41c-9.823,0.224-19.421,0.224-29.021,0.224c-8.482-0.224-16.965-0.669-25.671-0.893
		c-29.467-0.67-32.368-19.644-51.344-18.974c-12.946,0.445-29.244,10.715-57.37,16.519c-19.645,4.018-38.618,5.134-42.637,13.84
		c-4.018,8.707, 4.911,18.527, 5.581,27.012c 0.67,11.385-8.482,26.787-1.785,32.591c 5.804,5.135, 18.081,1.341, 26.118,5.805
		c 8.483,4.91, 12.053,8.706, 12.053,19.199c 3.125-10.717-0.222-19.423-7.143-23.663c-4.242-2.681-12.055-4.020-18.529-3.349
		c-5.134,0.444-8.259-0.224-9.598-2.232c-2.009-2.457-1.34-6.921, 1.115-12.725c 2.457-5.805, 5.359-9.598, 4.913-16.742
		c-0.224-7.145-8.259-15.625-6.921-21.653c 0.447-2.233, 2.679-4.242, 8.259-5.804c 8.929-2.457, 25.225-4.912, 41.075-8.708
		c 17.635-4.464, 35.939-12.5, 47.324-10.938c 33.931,4.688, 14.51,41.075, 9.153,49.781c-28.797,45.092-47.771,74.56-62.951,62.951
		c-3.795-3.125-4.017,7.589-3.795,11.831c 0.67,14.733, 8.038,20.091, 12.501,31.476c 8.482,21.653, 14.957,46.433, 27.903,59.156
		c 9.6,12.501, 24.78,32.814, 27.682,43.53c-2.457,23.216-3.125,47.771-3.572,69.201c-0.447,22.993, 3.125,43.084, 29.021,57.147
		c 6.25,3.349, 14.51,4.688, 23.216,4.688c 15.401,0.223, 32.591-4.241, 43.528-12.277c 17.412-12.948, 28.351-40.405, 27.012-60.049
		c-0.894-15.404, 1.785-31.253, 6.698-47.771c 5.804-19.421, 14.955-33.039, 29.688-48.665c 17.636-18.75, 31.476-55.585, 35.494-79.024
		c 3.57-21.876-1.34-35.493-6.027-36.161c-7.145-1.117-11.608-23.663-33.931-22.77c-14.287,0.668-15.627,9.15-19.645,16.519
		c-6.474,11.385-12.948,7.813-15.403-4.242c-1.341-6.027-0.447-14.957, 1.562-21.654c 4.019-14.063, 2.681-27.233, 0.224-43.529
		c-4.688-30.807, 21.654-36.609, 39.29-21.876c 17.412,14.509, 21.206,16.742, 43.084,24.331c 33.261,11.385, 22.099,21.432, 4.24,27.459
		c-16.072,5.357-16.742,32.367-10.938,37.501c 1.339-29.021, 16.519-33.261, 22.77-37.277
		C 443.745,82.314, 406.021,68.251, 389.724,59.992z M 352.221,167.813c 6.027,20.090, 3.349,28.127-0.669,47.102
		c-3.125,14.286-16.297,33.707-26.564,39.734c 2.679-2.231, 7.589-8.706, 12.723-18.527c 8.93-16.742, 17.859-41.521, 12.055-62.060
		c-2.231-8.035-7.589-9.152-11.161-9.376c-15.625-1.785-6.474,18.753-12.946,46.656c-7.368,31.252-14.957,33.484-16.744,35.941
		c-9.151,40.627-19.197,36.608-22.1,51.789c-2.455,13.616, 11.832,24.777-7.589,28.573c-6.027,1.116-14.511,7.144-17.859,7.589
		c-3.349,0.447-5.134,22.547, 7.368,23.216c 12.276,0.893, 14.508-13.84, 12.276-19.645c-3.572-5.804, 0.224-8.036, 6.251-6.027
		c 4.91,1.563, 1.785,14.51, 2.901,16.296c-3.125,18.751-10.938,21.43-18.974,22.993c-30.808-2.456-16.966-36.387-20.091-33.262
		c-4.466,4.688-17.412,0.447-17.412,3.349c 0.224,17.411-5.581,27.457-13.617,27.68c-8.93,0.223-12.501-12.277-12.948-19.421
		c-0.67-6.697, 3.795-20.761, 7.144-19.645c 2.232,0.67, 6.026,5.134, 2.009,4.911c-2.009,0-5.134,4.911-5.581,10.715
		c-0.223,5.804, 2.009,11.608, 9.598,11.385c 8.706-0.223, 8.706-17.636, 7.814-18.306c-2.902-2.008-6.474-5.803-6.921-6.473
		c-2.902-4.688-8.482-6.027-10.714-8.036c-3.795-4.019-4.688-8.482-1.785-10.046c 10.268-5.804, 6.919-12.501, 21.206-12.947
		c 9.377-0.446, 16.296,1.34, 22.77,3.349c 4.911,1.563, 20.762,4.911, 24.11,10.715c 1.562,2.455, 3.349,2.455, 4.464,1.786
		c 2.231-1.116, 2.679-5.358-2.902-6.697c-7.813-2.232-15.625-6.474-22.77-9.152c-6.919-2.901-9.153-4.018-15.625-5.135
		c-14.734-2.679-25.672,5.358-15.851-4.241c 3.349-3.124, 6.474-5.134, 14.957-4.91c 18.75,0.669, 39.512,23.215, 41.52,13.171
		c 0.447-2.233-5.804-4.912-10.714-7.367c-17.412-8.482-29.689-25.449-40.853-19.646c-10.044,5.358-20.090,30.137-19.867,18.976
		c 0.224-17.189-22.546-32.368-12.053-52.013c-6.921-1.787-22.324-34.601-24.556-51.566c-1.339-9.821, 0.894-21.876-1.562-28.573
		c-3.349-9.821-18.529,9.374-13.617,32.813c 0.892,4.020,0,4.911-1.117,2.904c-6.027-10.94-2.679-26.344, 2.232-37.059
		c 2.008-4.687, 7.144-6.697, 10.938-10.714c 7.814-8.93, 38.62-31.699, 43.977-37.28c 6.919-6.473, 4.911-21.654-9.376-23.216
		c 7.368-13.841, 14.51-15.181, 14.287-37.727c 8.483,4.466, 5.134,14.288, 1.563,20.537c-2.455,4.466-5.581,6.475-4.912,7.59
		c 0.447,0.67, 4.912,4.465, 7.368,1.563c 7.589-8.483, 21.876-10.045, 37.057-8.036c 15.401,1.785, 31.922,7.143, 39.511,19.421
		c 3.572,5.804, 6.028,7.814, 7.59,6.697c 1.787-0.894, 2.455-4.91, 2.233-11.608c-0.224-7.144-3.125-14.51-5.136-20.537
		c-2.009-6.919-2.679-11.608, 4.019-11.832c 1.786,12.5, 5.357,24.778, 6.251,37.28c 1.115,14.286-9.152,40.628, 2.009,53.798
		c 2.902,3.572, 6.475,4.020, 11.385,4.020c 0.67,17.858, 28.127,16.519, 37.279,9.15C 364.498,162.455, 355.792,166.25, 352.221,167.813z
		 M 170.064,232.104c-1.562-2.902-5.581-5.136-2.455-5.581c 1.117-0.223, 4.24,2.456, 5.581,5.581c 1.117,3.796, 2.232,5.804, 0.447,6.473
		C 171.627,239.246, 172.073,235.229, 170.064,232.104z M 221.184,353.095c-2.678,0.669-2.231-3.349-0.893-2.902
		c 0.893,0, 2.010-1.339, 1.563-3.349c-0.447-2.679-0.224-4.465, 1.785-4.465c 0.223,0, 0.67,0, 0.67,0.67
		C 225.203,348.63, 222.524,352.648, 221.184,353.095z M 227.211,332.557c-2.232-0.223-1.785,4.912, 5.357,4.465
		C 228.104,336.576, 229.667,332.557, 227.211,332.557z M 245.517,336.353c 6.473,2.902, 8.706-1.563, 6.473-2.456
		C 249.758,333.227, 249.534,337.469, 245.517,336.353z M 272.527,354.434c-2.902-0.224-2.009-1.563-0.671-2.010
		c 1.787-0.446, 3.572-3.571, 4.020-6.92c0-0.446, 2.231,0.447, 2.231,1.117C 278.331,351.979, 273.644,354.657, 272.527,354.434z
		 M 285.476,402.652c-1.787,1.786-3.572,3.349-5.357,3.349c-4.466-0.447-2.233-5.134-2.902-7.367c-0.894-2.456-4.242-4.465-2.010-6.251
		c 2.010-1.562, 3.349,2.456, 7.591,4.019c 1.115,0.446, 6.249-0.224, 7.365,2.232C 290.386,399.75, 287.483,401.089, 285.476,402.652z
		 M 310.253,303.983c-4.242,2.679-5.134,7.144-6.697,5.581c-4.688-5.135, 5.805-15.849, 10.27-16.742
		c 2.679-0.447, 4.688,3.125, 4.018,6.251C 316.951,303.314, 313.825,301.752, 310.253,303.983z"  />
<glyph unicode="&#xe033;" d="M 456,93.534c0-41.407-33.594-75.001-75.001-75.001L 131.001,18.533 C 89.594,18.533, 56,52.127, 56,93.534L 56,343.533 
		c0,41.406, 33.594,75, 75.001,75l 249.998,0 c 41.407,0, 75.001-33.594, 75.001-75L 456,93.534 z M 148.187,351.345
		c-20.571,0-34.113-13.542-34.113-31.25c0-17.188, 13.021-31.25, 33.333-31.25l 0.258,0 c 21.095,0, 34.115,14.063, 34.115,31.25
		C 181.52,337.804, 168.76,351.345, 148.187,351.345z M 177.874,83.637L 177.874,264.366 l-60.156,0 l0-180.729 L 177.874,83.637 z M 394.282,83.637L 394.282,187.284 
		c0,55.466-29.689,81.249-69.272,81.249c-32.291,0-46.614-17.97-54.426-30.469l 0.52,0 l0,26.302 l-60.154,0 c0,0, 0.779-16.926,0-180.729
		l 60.154,0 L 271.104,184.679 c0,5.207, 0.261,10.678, 1.824,14.584c 4.428,10.676, 14.323,21.874, 30.989,21.874
		c 21.614,0, 30.209-16.406, 30.209-40.884l0-96.616 L 394.282,83.637 z"  />
<glyph unicode="&#xe034;" d="M 111.292,332.934l-0.521,0 c-28.908,0-47.396,19.792-47.396,44.531c0,25.26, 19.271,44.531, 48.437,44.531
		c 29.429,0, 47.657-19.271, 47.917-44.531C 159.99,352.725, 141.24,332.934, 111.292,332.934z M 154.261,39.703L 68.324,39.703 L 68.324,297.777 l 85.937,0 
		L 154.261,39.703 z M 463.375,39.703l-85.677,0 L 377.698,177.726 c0,34.634-12.501,58.334-43.489,58.334c-23.698,0-37.762-15.887-44.011-31.253
		c-2.083-5.729-2.864-13.281-2.864-21.092l0-144.012 l-85.677,0 c 1.040,233.854,0,258.074,0,258.074l 85.677,0 l0-37.501 l-0.521,0 
		c 11.198,17.709, 31.512,43.49, 77.865,43.49c 56.511,0, 98.697-36.979, 98.697-116.146L 463.375,39.703 z"  />
<glyph unicode="&#xe035;" d="M 432,414.255l-31.999-359.501L 255.5,14.255L 112,54.754L 80,414.255L 432,414.255 z M 366.498,340.755L 145.501,340.755 l 11.75-133.501l 153,0 
		l-5.499-57l-49.251-13.25l-49.001,13.25l-3.25,35.001L 159.5,185.255 l 5.5-69.499l 90.501-25.001l 1,0 l0,0.25 l 89.751,24.751l 12.499,135.999l-161,0 
		l-3.75,45.25l 168.502,0 L 366.498,340.755z"  />
<glyph unicode="&#xe036;" d="M 456,99.001C 456,57.594, 422.406,24, 380.999,24L 259.125,24 c 6.771,12.76, 10.156,26.563, 10.156,40.886
		c0,72.917-77.865,86.198-77.865,119.792c0,34.375, 58.073,40.104, 58.073,108.854c0,23.698-8.593,52.083-26.562,68.75
		c-5.469,4.948-8.854,3.907-12.239,11.719l 35.155,0 l 35.155,16.667l-113.8,0 c-43.49,0-83.073-9.635-111.199-44.792
		C 56,388.844, 86.729,424, 131.001,424l 249.998,0 C 422.406,424, 456,390.406, 456,349l0-25 l-66.667,0 L 389.333,390.667 L 356,390.667 L 356,324 l-66.667,0 l0-33.333 L 356,290.667 L 356,224 l 33.333,0 
		l0,66.667 L 456,290.667 L 456,99.001 z M 56,111.761L 56,224.521 c 19.271-22.137, 41.926-30.729, 71.094-30.729c 5.989,0, 12.239,0.521, 18.228,1.301
		c-2.604-7.551-5.468-14.322-5.468-22.394c0-14.584, 7.811-27.604, 16.406-38.804C 121.364,132.855, 87.251,127.906, 56,111.761z
		 M 229.959,24l-98.958,0 c-32.814,0-62.241,21.615-71.616,53.125c 17.709,33.072, 65.364,41.146, 99.74,41.146
		c 4.167,0, 8.334,0, 12.76-0.521c 26.563-18.488, 60.678-38.801, 60.678-75.262C 232.563,36.239, 231.78,29.989, 229.959,24z
		 M 153.396,209.416c-46.354,0-72.397,61.98-72.397,101.563c0,30.729, 16.668,60.937, 51.042,60.937
		c 48.178,0, 69.27-65.365, 69.27-104.948C 201.312,235.196, 189.073,209.416, 153.396,209.416z"  />
<glyph unicode="&#xe037;" d="M 316.663,411.533l-32.451-18.991L 251.76,392.542 c 23.797-14.903, 35.816-43.99, 35.816-70.914c0-63.701-53.846-68.508-53.846-100.239
		c0-31.010, 72.116-43.27, 72.116-110.577c0-27.646-13.222-50-33.655-67.788c-27.645-23.798-65.383-31.491-100.961-31.491
		c-44.952,0-109.855,19.231-109.855,75.001c0,11.297, 3.847,22.354, 8.894,32.451c 21.394,43.269, 88.221,54.328, 131.25,55.528
		c-7.932,10.338-15.385,22.356-15.385,35.818c0,7.933, 2.886,13.221, 5.29,20.671c-5.769-0.72-11.299-1.2-16.828-1.2
		c-46.635,0-87.020,34.375-87.020,82.691c0,45.674, 35.337,84.616, 79.088,94.231c 14.663,3.125, 29.807,4.808, 44.951,4.808L 316.663,411.532 z
		 M 215.942,159.61c-4.087,0.481-7.934,0.481-12.019,0.481c-39.425,0-98.077-12.501-98.077-62.501
		c0-46.153, 51.923-63.942, 90.383-63.942c 35.818,0, 75.723,14.423, 75.723,56.489C 271.953,123.794, 240.462,142.544, 215.942,159.61z
		 M 178.923,394.225c-31.491,0-46.875-27.885-46.875-56.25c0-36.538, 24.038-93.751, 66.827-93.751
		c 32.934,0, 44.231,23.799, 44.231,53.126C 243.105,333.889, 223.394,394.225, 178.923,394.225z M 461.375,319.226l-61.538,0 l0-61.538 l-30.77,0 
		l0,61.538 l-61.538,0 l0,30.769 l 61.538,0 L 369.067,411.533 l 30.77,0 l0-61.539 l 61.538,0 L 461.375,319.226 z"  />
<glyph unicode="&#xe067;" d="M 453.382,95.361c0-41.405-33.594-74.999-75.001-74.999L 128.383,20.362 c-41.407,0-75.001,33.594-75.001,74.999L 53.382,345.363 
		c0,41.405, 33.594,74.999, 75.001,74.999l 249.998,0 c 41.407,0, 75.001-33.594, 75.001-74.999L 453.382,95.361 z M 399.736,271.666l-51.563,0 L 348.173,300.050 
		c0,14.842, 1.563,22.917, 22.656,22.917l 28.646,0 l0,57.031 l-45.573,0 c-54.688,0-73.958-27.603-73.958-74.217l0-34.115 l-34.115,0 l0-57.035 l 34.115,0 
		l0-165.362 l 68.229,0 L 348.173,214.631 l 45.572,0 L 399.736,271.666z"  />
<glyph unicode="&#xe068;" d="M 349.49,288.892l-7.305-69.145L 286.92,219.747 l0-200.615 l-83.021,0 L 203.899,219.747 l-41.39,0 l0,69.145 l 41.39,0 l0,41.632 
		c0,56.241, 23.372,89.838, 89.839,89.838l 55.266,0 l0-69.144 l-34.572,0 c-25.807,0-27.512-9.739-27.512-27.755l0-34.572 L 349.49,288.891 z"  />
<glyph unicode="&#xe069;" d="M 393.861,77.609c-20.673-31.491-41.348-47.114-61.779-47.114c-8.172,0-19.231,2.644-33.653,7.693
		c-14.185,5.288-26.443,7.691-36.298,7.691c-9.616,0-21.155-2.645-34.135-7.933c-13.222-5.53-23.8-8.174-31.731-8.174
		c-24.76,0-48.558,20.913-72.355,62.26c-23.318,41.346-35.337,81.491-35.337,120.912c0,36.78, 9.135,66.588, 27.163,89.904
		c 18.029,23.078, 40.625,34.616, 68.27,34.616c 11.779,0, 25.722-2.403, 42.548-7.211c 16.587-4.809, 27.645-7.213, 33.173-7.213
		c 6.972,0, 18.51,2.646, 34.375,8.174c 15.866,5.289, 29.81,8.173, 41.588,8.173c 19.229,0, 36.298-5.289, 51.201-15.625
		c 8.413-5.769, 16.827-13.942, 25-24.038c-12.5-10.577-21.635-19.952-27.403-28.365c-10.338-14.904-15.625-31.49-15.625-49.76
		c0-19.712, 5.528-37.74, 16.587-53.606c 11.057-15.865, 23.798-25.96, 37.979-30.288C 417.418,118.716, 407.803,98.524, 393.861,77.609z
		 M 326.072,386.985c-4.809-12.019-12.259-23.077-22.355-33.174c-8.654-8.653-17.308-14.422-25.961-17.307
		c-5.53-1.683-13.703-3.125-25-4.087c 0.479,23.799, 6.729,44.472, 18.75,61.779c 12.019,17.308, 32.211,29.086, 60.096,35.577
		c 0.48-2.164, 0.962-3.847, 1.202-5.289c0-1.682, 0.24-3.125, 0.24-4.807C 333.044,409.822, 330.639,398.764, 326.072,386.985z"  />
<glyph unicode="&#xe063;" d="M 134.503,271.98l0-103.405 c0-13.708-10.82-24.769-24.528-24.769c-13.708,0-24.77,11.061-24.77,24.769L 85.205,271.98 
		c0,13.467, 11.061,24.529, 24.77,24.529C 123.442,296.509, 134.503,285.447, 134.503,271.98z M 365.604,300.598L 143.16,300.598 
		c0,38.236, 22.847,71.421, 56.754,88.736l-17.075,31.502c-0.96,1.684-0.481,3.848, 1.203,4.81c 1.683,0.722, 3.848,0.241, 4.809-1.443
		l 17.315-31.743c 14.669,6.494, 31.022,10.1, 48.335,10.1c 17.315,0, 33.667-3.606, 48.335-10.1l 17.315,31.743
		c 0.962,1.684, 3.127,2.165, 4.81,1.443c 1.685-0.962, 2.164-3.126, 1.203-4.81l-17.074-31.502
		C 342.758,372.020, 365.604,338.834, 365.604,300.598z M 364.882,131.782c0-14.671-11.783-26.454-26.211-26.454l-18.036,0 l0-54.588 
		c0-13.708-11.063-24.769-24.77-24.769c-13.708,0-24.77,11.061-24.77,24.769l0,54.588 l-33.188,0 l0-54.588 
		c0-13.708-11.062-24.769-24.769-24.769c-13.466,0-24.529,11.061-24.529,24.769l-0.241,54.588l-17.795,0 
		c-14.668,0-26.452,11.783-26.452,26.454L 144.121,291.94 l 220.759,0 L 364.88,131.782 z M 213.139,350.136c0,5.050-4.087,9.379-9.379,9.379
		c-5.050,0-9.138-4.329-9.138-9.379s 4.088-9.379, 9.138-9.379C 209.052,340.757, 213.139,345.086, 213.139,350.136z M 314.382,350.136
		c0,5.050-4.089,9.379-9.138,9.379c-5.292,0-9.379-4.329-9.379-9.379s 4.087-9.379, 9.379-9.379
		C 310.293,340.757, 314.382,345.086, 314.382,350.136z M 423.799,168.575c0-13.708-11.062-24.769-24.769-24.769
		c-13.468,0-24.529,11.061-24.529,24.769L 374.501,271.98 c0,13.708, 11.062,24.529, 24.529,24.529c 13.707,0, 24.769-10.821, 24.769-24.529
		L 423.799,168.575 z"  />
<glyph unicode="&#xe001;" d="M 452,480L 60,480 C 27,480,0,453,0,420l0-392 c0-33, 27-60, 60-60l 392,0 c 33,0, 60,27, 60,60L 512,420 C 512,453, 485,480, 452,480z M 288.009,128
		l-19.175,39.234c-4.72,10.030-9.145,19.766-14.455,31.565l-1.18,0 
		C 248.773,187, 244.35,177.265, 240.219,167.234L 222.225,128l-46.609,0 l 53.395,98.824
		l-50.15,93.515l 48.38,0 l 16.815-36.285c 4.424-8.85, 8.555-18.88, 13.864-30.975
		l 1.181,0 c 4.424,12.095, 8.555,22.125, 12.389,30.975l 15.341,36.285l 46.314,0 l-49.854-95.579
		L 336.389,128L 288.009,128 z"  />
<glyph unicode="&#xe002;" d="M 486.029,400.278c-2.345,15.627-10.449,12.301-14.636,5.692
		c-4.175-6.619-22.784-34.806-30.442-47.567
		c-7.602-12.692-26.28-37.642-61.131-12.994
		c-36.281,25.663-23.654,43.569-17.349,55.615
		c 6.353,12.102, 25.879,46.005, 28.679,50.27
		c 2.813,4.241-0.467,16.655-11.722,11.454
		c-11.274-5.203-79.751-32.418-89.273-71.402
		c-9.68-39.754, 8.139-75.22-26.847-110.484L 35.473,59.334
		c-6.576-6.63-6.576-17.349,0-24.001l 52.145-46.642
		c 6.576-6.607, 17.003-3.861, 23.588,2.792L 315.799,236.687
		c 12.468,12.537, 39.061,24.694, 63.15,19.224
		c 51.643-11.677, 79.784,7.725, 96.754,39.754
		C 490.887,324.343, 488.362,384.648, 486.029,400.278z M 99.128,29.605
		c-12.628,0-22.863,10.238-22.863,22.864c0,12.626, 10.235,22.862, 22.863,22.862
		c 12.624,0, 22.861-10.236, 22.861-22.862
		C 121.989,39.843, 111.752,29.605, 99.128,29.605z"  />
<glyph unicode="&#xe003;" d="M 487.615,207.149L 404.122,407.902C 397.501,421.153, 379.993,432, 365.211,432L 146.794,432 
		C 132,432, 114.491,421.153, 107.872,407.902L 24.39,207.149
		c-6.621-13.259-10.040-36.077-7.604-50.701l 18.037-97.743
		c 2.434-14.624, 16.524-26.583, 31.309-26.583l 379.733,0 
		c 14.782,0, 28.874,11.959, 31.307,26.583l 18.049,97.743
		C 497.644,171.073, 494.224,193.891, 487.615,207.149z M 176,296.001c0,4.4, 3.6,8, 8,8l 56,0 l0,56 
		c0,4.4, 3.6,8, 8,8l 16,0 c 4.4,0, 8-3.6, 8-8l0-56 l 56,0 c 4.4,0, 8-3.6, 8-8l0-16 c0-4.4-3.6-8-8-8
		l-56,0 L 272,216 c0-4.4-3.6-8-8-8l-16,0 c-4.4,0-8,3.6-8,8l0,56.001 l-56,0 c-4.4,0-8,3.6-8,8L 176,296.001 
		z M 445.49,134.532l-6.869-31.433c-2.063-15.302-15.83-27.811-30.626-27.811L 104.541,75.289 
		c-14.784,0-28.563,12.509-30.624,27.811l-6.87,31.433
		c-2.051,15.296, 8.36,27.81, 23.155,27.81l 332.133,0 
		C 437.128,162.342, 447.542,149.828, 445.49,134.532z"  />
<glyph unicode="&#xe004;" d="M 404.122,407.902C 397.501,421.153, 379.993,432, 365.211,432L 146.794,432 
	C 132,432, 114.491,421.153, 107.872,407.902L 24.39,207.149
	c-6.621-13.259-10.040-36.077-7.604-50.701l 18.037-97.743
	c 2.434-14.624, 16.524-26.583, 31.309-26.583l 379.733,0 
	c 14.782,0, 28.874,11.959, 31.307,26.583l 18.049,97.743
	c 2.423,14.624-0.997,37.442-7.606,50.701L 404.122,407.902z M 445.49,134.532
	l-6.869-31.433c-2.063-15.302-15.83-27.811-30.626-27.811L 104.541,75.289 
	c-14.784,0-28.563,12.509-30.624,27.811l-6.87,31.433
	c-2.051,15.296, 8.36,27.81, 23.155,27.81l 332.133,0 
	C 437.128,162.342, 447.542,149.828, 445.49,134.532z"  />
<glyph unicode="&#xe038;" d="M 448,144l0,35.4 c0,34.675-22.949,86.25-86.225,86.25L 272,265.65 L 272,320 l 48,0 L 320,448 L 176,448 l0-128 l 47.975,0 
		l0-54.35 L 134.25,265.65 c-63.275,0-86.25-51.575-86.25-86.25L 48,144 L0,144 l0-128 l 144,0 L 144,144 L 95.5,144 l0,35.4 
		c0,6.475, 1.875,38.75, 38.75,38.75l 89.725,0 L 223.975,144 L 176,144 l0-128 l 144,0 L 320,144 l-48.025,0 l0,74.15 L 361.75,218.15 
		c 35.301,0, 38.574-29.8, 38.775-38.75L 400.525,144 L 352,144 l0-128 l 144,0 L 496,144 L 448,144 z M 112,112l0-64 L 32,48 l0,64 L 112,112 z M 288,112l0-64 l-80,0 l0,64 L 288,112 z
		 M 208,352L 208,416 l 80,0 l0-64 L 208,352 z M 464,48l-80,0 l0,64 l 80,0 L 464,48 z"  />
<glyph unicode="&#xe039;" d="M 444.784,416L 67.217,416 C 39.047,416, 16,392.952, 16,364.784l0-281.691 
		c0-28.168, 22.598-44.949, 50.227-50.477l 379.558,0 C 473.403,38.144, 496,54.925, 496,83.093
		L 496,364.784 C 496,392.952, 472.952,416, 444.784,416z M 256,80c-79.529,0-144,64.471-144,144
		s 64.471,144, 144,144s 144-64.471, 144-144S 335.529,80, 256,80zM 208,145.232L 340.308,224.616L 208,304 	z"  />
<glyph unicode="&#xe03a;" d="M 421.704,107.754c-54.542,21.652-71.979,39.928-71.979,79.061
		c0,23.484, 16.661,15.816, 23.986,58.831c 3.031,17.842, 17.745,0.29, 20.554,41.013
		c0,16.251-8.053,20.277-8.053,20.277s 4.093,24.039, 5.687,42.508
		C 393.891,372.494, 379.686,432, 303.99,432c-75.717,0-89.879-59.506-87.931-82.557
		c 1.593-18.469, 5.687-42.508, 5.687-42.508s-8.033-4.051-8.033-20.277
		c 2.833-40.723, 17.548-23.171, 20.579-41.013
		c 7.3-43.015, 23.963-35.347, 23.963-58.831c0-39.133-17.437-57.408-71.979-79.061
		C 131.557,86.030, 96,63.871, 96,48.779C 96,33.686, 96,16, 96,16l 207.99,0 l 207.99,0 
		c0,0,0,17.686,0,32.779C 511.98,63.896, 476.443,86.054, 421.704,107.754zM 161.726,185.25c0,16.825, 11.325,11.325, 16.274,42.1
		c 2.075,12.75, 12.075,0.2, 14,29.351c0,11.625-5.449,14.524-5.449,14.524
		s 2.75,17.2, 3.824,30.426c 1.325,16.475-8.3,59.074-59.774,59.074
		c-51.476,0-61.15-42.574-59.8-59.074c 1.1-13.226, 3.85-30.426, 3.85-30.426
		s-5.45-2.899-5.45-14.524C 71.125,227.575, 81.125,240.125, 83.176,227.35
		C 88.15,196.575, 99.476,202.075, 99.476,185.25c0-27.975-11.875-41.075-48.95-56.575
		C 16,112, 8.222,100.945, 4.124,87.219C0,70.827,0,16,0,16l 57.9,0 l0,32 
		c0,36.25, 41.767,59, 124.5,95.4C 167.226,154.075, 161.726,166.225, 161.726,185.25z"  />
<glyph unicode="&#xe03b;" d="M 373.714,107.754c-54.542,21.652-71.979,39.928-71.979,79.061
		c0,23.484, 16.663,15.816, 23.963,58.831c 3.031,17.842, 17.746,0.29, 20.579,41.013
		c0,16.227-8.033,20.277-8.033,20.277s 4.094,24.039, 5.687,42.508
		C 345.879,372.494, 331.717,432, 256,432c-75.695,0-89.9-59.506-87.909-82.557
		c 1.594-18.469, 5.687-42.508, 5.687-42.508s-8.053-4.026-8.053-20.277
		c 2.809-40.723, 17.522-23.171, 20.554-41.013
		c 7.325-43.015, 23.986-35.347, 23.986-58.831c0-39.133-17.437-57.408-71.979-79.061
		c-54.739-21.7-90.276-43.857-90.276-58.975c0-15.094,0-32.779,0-32.779L 256,16 l 207.99,0 
		c0,0,0,17.686,0,32.779C 463.99,63.871, 428.434,86.030, 373.714,107.754zM 504,208.001l-56,0 l0,56 c0,4.4-3.6,8-8,8l-16,0 c-4.4,0-8-3.6-8-8l0-56 l-56,0 
		c-4.4,0-8-3.6-8-8l0-16 c0-4.4, 3.6-8, 8-8l 56,0 L 416,120 c0-4.399, 3.6-8, 8-8l 16,0 c 4.4,0, 8,3.601, 8,8
		l0,56.001 l 56,0 c 4.4,0, 8,3.6, 8,8l0,16 C 512,204.401, 508.4,208.001, 504,208.001z"  />
<glyph unicode="&#xe03c;" d="M 373.704,107.754c-54.542,21.652-71.979,39.928-71.979,79.061
	c0,23.484, 16.663,15.816, 23.963,58.831c 3.031,17.842, 17.746,0.29, 20.579,41.013
	c0,16.227-8.033,20.277-8.033,20.277s 4.094,24.039, 5.687,42.508
	C 345.869,372.494, 331.707,432, 255.99,432c-75.695,0-89.9-59.506-87.909-82.557
	c 1.594-18.469, 5.687-42.508, 5.687-42.508s-8.053-4.026-8.053-20.277
	c 2.809-40.723, 17.522-23.171, 20.554-41.013
	c 7.325-43.015, 23.986-35.347, 23.986-58.831c0-39.133-17.437-57.408-71.979-79.061
	C 83.537,86.054, 48,63.896, 48,48.779C 48,33.686, 48,16, 48,16l 207.99,0 l 207.99,0 
	c0,0,0,17.686,0,32.779C 463.98,63.871, 428.424,86.030, 373.704,107.754z"  />
<glyph unicode="&#xe03d;" d="M 320.053,480L 320.053,352.053L 448,352.053 	zM 331.030,320.209c 0.003,0-0.016,0-0.083,0
		c-23.537,0-42.79,17.598-42.79,41.133l 0.083,0 L 288.24,480 L 104.141,480 
		C 82.149,480, 64.157,462.008, 64.157,440.017l0-431.824 c0-21.991, 17.992-39.983, 39.983-39.983
		l 303.618,0 c 21.992,0, 39.984,17.992, 39.984,39.983L 447.743,320.209 L 331.030,320.209 z M 327.268,161.777
		c-0.003,0-0.007,0.001-0.011,0.001l-35.28,0.002L 291.977,64 l-71.389,0 l 0.013,97.787
		l-35.446,0.003c-0.037,0-0.072-0.006-0.107-0.006
		c-4.91,0-8.89,3.98-8.89,8.89c0,2.19, 0.796,4.192, 2.11,5.742l-0.001,0.003
		l 71.205,74.248l 0.012,0 c 1.63,1.861, 4.017,3.043, 6.686,3.043
		c 2.646,0, 5.015-1.162, 6.644-2.997l 0.012,0 l 70.67-73.701l-0.002-0.004
		c 1.644-1.612, 2.665-3.856, 2.665-6.341
		C 336.157,165.758, 332.177,161.777, 327.268,161.777z"  />
<glyph unicode="&#xe03e;" d="M 400,275l-45,0 l0,74 c0,72.425-33.375,115-100,115c-66.65,0-100-42.575-100-115l0-10 l 50,0 l0,20 
		c0,36.125, 19.925,55, 50,55c 30.050,0, 50-18.875, 50-55l0-84 L 105,275 c-13.825,0-25-16.175-25-30l0-195 
		c0-13.75, 10.725-28.45, 23.8-32.675l 29.9-9.675C 146.8,3.45, 168.75,0, 182.5,0l 145,0 
		c 13.775,0, 35.725,3.45, 48.8,7.675l 29.9,9.675C 419.275,21.55, 430,36.25, 430,50L 430,245 
		C 430,258.825, 413.825,275, 400,275z M 256,64c-26.51,0-48,21.49-48,48s 21.49,48, 48,48s 48-21.49, 48-48
		S 282.51,64, 256,64z"  />
<glyph unicode="&#xe03f;" d="M 275.625,432C 164.5,432, 74.125,342.95, 71.399,232.125L 9.975,232.125 l 91.975-102.5l 91.95,102.5L 122.5,232.125 
	c 2.699,82.525, 70.199,148.625, 153.125,148.625c 84.675,0, 153.274-68.825, 153.274-153.75
	S 360.3,73.25, 275.625,73.25c-33.926,0-65.275,11.1-90.676,29.825l-35.149-37.601
	C 184.475,38.25, 228.149,22, 275.625,22C 388.5,22, 480,113.775, 480,227
	C 479.975,340.225, 388.475,432, 275.625,432z"  />
<glyph unicode="&#xe040;" d="M 496,176l0,96 l-32,0 L 464,400 L 464,400 L 464,432 l0,0 l-32,0 L 48,432 l0-0.001 l0,0 L 48,272 L 16,272 l0-96 l 32,0 l0-159.999 L 48,16.001 L 48,16 
		l 384,0 l 32,0 L 464,16 l0,32 l0,0 L 464,176 L 496,176 z M 464,240l0-32 l-32,0 l0,32 L 464,240 z M 48,240l 32,0 l0-32 L 48,208 L 48,240 z M 80,48L 80,176 L 112,176 l0,96 
		L 80,272 L 80,400 l 352,0 l0-128 L 400,272 l0-96 l 32,0 l0-128 L 80,48 zM 160,320L 240,320L 240,112L 272,112L 272,320L 352,320L 352,345.68L 160,345.68 	z"  />
<glyph unicode="&#xe041;" d="M 335.939,425.779l-21.714,24.090C 305.857,461.775, 296.758,464, 279.038,464l-46.312,0 
		c-17.695,0-26.795-2.225-35.188-14.131l-21.689-24.090
		C 110.884,414.429, 63.766,384.322, 63.766,362.127l0-4.322 
		c0-39.081, 85.997-70.78, 192.117-70.78C 362.002,287.024, 448,318.724, 448,357.805l0,4.322 
		C 448,384.322, 400.906,414.429, 335.939,425.779z M 288,410c0-5.5-4.5-10-10-10l-44,0 c-5.5,0-10,4.5-10,10L 224,422 
		c0,5.5, 4.5,10, 10,10l 44,0 c 5.5,0, 10-4.5, 10-10L 288,410 zM 88.766,286.039l 27.857-252.013C 118.113,22.373, 174.385-15.949, 255.883-16
		c 81.498,0.051, 137.794,38.373, 139.285,50.025l 27.856,252.013
		c-42.569-23.813-106.194-35.087-167.142-35.087S 131.309,262.226, 88.766,286.039z"  />
<glyph unicode="&#xe042;" d="M 175,257L 25,257 c-13.8,0-25-11.2-25-25s 11.2-25, 25-25l 150,0 c 13.8,0, 25,11.2, 25,25
	S 188.8,257, 175,257z M 175,157L 25,157 c-13.8,0-25-11.175-25-25s 11.2-25, 25-25l 150,0 
	c 13.8,0, 25,11.175, 25,25S 188.8,157, 175,157z M 485,257l-85,0 l0,85 c0,13.8-11.175,15-25,15
	s-25-1.2-25-15l0-85 l-82.5,0 c-13.825,0-15-11.2-15-25s 1.2-25, 15.025-25L 350,207 l0-85 
	c0-13.8, 11.175-15, 25-15s 25,1.2, 25,15l0,85 l 85,0 c 13.8,0, 15,11.2, 15,25S 498.8,257, 485,257z M 175,357
	L 25,357 c-13.8,0-25-11.2-25-25s 11.2-25, 25-25l 150,0 c 13.8,0, 25,11.2, 25,25S 188.8,357, 175,357z"  />
<glyph unicode="&#xe043;" d="M 288,167.318L 288,288 c0,17.673-14.327,32-32,32s-32-14.327-32-32l0-120.682 
		c-19.124-11.067-32-31.732-32-55.417c0-35.347, 28.654-64, 64-64s 64,28.653, 64,64
		C 320,135.586, 307.124,156.251, 288,167.318zM 368,288c 8.836,0, 16,7.163, 16,16s-7.164,16-16,16l-16,0 l0,32 l 16,0 c 8.836,0, 16,7.163, 16,16
		s-7.164,16-16,16l-17.341,0 C 343.019,429.345, 303.484,464, 256,464c-52.935,0-96-43.065-96-96l0-171.449 
		c-20.487-23.254-32-53.363-32-84.649c0-34.19, 13.314-66.334, 37.49-90.51
		S 221.81-16.099, 256-16.099s 66.334,13.314, 90.51,37.49S 384,77.711, 384,111.901
		c0,31.286-11.513,61.396-32,84.649L 352,224 l 16,0 c 8.836,0, 16,7.163, 16,16s-7.164,16-16,16l-16,0 l0,32 L 368,288 z
		 M 256,15.901c-53.020,0-96,42.98-96,96c0,28.431, 12.362,53.97, 32,71.548L 192,368 
		c0,35.347, 28.654,64, 64,64s 64-28.653, 64-64l0-184.551 c 19.638-17.578, 32-43.117, 32-71.548
		C 352,58.882, 309.020,15.901, 256,15.901z"  />
<glyph unicode="&#xe005;" d="M 478.417,446.427c-23.43,23.43-61.41,23.43-84.84,0L 222.578,275.458
	c 39.614-14.115, 70.784-45.299, 84.839-84.899l 170.999,171.029
	C 501.861,385.018, 501.861,422.998, 478.417,446.427z M 255.967,144.028
	c0,44.176-35.864,79.98-80.039,79.98c-44.176,0-79.98-35.804-79.98-79.98
	l 0.060-0.060c-0.060-59.175-32.221-110.805-79.98-138.449l 0.24-0.301
	c 23.491-13.47, 50.686-21.21, 79.74-21.21c 88.365,0, 160.019,71.655, 160.019,160.020
	L 255.967,144.028 z"  />
<glyph unicode="&#xe006;" d="M 463.999,432L 48,432 l0-416 l 415.998,0 L 463.999,432z M 431.999,400l0-96 l-96,0 L 335.999,400 L 431.999,400 z M 335.999,272l 96,0 l0-96 l-96,0 
	L 335.999,272 z M 303.999,176l-96,0 l0,96 l 96,0 L 303.999,176 z M 303.999,400l0-96 l-96,0 L 207.999,400 L 303.999,400 z M 80,400l 95.999,0 l0-96 L 80,304 L 80,400 z M 80,272l 95.999,0 l0-96 
	L 80,176 L 80,272 z M 80,48l0,96 l 95.999,0 l0-96 L 80,48 z M 207.999,48l0,96 l 96,0 l0-96 L 207.999,48 z M 335.999,144l 96,0 l0-96 l-96,0 L 335.999,144 z"  />
<glyph unicode="&#xe007;" d="M 368,368L 144,368 c-24.85,0-32-7.65-32-32.5L 112,112 c0-24.85, 7.15-32.5, 32-32.5l 224,0 
	c 24.85,0, 32,7.65, 32,32.5L 400,335.5 C 400,360.35, 392.85,368, 368,368z"  />
<glyph unicode="&#xe064;" d="M 256,363.244l 30.472-85.785l 7.562-21.289l 22.593,0 l 67.264,0 l-56.566-42.684
		L 310.072,200.469l 5.631-20.864l 22.935-84.977l-63.21,48.29L 256,157.76
		l-19.426-14.843l-63.207-48.29l 22.93,84.979l 5.63,20.864l-17.249,13.017
		l-56.566,42.684l 67.263,0 l 22.592,0 l 7.563,21.289L 256,363.244 M 256.001,458.847
		l-60.627-170.677L 32.577,288.17 l 132.825-100.228L 117.928,12l 138.073,105.489L 394.083,12
		l-47.485,175.942l 132.826,100.228L 316.626,288.17 L 256.001,458.847L 256.001,458.847z"  />
<glyph unicode="&#xe008;" d="M 255.424,458.847L 316.049,288.17L 478.847,288.17L 346.021,187.942L 393.506,12L 255.424,117.489L 117.351,12L 164.825,187.942L 32,288.17L 194.797,288.17 	z"  />
<glyph unicode="&#xe009;" d="M 34.17,351.854C 12.677,314.643, 0.287,271.518, 0.020,225.52
		c 12.076,6.145, 61.465,28.747, 131.205,27.144
		c 5.035,22.007, 15.744,41.85, 30.504,57.913
		C 101.795,346.513, 47.602,351.236, 34.17,351.854zM 284.662,348.775C 286.266,418.516, 263.664,467.904, 257.52,479.98
		C 257.013,479.983, 256.508,480, 256,480c-46.269,0-89.668-12.277-127.123-33.748
		c 11.281-7.3, 55.693-38.691, 89.337-99.924C 230.158,350.013, 242.847,352, 256,352
		C 265.854,352, 275.447,350.884, 284.662,348.775zM 378.328,261.786c 61.232,33.644, 92.624,78.056, 99.924,89.337
		c-22.527,39.301-55.18,72.054-94.398,94.707
		c-0.617-13.432-5.341-67.625-41.277-127.559
		C 359.060,303.125, 371.562,283.715, 378.328,261.786zM 477.83,96.146c 21.493,37.211, 33.883,80.336, 34.15,126.334
		c-12.076-6.145-61.465-28.746-131.205-27.143
		c-5.035-22.008-15.744-41.851-30.504-57.914
		C 410.204,101.489, 464.396,96.764, 477.83,96.146zM 133.673,186.213C 72.441,152.568, 41.051,108.159, 33.749,96.875
		c 22.527-39.3, 55.179-72.052, 94.397-94.705
		c 0.617,13.435, 5.344,67.627, 41.278,127.558
		C 152.941,144.874, 140.439,164.283, 133.673,186.213zM 227.338,99.225c-1.604-69.74, 20.998-119.129, 27.143-131.205
		C 254.987-31.983, 255.492-32, 256-32c 46.269,0, 89.668,12.278, 127.125,33.749
		c-11.283,7.301-55.695,38.692-89.338,99.923C 281.843,97.987, 269.154,96, 256,96
		C 246.146,96, 236.553,97.116, 227.338,99.225z"  />
<glyph unicode="&#xe00a;" d="M 395.203,251.415l 0.003,0.006L 268,384.084l-0.022,0 
	c-2.932,3.302-7.195,5.395-11.958,5.395c-4.804,0-9.101-2.127-12.034-5.479l-0.021,0 
	L 115.796,250.354l 0.002-0.005C 113.433,247.561, 112,243.957, 112,240.014
	c0-8.837, 7.164-16.001, 16.001-16.001c 0.064,0, 0.128,0.009, 0.193,0.010
	l 63.804-0.005L 191.975,48l 128.5,0 L 320.475,224.006 l 63.505-0.005
	c 0.007,0, 0.014-0.001, 0.020-0.001C 392.836,224, 400,231.164, 400,240.001
	C 400,244.473, 398.161,248.512, 395.203,251.415z"  />
<glyph unicode="&#xe00b;" d="M 416,236.015l0,0.021 L 282.354,364.204l-0.005-0.002
	C 279.561,366.567, 275.957,368, 272.014,368c-8.837,0-16.001-7.164-16.001-16.001
	c0-0.064, 0.009-0.128, 0.010-0.193l-0.005-63.804L 80,288.025l0-128.5 l 176.006,0 
	l-0.005-63.505c0-0.007-0.001-0.014-0.001-0.020C 256,87.164, 263.164,80, 272.001,80
	c 4.472,0, 8.511,1.839, 11.414,4.797l 0.006-0.003L 416.084,212l0,0.022 
	c 3.302,2.932, 5.395,7.195, 5.395,11.958C 421.479,228.784, 419.352,233.081, 416,236.015z"  />
<glyph unicode="&#xe044;" d="M 432,159.975l0,128.5 L 255.994,288.475 l 0.005,63.505c0,0.007, 0.001,0.014, 0.001,0.020
	C 256,360.836, 248.836,368, 239.999,368c-4.472,0-8.511-1.839-11.414-4.797l-0.006,0.003
	L 95.916,236l0-0.022 c-3.302-2.932-5.395-7.195-5.395-11.958
	c0-4.804, 2.127-9.101, 5.479-12.034l0-0.021 l 133.646-128.168l 0.005,0.002
	C 232.439,81.433, 236.043,80, 239.986,80c 8.837,0, 16.001,7.164, 16.001,16.001
	c0,0.064-0.009,0.128-0.010,0.193l 0.005,63.804L 432,159.975z"  />
<glyph unicode="&#xe045;" d="M 400,207.986c0,8.837-7.164,16.001-16.001,16.001
	c-0.065,0-0.128-0.009-0.193-0.010l-63.804,0.005L 320.025,400l-128.5,0 l0-176.006 
	l-63.505,0.005c-0.007,0-0.013,0.001-0.020,0.001C 119.164,224, 112,216.836, 112,207.999
	c0-4.472, 1.839-8.511, 4.797-11.414l-0.002-0.006L 244,63.916l 0.022,0 
	c 2.932-3.302, 7.195-5.395, 11.958-5.395c 4.803,0, 9.101,2.127, 12.034,5.479l 0.021,0 
	l 128.168,133.646l-0.002,0.005C 398.567,200.439, 400,204.043, 400,207.986z"  />
<glyph unicode="&#xe046;" d="M 360.184,117.639C 510.178,288.277, 348.188,384, 348.188,384s 92.623-96-39.58-213.229
		l0-0.001 L 288,192l0-96 l 93.188,0 l-21.005,21.639L 360.184,117.639zM 143.998,257.13L 175.998,257.13L 175.998,193.13L 143.998,193.13zM 191.999,128l-64,0 l0-14.87 l-16.001,0 l0-112 l 32.001,0 l0,32 l 32,0 l0-32 L 208,1.13 L 208,113.13 l-16.001,0 L 191.999,128 z
		 M 143.999,64l0,33.13 l 32,0 L 175.999,64 L 143.999,64 zM 207.999,352L 154.828,352L 207.999,415.617L 207.563,416L 207.999,416L 207.999,448L 111.998,448L 111.998,416L 166.347,416L 111.998,352L 111.998,320L 207.999,320 	z"  />
<glyph unicode="&#xe047;" d="M 360.184,330.361l-0.002-0.001L 381.188,352L 288,352 l0-96 l 20.607,21.23l0-0.001 
		C 440.811,160, 320,64, 320,64S 510.178,159.723, 360.184,330.361zM 144,256L 176,256L 176,192L 144,192zM 192.001,446.87l-64,0 L 128.001,432 L 112,432 l0-112 l 32.001,0 l0,32 l 32,0 l0-32 l 32.001,0 L 208.002,432 l-16.001,0 L 192.001,446.87 z
		 M 144.001,382.87L 144.001,416 l 32,0 l0-33.13 L 144.001,382.87 zM 112,96L 166.349,96L 112,32L 112,0L 208.001,0L 208.001,32L 154.83,32L 208.001,95.617L 207.564,96L 208.001,96L 208.001,128L 112,128 	z"  />
<glyph unicode="&#xe048;" d="M 144,256L 176,256L 176,192L 144,192zM 417.67,224c0,56.774-22.961,108.092-59.209,136.588L 381.188,384L 288,384 l0-96 l 25.403,26.17
		c 34.856-18.163, 58.324-47.683, 67.856-70.474
		c 6.451,11.451, 14.406,33.303, 14.406,33.303c0-35.319-13.018-70.64-13.018-70.64
		l-0.004,0.010c-8.133-24.028-30.873-56.965-68.836-72.957L 288,160l0-96 l 93.188,0 
		l-22.723,23.409C 394.723,115.889, 417.67,167.159, 417.67,224zM 192.001,446.87l-64,0 L 128.001,432 L 112,432 l0-112 l 32.001,0 l0,32 l 32,0 l0-32 l 32.001,0 L 208.002,432 l-16.001,0 L 192.001,446.87 z
		 M 144.001,382.87L 144.001,416 l 32,0 l0-33.13 L 144.001,382.87 zM 112,96L 166.349,96L 112,32L 112,0L 208.001,0L 208.001,32L 154.83,32L 208.001,95.617L 207.564,96L 208.001,96L 208.001,128L 112,128 	z"  />
<glyph unicode="&#xe049;" d="M 244.134,281.599L 32,281.599 c-17.6,0-32-14.4-32-32l0-38.4 c0-17.6, 14.4-32, 32-32l 212.134,0 
		C 261.842,148.6, 294.905,128, 332.801,128c 37.895,0, 70.958,20.6, 88.666,51.198L 480,179.198 
		c 17.601,0, 32,14.4, 32,32l0,38.4 c0,17.6-14.399,32-32,32l-58.533,0 
		c-17.708,30.599-50.771,51.2-88.666,51.2
		C 294.905,332.799, 261.842,312.197, 244.134,281.599z M 384,230.399
		c0-28.279-22.923-51.201-51.199-51.201c-28.277,0-51.2,22.922-51.2,51.201
		c0,28.276, 22.923,51.199, 51.2,51.199C 361.077,281.599, 384,258.676, 384,230.399z"  />
<glyph unicode="&#xe04a;" d="M 375,98L 50,98 L 50,323 l 64.875,0 c0,0, 17.225,22.4, 54.25,50L 25,373 c-13.8,0-25-11.2-25-25l0-275 
		c0-13.825, 11.2-25, 25-25l 375,0 c 13.825,0, 25,11.175, 25,25l0,93.65 l-50-41.125L 375,98 zM 473.081,323.553l0,0.020 L 358.579,433.38l-0.004-0.001
		c-2.39,2.026-5.477,3.254-8.855,3.254c-7.571,0-13.709-6.139-13.709-13.709
		c0-0.056, 0.008-0.11, 0.008-0.166l-0.005-63.023C 136.509,358.365, 136.5,160.5, 136.5,160.5
		c 56.691,93.11, 91.721,111.023, 199.507,111.244l-0.006-68.131
		c0-0.006-0.001-0.012-0.001-0.018c0-7.57, 6.138-13.709, 13.709-13.709
		c 3.831,0, 7.292,1.576, 9.779,4.11l 0.005-0.003l 113.66,108.984l0,0.020 
		c 2.829,2.512, 4.622,6.164, 4.622,10.245
		C 477.774,317.358, 475.952,321.040, 473.081,323.553z"  />
<glyph unicode="&#xe04b;" d="M 492,416L 217.324,416 C 204.977,444.25, 176.801,464, 144,464S 83.023,444.25, 70.676,416L 20,416 C 9,416,0,407,0,396l0-24 
		c0-11, 9-20, 20-20l 50.676,0 C 83.023,323.75, 111.199,304, 144,304s 60.977,19.75, 73.324,48L 492,352 c 11,0, 20,9, 20,20L 512,396 
		C 512,407, 503,416, 492,416z M 144,336c-26.51,0-48,21.491-48,48s 21.49,48, 48,48s 48-21.491, 48-48
		S 170.51,336, 144,336zM 492,96L 281.326,96 C 268.979,124.252, 240.803,144.004, 208,144.004
		S 147.021,124.252, 134.674,96L 20,96 c-11,0-20-9-20-20l0-24 c0-11, 9-20, 20-20l 114.678,0 
		C 147.025,3.752, 175.2-15.996, 208-15.996S 268.975,3.752, 281.322,32L 492,32 c 11,0, 20,9, 20,20
		l0,24 C 512,87, 503,96, 492,96z M 208,16.004c-26.51,0-48,21.491-48,48s 21.49,48, 48,48s 48-21.491, 48-48
		S 234.51,16.004, 208,16.004zM 492,256l-50.676,0 C 428.977,284.25, 400.801,304, 368,304s-60.977-19.75-73.324-48L 20,256 c-11,0-20-9-20-20l0-24 
		c0-11, 9-20, 20-20l 274.676,0 C 307.023,163.75, 335.199,144, 368,144s 60.977,19.75, 73.324,48L 492,192 c 11,0, 20,9, 20,20l0,24 
		C 512,247, 503,256, 492,256z M 368,176c-26.51,0-48,21.491-48,48s 21.49,48, 48,48s 48-21.491, 48-48
		S 394.51,176, 368,176z"  />
<glyph unicode="&#xe04c;" d="M 134.256,128L 90.271,128 C 75.822,128, 64,116.178, 64,101.729l0-43.534 
		c0-14.448, 11.822-26.271, 26.271-26.271l 43.985,0 c 14.449,0, 26.271,11.822, 26.271,26.271
		l0,43.534 C 160.526,116.178, 148.705,128, 134.256,128zM 278.181,128l-43.985,0 c-14.449,0-26.271-11.822-26.271-26.271l0-43.534 
		c0-14.448, 11.822-26.271, 26.271-26.271l 43.985,0 c 14.449,0, 26.271,11.822, 26.271,26.271
		l0,43.534 C 304.451,116.178, 292.629,128, 278.181,128zM 421.654,128l-43.985,0 c-14.449,0-26.271-11.822-26.271-26.271l0-43.534 
		c0-14.448, 11.822-26.271, 26.271-26.271l 43.985,0 c 14.449,0, 26.271,11.822, 26.271,26.271
		l0,43.534 C 447.925,116.178, 436.103,128, 421.654,128zM 134.256,272.075L 90.271,272.075 C 75.822,272.075, 64,260.253, 64,245.805l0-43.534 
		C 64,187.822, 75.822,176, 90.271,176l 43.985,0 c 14.449,0, 26.271,11.822, 26.271,26.271l0,43.534 
		C 160.526,260.253, 148.705,272.075, 134.256,272.075zM 278.181,272.075l-43.985,0 c-14.449,0-26.271-11.822-26.271-26.271l0-43.534 
		C 207.925,187.822, 219.747,176, 234.195,176l 43.985,0 c 14.449,0, 26.271,11.822, 26.271,26.271
		l0,43.534 C 304.451,260.253, 292.629,272.075, 278.181,272.075zM 421.654,272.075l-43.985,0 c-14.449,0-26.271-11.822-26.271-26.271l0-43.534 
		C 351.398,187.822, 363.22,176, 377.669,176l 43.985,0 c 14.449,0, 26.271,11.822, 26.271,26.271
		l0,43.534 C 447.925,260.253, 436.103,272.075, 421.654,272.075zM 134.256,416.075L 90.271,416.075 C 75.822,416.075, 64,404.253, 64,389.805l0-43.534 
		C 64,331.822, 75.822,320, 90.271,320l 43.985,0 c 14.449,0, 26.271,11.822, 26.271,26.271L 160.526,389.805 
		C 160.526,404.253, 148.705,416.075, 134.256,416.075zM 278.181,416.075l-43.985,0 c-14.449,0-26.271-11.822-26.271-26.271l0-43.534 
		C 207.925,331.822, 219.747,320, 234.195,320l 43.985,0 c 14.449,0, 26.271,11.822, 26.271,26.271
		L 304.451,389.805 C 304.451,404.253, 292.629,416.075, 278.181,416.075zM 421.654,416.075l-43.985,0 c-14.449,0-26.271-11.822-26.271-26.271l0-43.534 
		C 351.398,331.822, 363.22,320, 377.669,320l 43.985,0 c 14.449,0, 26.271,11.822, 26.271,26.271
		L 447.925,389.805 C 447.925,404.253, 436.103,416.075, 421.654,416.075z"  />
<glyph unicode="&#xe04d;" d="M 438.308,448L 73.692,448 C 41.961,448, 16,422.038, 16,392.615L 16,60 c0-34.038, 25.961-60, 57.692-60
		l 364.615,0 C 470.039,0, 496,25.962, 496,60L 496,392.615 C 496,422.038, 470.039,448, 438.308,448z M 448,48L 64,48 l0,96 
		l 384,0 L 448,48 z M 448,176L 64,176 l0,96 l 384,0 L 448,176 z M 448,304L 64,304 L 64,400 l 384,0 L 448,304 zM 357.465,320.598c 1.527,0, 2.909,0.627, 3.899,1.637l 0.001,0 l 31.431,25.967
		l0,0.011 c 1.126,0.999, 1.842,2.456, 1.842,4.083c0,1.641-0.726,3.109-1.873,4.11
		l0,0.007 L 361.002,382.703l-0.001,0 C 360.047,383.509, 358.816,384, 357.471,384
		c-3.019,0-5.467-2.447-5.467-5.466c0-0.022, 0.003-0.044, 0.003-0.067
		l-0.005-52.396c0-0.006-0.002-0.006-0.002-0.010
		C 352,323.043, 354.446,320.598, 357.465,320.598zM 357.465,192c 1.527,0, 2.909,0.627, 3.899,1.637l 0.001,0 l 31.431,25.967l0,0.011 
		c 1.126,0.999, 1.842,2.456, 1.842,4.083c0,1.641-0.726,3.109-1.873,4.11l0,0.007 
		l-31.763,26.291l-0.001,0 c-0.954,0.806-2.185,1.297-3.53,1.297
		c-3.019,0-5.467-2.447-5.467-5.466c0-0.022, 0.003-0.044, 0.003-0.067
		l-0.005-52.396c0-0.006-0.002-0.006-0.002-0.010C 352,194.445, 354.446,192, 357.465,192zM 357.465,64c 1.527,0, 2.909,0.627, 3.899,1.637l 0.001,0 l 31.431,25.967l0,0.011 
		c 1.126,0.999, 1.842,2.456, 1.842,4.083c0,1.641-0.726,3.109-1.873,4.11l0,0.007 
		l-31.763,26.291l-0.001,0 c-0.954,0.806-2.185,1.297-3.53,1.297
		c-3.019,0-5.467-2.447-5.467-5.466c0-0.022, 0.003-0.044, 0.003-0.067
		l-0.005-52.396c0-0.006-0.002-0.006-0.002-0.010C 352,66.445, 354.446,64, 357.465,64z"  />
<glyph unicode="&#xe04e;" d="M 477,448L 35,448 C 15.75,448,0,432.25,0,413l0-378 c0-19.25, 15.75-35, 35-35l 442,0 c 19.25,0, 35,15.75, 35,35L 512,413 C 512,432.25, 496.25,448, 477,448z
	 M 192,384l 128,0 l0-96 L 192,288 L 192,384 z M 192,256l 128,0 l0-96 L 192,160 L 192,256 z M 320,128L 320,32 L 192,32 l0,96 L 320,128 z M 32,384l 128,0 
	l0-96 L 32,288 L 32,384 z M 32,256l 128,0 l0-96 L 32,160 L 32,256 z M 32,32l0,96 l 128,0 L 160,32 L 32,32 z M 480,32L 352,32 l0,96 l 128,0 L 480,32 z
	 M 480,160L 352,160 l0,96 l 128,0 L 480,160 z M 480,288L 352,288 L 352,384 l 128,0 L 480,288 z"  />
<glyph unicode="&#xe04f;" d="M 450.125,92.8l-94.475,94.476c 14.25,23.425, 22.449,50.875, 22.449,80.3
	C 378.1,352.975, 304.075,427, 218.65,427C 133.25,427, 64,357.75, 64,272.35
	c0-85.425, 74-159.45, 159.425-159.45c 28.4,0, 55,7.699, 77.875,21.074l 94.976-95
	c 9.324-9.3, 24.375-9.3, 33.649,0L 453.5,62.525
	C 462.775,71.825, 459.4,83.525, 450.125,92.8z M 111.6,272.35
	c0,59.125, 47.926,107.075, 107.051,107.075c 59.149,0, 111.85-52.7, 111.85-111.85
	C 330.5,208.425, 282.575,160.5, 223.425,160.5C 164.275,160.5, 111.6,213.2, 111.6,272.35z"  />
<glyph unicode="&#xe00c;" d="M 494.5,83.049L 17.5,83.049 L 17.5,398.5 L 494.5,398.5 L 494.5,83.049 z M 46.5,128L 465.5,128 L 465.5,304 L 46.5,304 L 46.5,128 z"  />
<glyph unicode="&#xe00d;" d="M 368,464l-32,0 l0-103.92 L 336,360 c0-0.335-0.017-0.666-0.025-1
		c-0.537-21.543-18.308-39-39.976-39l-0.075,0 L 120.073,320 l-0.072,0 C 97.988,320, 80,337.998, 80,360
		l 0.076,0 L 80.076,464 L 56,464 c-22,0-40-18-40-40l0-400 c0-22, 18-40, 40-40l 24,0 l 15.99,0 L 400-16 l 16,0 l 40,0 c 22,0, 40,18, 40,40L 496,336 L 368,464zM 287.99,368C 287.996,368, 288,368.004, 288,368.010L 288,431.99 
		C 288,431.996, 287.996,432, 287.99,432l-47.98,0 C 240.004,432, 240,431.996, 240,431.99l0-63.98 
		C 240,368.004, 240.004,368, 240.010,368L 287.99,368 z"  />
<glyph unicode="&#xe00e;" d="M 216.725,179.229c-3.396,3.396-7.939,4.931-12.383,4.636l-0.015,0.015
		l-116.544-7.688L 87.781,176.187c-3.644-0.301-7.205-1.835-9.994-4.623
		c-6.249-6.249-6.249-16.381,0-22.629c 0.046-0.047, 0.097-0.084, 0.144-0.13
		l 28.665-28.673L 32,48l 50-50l 72.127,74.588l 32.27-32.278
		c 0.005-0.005, 0.008-0.011, 0.013-0.015c 6.249-6.249, 16.38-6.249, 22.629,0
		c 3.162,3.162, 4.718,7.318, 4.679,11.463l 0.006,0.002l 7.659,115.184l-0.016,0.016
		C 221.628,171.367, 220.093,175.861, 216.725,179.229zM 436.069,297.841l-28.665,28.673L 482,398.646l-50,50l-72.127-74.588l-32.27,32.278
		c-0.005,0.005-0.008,0.011-0.013,0.015c-6.249,6.249-16.38,6.249-22.629,0
		c-3.162-3.162-4.718-7.318-4.679-11.463l-0.006-0.002l-7.659-115.184l 0.016-0.016
		c-0.262-4.408, 1.273-8.902, 4.641-12.271c 3.396-3.396, 7.939-4.931, 12.383-4.636
		l 0.015-0.015l 116.544,7.688l 0.002,0.005c 3.644,0.301, 7.205,1.835, 9.994,4.623
		c 6.249,6.249, 6.249,16.381,0,22.629C 436.167,297.758, 436.116,297.795, 436.069,297.841
		z"  />
<glyph unicode="&#xe066;" d="M 480.265,429.059c 0.262,4.408-1.273,8.902-4.641,12.271
		c-3.396,3.396-7.939,4.931-12.383,4.636l-0.015,0.015l-116.544-7.688l-0.002-0.005
		c-3.644-0.301-7.205-1.835-9.994-4.623c-6.249-6.249-6.249-16.381,0-22.629
		c 0.046-0.047, 0.097-0.084, 0.144-0.13l 28.665-28.673l-74.595-72.133l 50-50
		L 413.026,334.687l 32.27-32.278c 0.005-0.005, 0.008-0.011, 0.013-0.015
		c 6.249-6.249, 16.38-6.249, 22.629,0c 3.162,3.162, 4.718,7.318, 4.679,11.463
		l 0.006,0.002L 480.281,429.043L 480.265,429.059zM 171.101,189.9L 98.974,115.312l-32.27,32.278
		c-0.005,0.005-0.008,0.011-0.013,0.015c-6.249,6.249-16.38,6.249-22.629,0
		c-3.162-3.162-4.718-7.318-4.679-11.463l-0.006-0.002L 31.719,20.957l 0.016-0.016
		c-0.262-4.408, 1.273-8.902, 4.641-12.271c 3.396-3.396, 7.939-4.931, 12.383-4.636
		l 0.015-0.015l 116.544,7.688l 0.002,0.005c 3.644,0.301, 7.205,1.835, 9.994,4.623
		c 6.249,6.249, 6.249,16.381,0,22.629c-0.046,0.047-0.097,0.084-0.144,0.13
		l-28.665,28.673l 74.595,72.133L 171.101,189.9z"  />
<glyph unicode="&#xe00f;" d="M 447.843,352.053L 319.896,480l0-0.158 L 319.843,480l-215.859,0 C 81.992,480, 64,462.008, 64,440.017
		l0-431.824 c0-21.991, 17.992-39.983, 39.983-39.983l 303.618,0 
		c 21.992,0, 39.984,17.992, 39.984,39.983L 447.586,352 l-0.157,0.053L 447.843,352.053 z M 399.843,16l-96,0 l-80,0 l-112,0 L 111.843,432 
		l 208.053,0 l0-79.947 l 79.947,0 L 399.843,16 zM 160,240L 160,128L 160,112L 160,96L 240,96L 240,128L 192,128L 192,240L 240,240L 240,272L 160,272 	zM 272,240L 320,240L 320,128L 272,128L 272,96L 352,96L 352,112L 352,128L 352,240L 352,272L 272,272 	z"  />
<glyph unicode="&#xe010;" d="M 447.843,352.053L 319.896,480l0-0.158 L 319.843,480l-215.859,0 C 81.992,480, 64,462.008, 64,440.017
		l0-431.824 c0-21.991, 17.992-39.983, 39.983-39.983l 303.618,0 
		c 21.992,0, 39.984,17.992, 39.984,39.983L 447.586,352 l-0.157,0.053L 447.843,352.053 z M 399.843,16l-96,0 l-80,0 l-112,0 L 111.843,432 
		l 208.053,0 l0-79.947 l 79.947,0 L 399.843,16 zM 151.843,272L 199.843,272L 199.843,176L 151.843,176zM 151.843,144L 359.843,144L 359.843,112L 151.843,112zM 151.843,96L 359.843,96L 359.843,64L 151.843,64zM 231.843,320L 279.843,320L 279.843,176L 231.843,176zM 311.843,240L 359.843,240L 359.843,176L 311.843,176z"  />
<glyph unicode="&#xe011;" d="M 412.997,204c-56.328,0-101.996-45.672-101.996-102
				c0-56.334, 45.668-102, 101.996-102C 469.332,0, 515,45.666, 515,102
				C 515,158.328, 469.332,204, 412.997,204z M 412.997,22.174
				c-44.081,0-79.822,35.741-79.822,79.826c0,44.088, 35.741,79.825, 79.822,79.825
				c 44.092,0, 79.829-35.737, 79.829-79.825
				C 492.826,57.915, 457.089,22.174, 412.997,22.174zM 420.762,159.65L 405.236,159.65L 405.236,98.783L 442.993,61.031L 453.966,72.007L 420.762,105.217 			zM 48,464L 208,464L 208,16L 48,16zM 272,48L 272,432L 368,432L 368,224L 400,224L 400,432L 400,464L 272,464L 240,464L 240,432L 240,48L 240,16L 272,16L 307,16L 307,48 	z"  />
<glyph unicode="&#xe012;" d="M 146.894,121.4c-56.551,60.824-55.551,156.125, 3.175,215.274
	c 24.050,24.2, 54.1,38.65, 85.35,43.4L 233.693,432
	c-43.851-5.325-86.3-24.9-119.925-58.75C 35.043,293.95, 34.118,166, 110.693,84.95
	L 67.168,41.125l 137.75-7.525l-0.375,145.851L 146.894,121.4z M 313.043,420.375l 0.375-145.85
	l 57.675,58.074c 56.551-60.824, 55.575-156.125-3.175-215.274
	c-24.050-24.226-54.1-38.65-85.375-43.4l 1.726-51.899
	c 43.875,5.324, 86.324,24.899, 119.949,58.774c 78.7,79.275, 79.676,207.25, 3.051,288.275
	l 43.524,43.825L 313.043,420.375z"  />
<glyph unicode="&#xe050;" d="M 236.325,432c 111.149,0, 201.524-89.050, 204.225-199.875L 502,232.125 l-91.975-102.525
	L 318.050,232.125l 71.4,0 c-2.675,82.525-70.175,148.625-153.125,148.625
	c-84.65,0-153.25-68.825-153.25-153.75s 68.6-153.75, 153.25-153.75
	c 33.95,0, 65.3,11.1, 90.7,29.825l 35.125-37.601C 327.475,38.25, 283.8,22, 236.325,22
	C 123.475,22, 32,113.775, 32,227S 123.475,432, 236.325,432z"  />
<glyph unicode="&#xe051;" d="M 436.097,328.489c-18.602,31.876-43.84,57.116-75.718,75.718
		c-31.876,18.602-66.688,27.903-104.435,27.903s-72.558-9.302-104.434-27.903
		s-57.116-43.842-75.718-75.718s-27.903-66.688-27.903-104.435
		c0-37.746, 9.302-72.558, 27.903-104.434s 43.842-57.116, 75.718-75.718
		S 218.198,16, 255.944,16s 72.559,9.302, 104.435,27.903
		c 31.878,18.602, 57.116,43.842, 75.718,75.718C 454.7,151.497, 464,186.309, 464,224.055
		C 464,261.802, 454.7,296.613, 436.097,328.489z M 394.57,143.693
		c-14.313-24.528-33.734-43.949-58.264-58.264
		c-24.529-14.313-51.316-21.472-80.362-21.472c-29.045,0-55.832,7.158-80.361,21.472
		c-24.527,14.314-43.95,33.735-58.264,58.264
		c-14.313,24.529-21.472,51.316-21.472,80.361c0,29.047, 7.158,55.834, 21.472,80.362
		c 14.313,24.527, 33.736,43.95, 58.264,58.264
		c 24.529,14.313, 51.316,21.472, 80.361,21.472c 29.046,0, 55.833-7.158, 80.362-21.472
		s 43.95-33.736, 58.264-58.264c 14.315-24.528, 21.472-51.315, 21.472-80.362
		C 416.042,195.010, 408.886,168.223, 394.57,143.693zM 288.152,279.613c-9.83,5.736-20.566,8.604-32.207,8.604
		s-22.377-2.868-32.207-8.604c-9.83-5.737-17.614-13.521-23.352-23.352
		c-5.736-9.83-8.604-20.566-8.604-32.207s 2.868-22.377, 8.604-32.207
		c 5.737-9.83, 13.521-17.613, 23.352-23.352c 9.83-5.736, 20.566-8.604, 32.207-8.604
		s 22.377,2.868, 32.207,8.604c 9.83,5.738, 17.613,13.521, 23.351,23.352
		s 8.605,20.566, 8.605,32.207s-2.868,22.377-8.605,32.207
		S 297.982,273.876, 288.152,279.613z"  />
<glyph unicode="&#xe052;" d="M 474.379,321.674C 468.020,325.688, 397.75,368, 384,368l-32,0 L 352,432 L 144,432 l0-64 l-32,0 
		c-13.75,0-68.389-41.768-74.369-46.326C 16.9,305.873, 16,282.060, 16,271.911L 16,174 
		c0-13.75, 13.75-30, 27.5-30L 96,144 L 64,16l 384,0 l-32,128l 52.5,0 c 13.75,0, 27.5,16.25, 27.5,30l0,98.037 
		C 496,282.184, 496,308.025, 474.379,321.674z M 128,64l 32,160l 192,0 l 32-160L 128,64 z M 424,240
		c-13.255,0-24,10.745-24,24c0,13.256, 10.745,24, 24,24s 24-10.744, 24-24
		C 448,250.745, 437.255,240, 424,240z"  />
<glyph unicode="&#xe053;" d="M 480,401c0,0-96,31-224,31S 32,401, 32,401S0,336,0,224s 32-177, 32-177s 96-31, 224-31s 224,31, 224,31s 32,64, 32,177S 480,401, 480,401z
		 M 192,128L 192,320 l 160-96L 192,128z"  />
<glyph unicode="&#xe054;" d="M 402.375,235.844L 188.35,368.443C 172.75,378.668, 160,371.119, 160,351.693l0-257.399 
	c0-19.426, 12.774-26.95, 28.35-16.726l 214.049,132.601c0,0, 7.602,5.35, 7.602,12.85
	C 409.975,230.494, 402.375,235.844, 402.375,235.844z"  />
<glyph unicode="&#xe055;" d="M 484.717,264.757c-0.267,0.339-1.319,1.657-1.925,2.392
	c-21.371,26.165-57.337,39.604-88.752,48.735
	c-16.916,4.916-34.164,8.692-51.543,11.54l0,52.071 l-87.095-65.32l 87.095-65.32
	l0,43.589 c 12.8-3.281, 25.359-7.48, 37.295-13.037
	c 12.982-6.070, 25.506-13.842, 34.616-25.048c 3.531-4.453, 9.399-12.312, 6.199-17.904
	c-3.933-6.781-9.92-12.311-16.311-16.903
	c-28.363-20.445-66.372-27.771-100.403-31.566
	c-37.742-4.263-76.506-3.391-113.972,3.061
	c-18.361,3.138-36.606,7.719-53.987,14.641
	c-14.98,5.933-30.632,13.865-41.156,26.441c-2.85,3.456-6.654,7.452-5.123,12.046
	c 0.679,1.935, 1.529,3.869, 2.476,5.656c 3.86,6.996, 9.568,12.736, 15.843,17.52
	c 17.893,13.779, 40.409,21.689, 62.981,26.835l0,34.553 
	c-4.199-0.617-8.325-1.267-12.471-2
	c-36.063-6.197-73.412-16.033-104.775-35.551
	c-13.854-8.591-27.632-19.988-34.287-35.297
	c-3.126-7.039-4.062-14.576-3.254-22.103c 1.19-9.047, 1.723-18.712, 4.646-27.43
	c 9.59-28.291, 40.814-52.521, 66.586-63.642
	c 59.846-25.887, 128.291-32.755, 192.922-30.225
	c 58.452,2.329, 122.902,12.12, 173.105,44.143
	c 17.244,11.185, 29.608,26.090, 36.519,46.578c 4.934,14.618, 3.69,18.744, 4.615,24.878
	C 496.443,240.537, 492.105,254.837, 484.717,264.757z"  />
<glyph unicode="&#xe056;" d="M 239.487,431.424C 136.898,423.848, 55.091,341.685, 48,239l 191.487,0 L 239.487,431.424 zM 411.935,360.234L 265.097,213.396c-0.35-0.35-0.717-0.681-1.099-0.994
		c-0.122-0.101-0.253-0.187-0.378-0.283c-0.265-0.203-0.528-0.408-0.807-0.594
		c-0.137-0.092-0.279-0.168-0.418-0.254c-0.279-0.174-0.558-0.349-0.849-0.504
		c-0.126-0.068-0.258-0.123-0.386-0.187c-0.312-0.155-0.623-0.31-0.947-0.443
		c-0.115-0.048-0.234-0.083-0.351-0.128c-0.339-0.131-0.68-0.259-1.030-0.365
		c-0.125-0.037-0.253-0.063-0.378-0.097c-0.343-0.095-0.685-0.188-1.037-0.257
		c-0.194-0.039-0.392-0.059-0.588-0.090c-0.284-0.045-0.566-0.098-0.856-0.126
		C 255.479,209.025, 254.982,209, 254.484,209c-0.003,0-0.007,0-0.010,0L 48.063,209 
		c 7.929-107.377, 97.544-192, 206.925-192c 114.594,0, 207.5,92.906, 207.5,207.5
		C 462.487,276.398, 443.431,323.848, 411.935,360.234zM 390.722,381.447c-32.968,28.537-75.021,46.85-121.234,50.041l0-171.275 
		L 390.722,381.447z"  />
<glyph unicode="&#xe057;" d="M 192,368l-32,0 c-24.85,0-32-7.65-32-32.5L 128,112 c0-24.85, 7.15-32.5, 32-32.5l 32,0 
		c 24.85,0, 32,7.65, 32,32.5L 224,335.5 C 224,360.35, 216.85,368, 192,368zM 352,368l-32,0 c-24.85,0-32-7.65-32-32.5L 288,112 c0-24.85, 7.15-32.5, 32-32.5l 32,0 
		c 24.85,0, 32,7.65, 32,32.5L 384,335.5 C 384,360.35, 376.85,368, 352,368z"  />
<glyph unicode="&#xe058;" d="M 384,416L 384,320L 480,320 	zM0,416l0-384 c0-16.5, 15.5-32, 32-32l 112,0 L 144,128 L 64,128 l0,64 l 80,0 L 144,448 L 32,448 C 15.5,448,0,432.5,0,416zM 384,288l-0.001,0 c 0.003,0-0.011,0-0.063,0c-17.659,0-31.999,14.341-31.999,32L 352,320 L 352,448 L 224,448 
		c-16.5,0-32-15.5-32-32l0-224 l 64.537,0 l0,47.103 L 352,159.551L 256.537,80l0,48 L 192,128 l0-96 c0-16.5, 15.5-32, 32-32l 256,0 
		c 16.5,0, 32,15.5, 32,32L 512,288 L 384,288 z"  />
<glyph unicode="&#xe059;" d="M 83.447,391.759l0-94.829 C 83.447,258.879, 66.95,241.312, 48,241.312l0-35.676 
		c 18.95,0, 35.447-16.95, 35.447-58.19l0-91.114 C 83.447,7.596, 120.394-16, 159.493-16
		L 192-16 l0,35.924 l-11.593,0 c-22.594,0-25.683,14.465-25.683,39.12l0,95.908 
		c0,57.845-35.404,66.419-57.48,68.567l0,1.090 
		c 22.076,2.129, 57.48,14.456, 57.48,64.824L 154.725,387.906 
		c0,24.1, 3.089,39.102, 25.683,39.102L 192,427.008 L 192,464.109 l-32.507,0 
		C 122.514,464.109, 83.447,441.612, 83.447,391.759zM 428.506,296.93L 428.506,391.759 c0,49.854-39.053,72.351-76.022,72.351L 320,464.109 l0-37.102 l 11.56,0 
		c 22.594,0, 25.707-15.002, 25.707-39.102l0-98.473 c0-50.368, 35.422-62.695, 57.457-64.824
		l0-1.090 c-22.035-2.148-57.457-10.723-57.457-68.567l0-95.908 
		c0-24.655-3.113-39.12-25.707-39.12L 320,19.924 L 320-16 l 32.483,0 
		c 39.081,0, 76.022,23.596, 76.022,72.332l0,91.114 c0,41.24, 16.487,58.19, 35.494,58.19
		L 464,241.312 C 444.993,241.312, 428.506,258.879, 428.506,296.93z"  />
<glyph unicode="&#xe05a;" d="M 476,416.593L 116,416.593 c-11,0-20-9-20-20L 96,388 c0-11, 9-20, 20-20l 360,0 c 11,0, 20,9, 20,20l0,8.593 
		C 496,407.593, 487,416.593, 476,416.593zM 476,256.486L 116,256.486 c-11,0-20-9-20-20L 96,228 c0-11, 9-20, 20-20l 360,0 c 11,0, 20,9, 20,20l0,8.486 
		C 496,247.486, 487,256.486, 476,256.486zM 476,176L 180,176 c-11,0-20-9-20-20l0-8.486 c0-11, 9-20, 20-20l 296,0 c 11,0, 20,9, 20,20L 496,156 C 496,167, 487,176, 476,176zM 476,96L 52,96 c-11,0-20-9-20-20l0-8 c0-11, 9-20, 20-20l 424,0 c 11,0, 20,9, 20,20l0,8 C 496,87, 487,96, 476,96zM 476,336.486L 244,336.486 c-11,0-20-9-20-20L 224,308 c0-11, 9-20, 20-20l 232,0 c 11,0, 20,9, 20,20l0,8.486 
		C 496,327.486, 487,336.486, 476,336.486z"  />
<glyph unicode="&#xe05b;" d="M 52,416.593l 360,0 c 11,0, 20-9, 20-20L 432,388 c0-11-9-20-20-20L 52,368 c-11,0-20,9-20,20l0,8.593 
		C 32,407.593, 41,416.593, 52,416.593zM 52,256.486l 360,0 c 11,0, 20-9, 20-20L 432,228 c0-11-9-20-20-20L 52,208 c-11,0-20,9-20,20l0,8.486 
		C 32,247.486, 41,256.486, 52,256.486zM 52,176l 296,0 c 11,0, 20-9, 20-20l0-8.486 c0-11-9-20-20-20L 52,127.514 c-11,0-20,9-20,20L 32,156 C 32,167, 41,176, 52,176zM 52,96l 424,0 c 11,0, 20-9, 20-20l0-8 c0-11-9-20-20-20L 52,48 c-11,0-20,9-20,20l0,8 C 32,87, 41,96, 52,96zM 52,336.486l 232,0 c 11,0, 20-9, 20-20L 304,308 c0-11-9-20-20-20L 52,288 c-11,0-20,9-20,20l0,8.486 
		C 32,327.486, 41,336.486, 52,336.486z"  />
<glyph unicode="&#xe013;" d="M 68,416.593l 376,0 c 11,0, 20-9, 20-20L 464,388 c0-11-9-20-20-20L 68,368 c-11,0-20,9-20,20l0,8.593 
		C 48,407.593, 57,416.593, 68,416.593zM 84,256.486l 344,0 c 11,0, 20-9, 20-20L 448,228 c0-11-9-20-20-20L 84,208 c-11,0-20,9-20,20l0,8.486 
		C 64,247.486, 73,256.486, 84,256.486zM 116,176l 280,0 c 11,0, 20-9, 20-20l0-8.486 c0-11-9-20-20-20L 116,127.514 c-11,0-20,9-20,20L 96,156 C 96,167, 105,176, 116,176zM 84,96l 344,0 c 11,0, 20-9, 20-20l0-8 c0-11-9-20-20-20L 84,48 c-11,0-20,9-20,20l0,8 C 64,87, 73,96, 84,96zM 148,336.486l 216,0 c 11,0, 20-9, 20-20L 384,308 c0-11-9-20-20-20L 148,288 c-11,0-20,9-20,20l0,8.486 
		C 128,327.486, 137,336.486, 148,336.486z"  />
<glyph unicode="&#xe014;" d="M 256.887,285.824l-24.19,0 l0-58.115 l 24.19,0 c 23.895,0, 35.399,10.62, 35.399,30.681
		C 292.286,278.449, 279.896,285.824, 256.887,285.824zM 452,480L 60,480 C 27,480,0,453,0,420l0-392 c0-33, 27-60, 60-60l 392,0 c 33,0, 60,27, 60,60L 512,420 C 512,453, 485,480, 452,480z M 259.541,193.194
		l-26.845,0 L 232.696,128 l-43.364,0 L 189.332,320.339 l 70.209,0 c 41.594,0, 75.225-15.34, 75.225-61.949
		C 334.766,213.255, 300.251,193.194, 259.541,193.194z"  />
<glyph unicode="&#xe015;" d="M 32.403,404.359c 1.524-6.55, 70.175-302.449, 72.649-313.1
	c 2.101-9.025, 11.55-12.275, 18.8-8.375C 132.128,87.359, 240,192, 240,192
	S 60.399,386.075, 57.725,389C 55.050,391.9, 59.324,396.976, 63,394.275
	C 66.675,391.601, 297,219, 297,219s 179.253,24.609, 189.278,28.635
	c 8.449,3.35, 6.85,9.475-0.25,11.975c-8.351,2.95-432.801,152.5-441.375,155.525
	C 36.053,418.16, 30.403,412.935, 32.403,404.359z M 335.628,192C 272,176, 240,128, 240,128
	s 81.103-73.865, 87.353-79.565c 4.801-4.35, 8.275-2.649, 8.275,3.525L 335.628,192 z"  />
<glyph unicode="&#xe065;" d="M 236.543,415.537c-46.816-19.026, 27.889-110.405-202.002-203.854
		c-19.854-8.073-24.891-40.374-16.58-59.689
		C 26.256,132.687, 53.418,113.464, 73.281,121.537c 3.433,1.395, 16.055,5.455, 16.055,5.455
		c 14.182-19.037, 29.024-7.744, 34.287-19.84
		c 6.322-14.531, 20.088-46.122, 24.757-56.872
		c 4.687-10.737, 15.295-20.689, 22.995-17.763
		c 7.676,2.928, 33.828,12.877, 43.834,16.686c 9.999,3.804, 12.388,12.718, 9.33,19.754
		c-3.3,7.574-16.814,9.797-20.664,18.643
		c-3.859,8.846-16.454,37.191-20.080,46.124
		c-4.928,12.153, 5.538,22.034, 20.74,23.617
		C 309.169,168.244, 328.73,103.625, 364.355,118.112
		c 27.572,11.209, 21.959,91.070-11.895,169.856
		C 318.599,366.746, 264.114,426.748, 236.543,415.537z M 340.676,160.167
		c-6.124-2.487-47.303,29.991-73.621,91.233
		c-26.311,61.232-23.003,117.212-16.89,119.698
		c 6.114,2.483, 46.283-36.69, 72.593-97.923
		C 349.069,211.946, 346.797,162.656, 340.676,160.167zM 496.033,245.896c-1.412,11.728-12.063,20.085-23.78,18.681l-46.959-5.65
		c-11.728-1.411-20.088-12.057-18.677-23.775
		c 0.96-7.97, 6.182-14.384, 13.098-17.235c 3.273-1.35, 6.924-1.896, 10.682-1.449
		l 46.96,5.649C 489.074,223.533, 497.444,234.174, 496.033,245.896zM 418.293,432.65c-7.323,9.251-20.763,10.825-30.035,3.5l-37.094-29.343
		c-9.258-7.321-10.826-20.771-3.5-30.032c 2.348-2.975, 5.329-5.15, 8.604-6.499
		c 6.916-2.853, 15.135-1.983, 21.434,2.99l 37.086,29.344
		C 424.058,409.939, 425.619,423.388, 418.293,432.65zM 415.045,298.573l 53.194,22.146c 10.903,4.54, 16.065,17.058, 11.522,27.953
		c-4.535,10.903-17.061,16.071-27.956,11.522l-53.198-22.139
		c-10.9-4.536-16.063-17.053-11.52-27.957c 2.264-5.451, 6.533-9.468, 11.586-11.553
		C 403.736,296.461, 409.592,296.306, 415.045,298.573z"  />
<glyph unicode="&#xe016;" d="M 299.843,332.052L 199.896,432l0-0.124 L 199.854,432L 31.233,432 
		C 14.055,432,0,417.945,0,400.766l0-337.324 c0-17.179, 14.055-31.233, 31.233-31.233l 237.175,0 
		c 17.179,0, 31.234,14.055, 31.234,31.233L 299.642,332.011 l-0.123,0.041L 299.843,332.052 z
		 M 262.347,69.541L 187.356,69.541 L 124.863,69.541 L 37.373,69.541 L 37.373,394.504 l 162.522,0 l0-62.452 l 62.452,0 L 262.347,69.541 zM 68.619,269.519L 106.115,269.519L 106.115,194.527L 68.619,194.527zM 68.619,169.53L 231.101,169.53L 231.101,144.533L 68.619,144.533zM 68.619,132.034L 231.101,132.034L 231.101,107.037L 68.619,107.037zM 131.112,307.014L 168.608,307.014L 168.608,194.527L 131.112,194.527zM 193.605,244.521L 231.101,244.521L 231.101,194.527L 193.605,194.527zM 504,176l-56,0 l0,56 c0,4.4-3.6,8-8,8l-16,0 c-4.4,0-8-3.6-8-8l0-56 l-56,0 
	c-4.4,0-8-3.6-8-8l0-16 c0-4.4, 3.6-8, 8-8l 56,0 l0-56.001 c0-4.399, 3.6-8, 8-8l 16,0 
	c 4.4,0, 8,3.601, 8,8L 448,144 l 56,0 c 4.4,0, 8,3.6, 8,8l0,16 C 512,172.4, 508.4,176, 504,176z"  />
<glyph unicode="&#xe017;" d="M 32,448L 192,448L 192,0L 32,0zM 352,32L 256,32L 256,416L 352,416L 352,176L 384,176L 384,416L 384,448L 256,448L 224,448L 224,416L 224,32L 224,0L 256,0L 384,0L 384,32L 384,80L 352,80 	zM 504,144l-56,0 l0,56 c0,4.4-3.6,8-8,8l-16,0 c-4.4,0-8-3.6-8-8l0-56 l-56,0 c-4.4,0-8-3.6-8-8l0-16 
		c0-4.4, 3.6-8, 8-8l 56,0 l0-56.001 c0-4.399, 3.6-8, 8-8l 16,0 c 4.4,0, 8,3.601, 8,8L 448,112 l 56,0 
		c 4.4,0, 8,3.6, 8,8l0,16 C 512,140.4, 508.4,144, 504,144z"  />
<glyph unicode="&#xe018;" d="M 319.896,479L 319.896,351.053L 447.843,351.053 	zM 330.79,319.209C 307.253,319.209, 288,336.807, 288,360.342l 0.083,0 L 288.083,479 L 103.983,479 
		C 81.992,479, 64,461.008, 64,439.017l0-431.824 c0-21.991, 17.992-39.983, 39.983-39.983l 303.618,0 
		c 21.992,0, 39.984,17.992, 39.984,39.983L 447.586,319.209 L 330.873,319.209 
		C 330.876,319.209, 330.857,319.209, 330.79,319.209z M 336,184l0-16 c0-4.4-3.6-8-8-8l-56,0 
		l0-56.001 c0-4.4-3.6-8-8-8l-16,0 c-4.4,0-8,3.6-8,8L 240,160 l-56,0 c-4.4,0-8,3.6-8,8l0,16 
		c0,4.4, 3.6,8, 8,8l 56,0 l0,56 c0,4.4, 3.6,8, 8,8l 16,0 c 4.4,0, 8-3.6, 8-8l0-56 l 56,0 
		C 332.4,192, 336,188.4, 336,184z"  />
<glyph unicode="&#xe019;" d="M 459.999,438.213L 55.201,438.213 c-27.831,0-50.601-22.77-50.601-50.6L 4.6,84 
	c0-27.83, 22.77-50.6, 50.601-50.6l 404.798,0 c 27.831,0, 50.601,22.77, 50.601,50.6
	L 510.599,387.613 C 510.599,415.443, 487.83,438.213, 459.999,438.213z M 199.702,368l 119.293,0 l0-28.771 
	L 199.702,339.229 L 199.702,368 z M 54.697,368l 119.293,0 l0-28.771 L 54.697,339.229 L 54.697,368 z M 460.503,84L 54.697,84 L 54.697,316.771 L 460.503,316.771 L 460.503,84 z
	 M 464,339.229L 344.707,339.229 L 344.707,368 L 464,368 L 464,339.229 z"  />
<glyph unicode="&#xe05c;" d="M 450.675,372.428c-5.068,14.263-15.524,18.955-28.649,18.955L 267.403,391.383 
		c-13.137,0-31.497,3.011-40.804,12.201l-14.12,13.955
		C 203.184,426.727, 184.824,432, 171.688,432L 89.743,432 c-13.135,0-23.333-6.464-26.516-21.291
		l-12.541-64.437l 411.492,0 L 450.675,372.428zM 473.341,310.937L 38.441,310.937 c-21.819,0-22.915-20.266-21.726-33.247l 19.558-208.933
		c 1.185-12.98, 4.258-31.104, 26.052-31.104l 387.131,0 
		c 22.219,0, 24.86,18.123, 26.039,31.104l 19.558,208.933
		C 496.231,290.672, 495.16,310.937, 473.341,310.937z M 351.99,80.001l-95.995,0 L 160,80.001 
		c0,0,0,8.162,0,15.129c0,6.976, 16.402,17.202, 41.666,27.219
		c 25.172,9.993, 33.221,18.427, 33.221,36.488c0,10.839-7.69,7.301-11.071,27.153
		c-1.399,8.233-8.19,0.133-9.487,18.93c0,7.5, 3.717,9.357, 3.717,9.357
		s-1.89,11.095-2.625,19.619c-0.919,10.64, 5.637,38.103, 40.573,38.103
		c 34.946,0, 41.482-27.463, 40.583-38.103c-0.735-8.524-2.625-19.619-2.625-19.619
		s 3.708-1.869, 3.708-9.357c-1.307-18.797-8.099-10.696-9.498-18.93
		c-3.369-19.853-11.061-16.314-11.061-27.153c0-18.062, 8.048-26.495, 33.221-36.488
		c 25.255-10.026, 41.666-20.254, 41.666-27.219
		C 351.99,88.163, 351.99,80.001, 351.99,80.001z"  />
<glyph unicode="&#xe05d;" d="M 87,256c-30.375,0-55-24.625-55-55s 24.625-55, 55-55s 55,24.625, 55,55S 117.375,256, 87,256z M 256.025,256
	c-30.375,0-55-24.625-55-55s 24.625-55, 55-55S 311,170.625, 311,201S 286.4,256, 256.025,256z M 425,256
	c-30.375,0-55-24.625-55-55s 24.625-55, 55-55s 55,24.625, 55,55S 455.375,256, 425,256z"  />
<glyph unicode="&#xe05e;" d="M 414,466L 98,466 c-27.5,0-50-22.475-50-50l0-384 c0-27.5, 22.5-50, 50-50l 316,0 c 27.5,0, 50,22.5, 50,50L 464,416 
		C 464,443.525, 441.5,466, 414,466z M 416,30L 96,30 L 96,418 l 320,0 L 416,30 zM 192,64c 35.347,0, 64,28.654, 64,64c0,23.685-12.876,44.35-32,55.416L 224,364 c0,11-9,20-20,20l-24,0 
		c-11,0-20-9-20-20l0-180.584 C 140.876,172.35, 128,151.685, 128,128C 128,92.654, 156.654,64, 192,64z
		 M 192,160c 17.674,0, 32-14.327, 32-32s-14.326-32-32-32c-17.673,0-32,14.327-32,32S 174.327,160, 192,160zM 288,216.584L 288,84 c0-11, 9-20, 20-20l 24,0 c 11,0, 20,9, 20,20L 352,216.584 C 371.124,227.65, 384,248.315, 384,272
		s-12.876,44.35-32,55.416L 352,364 c0,11-9,20-20,20l-24,0 c-11,0-20-9-20-20l0-36.584 
		C 268.876,316.35, 256,295.685, 256,272S 268.876,227.65, 288,216.584z M 320,304
		c 17.674,0, 32-14.327, 32-32s-14.326-32-32-32c-17.673,0-32,14.327-32,32S 302.327,304, 320,304z"  />
<glyph unicode="&#xe05f;" d="M 320-32l 192,0 L 512,240.020 L 320-32z M 464.039,15.961l-48.014,0 l 48.014,72.020L 464.039,15.961 zM 170.33,65.6A18.647,18.647 180 1 1 207.624,65.60000000000002A18.647,18.647 180 1 1 170.33,65.60000000000002zM 384.223,351.99l 0.011,0.010L 256.285,480l-0.053,0 L 32.456,480 l-0.229,0.231l-0.001,0 c-17.673,0-32-14.327-32-32
		c0-0.078, 0.006-0.154, 0.006-0.231l0,0.228 l 0.229-0.231L 0.238,447.997 L 0.236,0.002L0,0.002 L0,0 c0-17.672, 14.328-32, 32-32
		c 0.078,0, 0.154,0.006, 0.232,0.006l-0.229,0 l 0.229,0.228l0-0.228 L 32.232-32 L 288-32 l 96.241,136.352l 0.003,247.639L 384.223,351.991 z M 32.233-0.23
		l-0.229,0.228l 0.229,0 L 32.233-0.23 z M 273.777,65.602c0-16.52-11.734-28.268-28.268-28.268L 132.443,37.334 c-16.534,0-28.267,11.748-28.267,28.268
		L 104.176,292.308 c0,16.534, 11.734,27.692, 28.267,27.692L 245.51,320 c 16.533,0, 28.268-11.158, 28.268-27.692L 273.778,65.602 zM 123.022,272.89L 254.932,272.89L 254.932,93.868L 123.022,93.868z"  />
<glyph unicode="&#xe060;" d="M 352,464L 160,464 c-28.075,0-48-18.95-48-47.025L 112,32 c0-28.051, 19.925-48, 48-48l 192,0 
		c 28.075,0, 48,19.949, 48,48L 400,416.975 C 400,445.050, 380.075,464, 352,464z M 304,432l 16,0 l0-16 l-16,0 L 304,432 z M 224,432l 64,0 l0-16 l-64,0 L 224,432 z
		 M 256,0.334c-17.488,0-31.666,14.178-31.666,31.666S 238.512,63.666, 256,63.666
		S 287.666,49.488, 287.666,32S 273.488,0.334, 256,0.334z M 368,80L 144,80 L 144,384 l 224,0 L 368,80 z"  />
<glyph unicode="&#xe061;" d="M 256.997,431.383c-114.772,0-207.777-93.055-207.777-207.777
		c0-114.772, 93.029-207.777, 207.777-207.777c 114.747,0, 207.777,93.030, 207.777,207.777
		C 464.774,338.353, 371.744,431.383, 256.997,431.383z M 394.774,220.383c0-11-9-20-20-20l-232,0 
		c-11,0-20,9-20,20l0,7.975 c0,11, 9,20, 20,20l 232,0.025c 11,0, 20-9, 20-20L 394.774,220.383 z"  />
<glyph unicode="&#xe01a;" d="M 220.195,50.053c-10.875,0-21.174,5.075-27.775,13.825L 103.070,181.828
	c-11.625,15.35-8.6,37.199, 6.75,48.824c 15.375,11.65, 37.201,8.601, 48.826-6.75
	l 58.773-77.6L 365.221,383.578c 10.176,16.324, 31.676,21.324, 48.025,11.149
	c 16.324-10.149, 21.324-31.675, 11.125-48l-174.576-280.25
	c-6.074-9.774-16.549-15.899-28.023-16.399
	C 221.246,50.053, 220.721,50.053, 220.195,50.053z"  />
<glyph unicode="&#xe01b;" d="M 64,384L 448,384L 448,320L 64,320zM 64,256L 448,256L 448,192L 64,192zM 64,128L 448,128L 448,64L 64,64z"  />
<glyph unicode="&#xe01c;" d="M 400,256l0,96 l0,4 l0,12 c0,17.6-14.4,32-32,32l-16,0 l-6,0 l-45.789,0 l 0.003,19.654
		c0,0.007, 0.001,0.011, 0.001,0.016C 300.215,426.48, 294.694,432, 287.887,432
		c-3.446,0-6.559-1.418-8.796-3.695l-0.004,0.001l-50.93-43.552l0-0.017 
		C 225.613,382.479, 224,379.193, 224,375.523c0-3.701, 1.639-7.014, 4.221-9.272l0-0.017 
		l 51.688-43.311l 0.004,0.002C 282.061,321.104, 284.838,320, 287.876,320
		c 6.81,0, 12.329,5.521, 12.329,12.329c0,0.050-0.006,0.099-0.008,0.149L 300.201,352
		L 346,352 l 6,0 l0-96 l-80,0 l0-60 l 32-24l0,52 l 144,0 l0-192 L 304,32 l0,68 l-32-24l0-76 l 208,0 L 480,256 L 400,256 zM 32,448L 208,448L 208,288L 32,288zM 283.843,127.263C 286.387,129.521, 288,132.807, 288,136.477
		c0,3.701-1.639,7.014-4.221,9.272l0,0.017 l-51.688,43.311l-0.004-0.002
		C 229.939,190.896, 227.162,192, 224.124,192c-6.81,0-12.329-5.521-12.329-12.329
		c0-0.050, 0.006-0.099, 0.008-0.149L 211.799,160L 160,160 l0,96 L 32,256 l0-256 l 128,0 L 160,112 l 51.789,0 l-0.003-19.654
		c0-0.007-0.001-0.011-0.001-0.011c0-6.815, 5.521-12.335, 12.328-12.335
		c 3.446,0, 6.559,1.418, 8.796,3.695l 0.004-0.001l 50.93,43.552L 283.843,127.263 z M 128,32L 64,32 L 64,224 l 64,0 
		L 128,32 z"  />
<glyph unicode="&#xe01d;" d="M 425.175,157c-21.1-34.1-88.375-59.025-168.175-59.025
	c-79.75,0-147.075,24.926-168.15,59.025C 84.375,164.225, 82,160.35, 82,156.775
	c0-3.6,0-50.051,0-50.051C 82,58.25, 160.35,8, 257,8s 175,50.25, 175,98.725c0,0,0,46.451,0,50.051
	C 432,160.35, 429.6,164.225, 425.175,157z M 425.425,284.875
	C 404.699,254.726, 337.125,232.625, 257,232.625s-147.7,22.101-168.425,52.25
	C 84.275,291.101, 82,287.726, 82,284.9C 82,282.076, 82,226, 82,226
	c0-44.074, 78.35-79.775, 175-79.775S 432,181.926, 432,226c0,0,0,56.076,0,58.9
	C 432,287.726, 429.699,291.101, 425.425,284.875z M 257,448C 160.35,448, 82,418.551, 82,382.201l0-31.476 
	c0-38.55, 78.35-69.8, 175-69.8s 175,31.25, 175,69.8L 432,382.176 C 432,418.551, 353.65,448, 257,448z"  />
<glyph unicode="&#xe01e;" d="M 448,224c0-26-5.083-50.834-15.25-74.5s-23.833-44.084-41-61.25s-37.584-30.834-61.25-41
	S 282,32, 256,32s-50.834,5.084-74.5,15.25s-44.084,23.834-61.25,41s-30.834,37.584-41,61.25S 64,198, 64,224
	c0,30.334, 6.709,58.916, 20.125,85.75s 32.291,49.334, 56.625,67.5
	c 7.166,5.334, 15.125,7.416, 23.875,6.25s 15.709-5.334, 20.875-12.5c 5.334-7, 7.375-14.875, 6.125-23.625
	s-5.375-15.791-12.375-21.125c-16.334-12.334-28.959-27.416-37.875-45.25S 128,244.166, 128,224
	c0-17.334, 3.375-33.875, 10.125-49.625S 154,145, 165.5,133.5s 25.125-20.625, 40.875-27.375S 238.666,96, 256,96
	s 33.875,3.375, 49.625,10.125S 335,122, 346.5,133.5s 20.625,25.125, 27.375,40.875S 384,206.666, 384,224
	c0,20.166-4.458,39.166-13.375,57s-21.541,32.916-37.875,45.25c-7,5.334-11.125,12.375-12.375,21.125
	S 321.166,364, 326.5,371c 5.166,7.166, 12.166,11.334, 21,12.5s 16.75-0.916, 23.75-6.25
	c 24.333-18.166, 43.208-40.666, 56.625-67.5S 448,254.334, 448,224z M 288,416l0-160 
	c0-8.666-3.166-16.166-9.5-22.5S 264.666,224, 256,224s-16.166,3.166-22.5,9.5S 224,247.334, 224,256L 224,416 
	c0,8.666, 3.166,16.166, 9.5,22.5S 247.334,448, 256,448s 16.166-3.166, 22.5-9.5S 288,424.666, 288,416z"  />
<glyph unicode="&#xe01f;" d="M 400.025,275.025L 355,275.025 L 355,301 c0,72.425-33.35,115-100,115c-66.625,0-100-42.575-100-115l0-25.975 l-50,0 
		c-13.8,0-25-16.176-25-30l0-195 c0-13.75, 10.725-28.476, 23.8-32.675l 29.9-9.676
		C 146.775,3.45, 168.725,0, 182.5,0l 145,0 c 13.75,0, 35.725,3.45, 48.8,7.675l 29.9,9.676
		C 419.3,21.55, 430,36.275, 430,50.025l0,195 C 430,258.85, 413.825,275.025, 400.025,275.025z
		 M 256,64c-26.51,0-48,21.49-48,48s 21.49,48, 48,48s 48-21.49, 48-48S 282.51,64, 256,64z M 305,275.025
		L 205,275.025 L 205,311 c0,36.125, 19.95,55, 50,55c 30.075,0, 50-18.875, 50-55L 305,275.025 z"  />
<glyph unicode="&#xe020;" d="M 114,208L 89,208 c-13.8,0-25-11.175-25-25s 11.2-25, 25-25l 25,0 c 13.8,0, 25,11.175, 25,25
	S 127.8,208, 114,208z M 114,304L 89,304 c-13.8,0-25-11.2-25-25s 11.2-25, 25-25l 25,0 c 13.8,0, 25,11.2, 25,25
	S 127.8,304, 114,304z M 114,400L 89,400 c-13.8,0-25-11.2-25-25s 11.2-25, 25-25l 25,0 c 13.8,0, 25,11.2, 25,25
	S 127.8,400, 114,400z M 214,350l 209,0 c 13.825,0, 25,11.2, 25,25s-11.175,25-25,25L 214,400 
	c-13.8,0-25-11.2-25-25S 200.2,350, 214,350z M 423,304L 214,304 c-13.8,0-25-11.2-25-25s 11.2-25, 25-25
	l 209,0 c 13.825,0, 25,11.2, 25,25S 436.825,304, 423,304z M 423,208L 214,208 c-13.8,0-25-11.175-25-25
	s 11.2-25, 25-25l 209,0 c 13.825,0, 25,11.175, 25,25S 436.825,208, 423,208z M 114,112L 89,112 
	c-13.8,0-25-11.175-25-25s 11.2-25, 25-25l 25,0 c 13.8,0, 25,11.175, 25,25S 127.8,112, 114,112z M 423,112
	L 214,112 c-13.8,0-25-11.175-25-25s 11.2-25, 25-25l 209,0 c 13.825,0, 25,11.175, 25,25S 436.825,112, 423,112z"  />
<glyph unicode="&#xe021;" d="M 64,256L 80,256L 80,160L 64,160zM 112,256L 128,256L 128,160L 112,160zM 160,256L 192,256L 192,160L 160,160zM 224,256L 256,256L 256,160L 224,160zM 288,256L 336,256L 336,160L 288,160zM 368,256L 448,256L 448,160L 368,160zM 107.691,363.035l 58.562-70.881l 0.024,0 C 168.532,289.611, 171.816,288, 175.486,288
		c 3.699,0, 7.013,1.635, 9.27,4.225l 0.015,0 l 59.292,71.631l0,0.004 
		c 1.817,2.15, 2.925,4.925, 2.925,7.961c0,6.809-5.52,12.328-12.327,12.328
		c-0.050,0-0.099-0.004-0.152-0.004l-118.167,0.009
		c-0.013,0-0.013,0.004-0.023,0.004C 109.516,384.157, 104,378.643, 104,371.832
		c0-3.444, 1.414-6.559, 3.691-8.791L 107.691,363.035 zM 475.99,320L 256,320 L 256,320 c-8.836,0-16-7.163-16-16s 7.164-16, 16-16l0,0 L 480,288 l0-160 L 32,128 L 32,288 
		l 64,0 C 104.836,288, 112,295.163, 112,304s-7.164,16-16,16L 36.010,320 
		C 16.204,320,0,303.796,0,285.431l0-151.979 C0,112.205, 16.204,96, 36.010,96l 439.98,0 
		C 495.795,96, 512,112.205, 512,133.451L 512,285.431 C 512,303.796, 495.795,320, 475.99,320z"  />
<glyph unicode="&#xe022;" d="M 378.525,368.495L 213.481,453.562c-22.604,11.915-67.179-11.096-79.98-31.346
	c-5.718-9.046-5.296-15.581-5.296-19.278L 128,108.84
	c 0.137-4.075, 5.271-9.588, 9.67-12.279c 9.158-5.619, 150.056-92.184, 153.988-94.633
	C 293.771,0.607, 296.266,0, 298.73,0c 2.1,0, 4.204,0.464, 6.11,1.411
	c 4.171,2.047, 6.765,6.024, 6.765,10.346L 311.605,315.523 c0,4.196-2.451,8.078-6.439,10.179
	l-150.016,83.741c 1.697,3.296, 8.375,10.273, 20.641,16.697
	c 12.924,6.763, 22.605,4.21, 24.824,3.35c0,0, 143.964-77.044, 148.373-79.34
	c 4.382-2.283, 4.471-2.631, 4.471-6.547s0-293.46,0-293.46
	c0-9.553, 9.701-13.46, 16.813-13.46c 7.108,0, 14.694,6.969, 14.694,13.46L 384.967,358.31 
	C 384.967,362.508, 382.503,366.396, 378.525,368.495z"  />
<glyph unicode="&#xe023;" d="M 256,124.551c-67.461,0-119.965,7.716-160,17.998
		c-36.332,9.331-62.383,20.771-80,30.485L 16,82 c0-27.5, 22.5-50, 50-50l 30,0 l 32,0 L 400,32 l 16,0 l 30,0 
		c 27.5,0, 50,22.5, 50,50l0,91.034 c-17.617-9.715-43.668-21.155-80-30.485
		C 375.965,132.267, 323.461,124.551, 256,124.551zM 446,384l-30,0 l-16,0 l-64,0 L 336,418 c0,16.5-13.5,30-30,30L 206,448 c-16.5,0-30-13.5-30-30l0-34 l-64,0 L 96,384 L 66,384 c-27.5,0-50-22.5-50-50
		l0-113.406 c 5.292-4.264, 21.059-15.666, 50.61-26.989
		c 9.553-3.661, 19.393-6.875, 29.39-9.703c 55.585-15.725, 116.090-19.351, 160-19.351
		c 44.142,0, 104.539,3.66, 160,19.355c 11.131,3.15, 22.066,6.773, 32.627,10.961
		C 476.234,205.814, 491.051,216.584, 496,220.576L 496,334 C 496,361.5, 473.5,384, 446,384z M 256,192
		c-17.673,0-32,14.327-32,32s 14.327,32, 32,32S 288,241.674, 288,224
		S 273.673,192, 256,192z M 304,384l-96,0 L 208,406 c0,5.5, 4.5,10, 10,10l 76,0 c 5.5,0, 10-4.5, 10-10L 304,384 z"  />
<glyph unicode="&#xe024;" d="M 512,352L 512,480 L 384,480 l 40.087-40.087l-40.671-39.329L 304,480L 60,480 C 27,480,0,453,0,420l0-392 c0-33, 27-60, 60-60l 392,0 
		c 33,0, 60,27, 60,60L 512,272 l-79.465,79.465l 39.329,40.671L 512,352z M 162.928,128l-56.639,0 L 106.289,320.339 l 54.279,0 
		c 58.705,0, 96.465-29.205, 96.465-95.284C 257.033,158.975, 219.273,128, 162.928,128z
		 M 410.432,128L 375.031,128 l-3.245,15.045l-0.885,0 
		c-12.39-10.915-26.255-18.585-42.774-18.585c-26.551,0-43.365,19.47-43.365,44.25
		c0,30.68, 24.484,47.494, 82.305,53.395c-0.885,12.979-7.375,21.24-23.010,21.24
		c-12.391,0-24.779-5.016-38.939-13.275l-15.34,28.615
		c 18.584,11.21, 39.529,19.175, 62.539,19.175c 37.465,0, 58.115-21.24, 58.115-66.080
		L 410.432,128 zM 326.062,171.955c0-9.44, 6.49-13.865, 16.815-13.865
		c 10.029,0, 16.52,4.72, 24.189,12.39l0,25.665 
		C 336.092,192.015, 326.062,183.165, 326.062,171.955zM 157.913,285.234l-8.26,0 l0-122.13 l 8.26,0 c 32.745,0, 54.575,15.931, 54.575,61.95
		S 190.658,285.234, 157.913,285.234z"  />
<glyph unicode="&#xe025;" d="M 401.443,352L 109.955,352 c-8.006,0-14.557-6.55-14.557-14.556l0-226.888 
		C 95.398,102.55, 101.949,96, 109.955,96l 291.488,0 C 409.449,96, 416,102.55, 416,110.556L 416,337.444 
		C 416,345.45, 409.449,352, 401.443,352z M 192,128l-64.602,0 l0,96 L 192,224 L 192,128 z M 192,256l-64.602,0 l0,64 L 192,320 L 192,256 z
		 M 383.398,128L 224,128 l0,96 l 159.398,0 L 383.398,128 z M 383.398,256L 224,256 l0,64 l 159.398,0 L 383.398,256 zM 512,384L 512,480 l-96,0 l0-32 L 96,448 L 96,480 L0,480 l0-96 l 32,0 l0-320 L0,64 l0-96 l 96,0 l0,32 l 320,0 l0-32 l 96,0 l0,96 l-32,0 L 480,384 L 512,384 z M 448,448l 32,0 l0-32 l-32,0 L 448,448 z M 32,448l 32,0 l0-32 L 32,416 L 32,448 z
		 M 64,0L 32,0 l0,32 l 32,0 L 64,0 z M 480,0l-32,0 l0,32 l 32,0 L 480,0 z M 416,64l0-32 L 96,32 l0,32 L 64,64 L 64,384 l 32,0 L 96,416 l 320,0 l0-32 l 32,0 l0-320 L 416,64 z"  />
<glyph unicode="&#xe026;" d="M 512,384L 512,480 l-96,0 l0-32 L 96,448 L 96,480 L0,480 l0-96 l 32,0 l0-320 L0,64 l0-96 l 96,0 l0,32 l 320,0 l0-32 l 96,0 l0,96 l-32,0 L 480,384 L 512,384 z M 32,448l 32,0 l0-32 L 32,416 L 32,448 z M 64,0L 32,0 l0,32 l 32,0 L 64,0 z
		 M 416,32L 96,32 l0,32 L 64,64 L 64,384 l 32,0 L 96,416 l 320,0 l0-32 l 32,0 l0-320 l-32,0 L 416,32 z M 480,0l-32,0 l0,32 l 32,0 L 480,0 z M 448,416L 448,448 l 32,0 l0-32 L 448,416 zM 225.754,146.56c 3.406-4.516, 8.721-7.134, 14.33-7.134
		c 0.273,0, 0.543,0, 0.814,0.012c 5.922,0.259, 11.326,3.42, 14.461,8.463
		l 90.082,144.611c 5.263,8.424, 2.683,19.531-5.74,24.768
		c-8.436,5.251-19.53,2.671-24.781-5.753l-76.268-122.435l-30.326,40.041
		c-5.999,7.922-17.263,9.495-25.195,3.483c-7.92-5.999-9.481-17.273-3.482-25.194
		L 225.754,146.56zM 366.25,368l-220.5,0 c-18.563,0-33.75-15.188-33.75-33.75l0-220.5 c0-18.563, 15.188-33.75, 33.75-33.75l 220.5,0 
		c 18.563,0, 33.75,15.188, 33.75,33.75l0,220.5 C 400,352.812, 384.813,368, 366.25,368z M 368,112L 144,112 L 144,336 l 224,0 L 368,112 z"  />
<glyph unicode="&#xe027;" d="M 512,384L 512,480 l-96,0 l0-32 L 96,448 L 96,480 L0,480 l0-96 l 32,0 l0-320 L0,64 l0-96 l 96,0 l0,32 l 320,0 l0-32 l 96,0 l0,96 l-32,0 L 480,384 L 512,384 z M 32,448l 32,0 l0-32 L 32,416 L 32,448 z M 64,0L 32,0 l0,32 l 32,0 L 64,0 z
		 M 416,32L 96,32 l0,32 L 64,64 L 64,384 l 32,0 L 96,416 l 320,0 l0-32 l 32,0 l0-320 l-32,0 L 416,32 z M 480,0l-32,0 l0,32 l 32,0 L 480,0 z M 448,416L 448,448 l 32,0 l0-32 L 448,416 zM 300.65,326L 310.017,352.571L 288.061,352.571L 272,384L 240,384L 224.307,352.571L 202.352,352.571L 211.719,326 	zM 333.131,352.571l-16.487-48.527L 195.724,304.044 l-16.487,48.527
		c-10.579,0-19.236-8.72-19.236-19.378l0-217.813 C 160,104.722, 168.657,96, 179.236,96
		l 153.895,0 c 10.58,0, 19.236,8.722, 19.236,19.38L 352.367,333.193 
		C 352.367,343.851, 343.711,352.571, 333.131,352.571z"  />
<glyph unicode="&#xe028;" d="M 512,384L 512,480 l-96,0 l0-32 L 96,448 L 96,480 L0,480 l0-96 l 32,0 l0-320 L0,64 l0-96 l 96,0 l0,32 l 320,0 l0-32 l 96,0 l0,96 l-32,0 L 480,384 L 512,384 z M 32,448l 32,0 l0-32 L 32,416 L 32,448 z M 64,0L 32,0 l0,32 l 32,0 L 64,0 z
		 M 416,32L 96,32 l0,32 L 64,64 L 64,384 l 32,0 L 96,416 l 320,0 l0-32 l 32,0 l0-320 l-32,0 L 416,32 z M 480,0l-32,0 l0,32 l 32,0 L 480,0 z M 448,416L 448,448 l 32,0 l0-32 L 448,416 zM 221.702,331.834c-8.709,8.475-23.36,7.949-31.485,0
		c-8.143-7.948-87.71-91.49-87.71-91.49C 98.162,236.097, 96,230.544, 96,224.992
		s 2.162-11.105, 6.507-15.353c0,0, 79.567-83.541, 87.71-91.471
		c 8.145-7.949, 22.795-8.494, 31.485,0c 8.669,8.475, 9.352,20.301-0.021,30.686
		l-73.001,76.138l 73.001,76.138C 231.054,311.533, 230.371,323.359, 221.702,331.834zM 321.783,331.834c-8.125,7.949-22.776,8.475-31.485,0
		c-8.669-8.475-9.352-20.301, 0.021-30.704l 73.001-76.138l-73.001-76.138
		c-9.372-10.385-8.689-22.211-0.021-30.686c 8.69-8.494, 23.341-7.949, 31.485,0
		c 8.143,7.93, 87.71,91.471, 87.71,91.471C 413.838,213.887, 416,219.439, 416,224.992
		s-2.162,11.105-6.507,15.352C 409.493,240.344, 329.926,323.886, 321.783,331.834z"  />
<glyph unicode="&#xe029;" d="M 319.48,104.038l0,15.852 c0,2.312-0.742,4.21-2.229,5.697
	c-1.486,1.486-3.385,2.229-5.697,2.229l-23.777,0 L 287.777,263.778 
	c0,2.313-0.743,4.21-2.229,5.697c-1.485,1.486-3.384,2.229-5.696,2.229l-63.926,0 
	c-2.312,0-4.21-0.743-5.696-2.229C 208.743,267.988, 208,266.090, 208,263.778l0-15.852 
	c0-2.312, 0.743-4.21, 2.229-5.697C 211.716,240.743, 213.614,240, 215.926,240l 24.778,0 
	l0-112.185 l-23.778,0 c-2.312,0-4.21-0.743-5.696-2.229
	C 209.743,124.1, 209,122.202, 209,119.89l0-15.852 c0-2.313, 0.743-4.21, 2.229-5.697
	c 1.486-1.486, 3.385-2.229, 5.696-2.229l 94.629,0 c 2.313,0, 4.211,0.743, 5.697,2.229
	C 318.738,99.827, 319.48,101.725, 319.48,104.038z M 287.777,311.926l0,31.889 
	c0,2.313-0.743,4.21-2.229,5.697c-1.485,1.486-3.384,2.229-5.696,2.229l-31.222,0 
	c-2.313,0-4.211-0.743-5.696-2.229c-1.486-1.486-2.229-3.384-2.229-5.697l0-31.889 
	c0-2.313, 0.743-4.211, 2.229-5.697C 244.419,304.743, 246.317,304, 248.63,304l 31.222,0 
	c 2.313,0, 4.211,0.743, 5.696,2.229C 287.034,307.715, 287.777,309.614, 287.777,311.926z
	 M 464.11,223.945c0-37.747-9.3-72.558-27.903-104.434
	c-18.602-31.876-43.84-57.116-75.718-75.718
	c-31.876-18.602-66.688-27.903-104.435-27.903s-72.558,9.302-104.434,27.903
	s-57.116,43.842-75.718,75.718S 48,186.198, 48,223.945s 9.302,72.558, 27.903,104.434
	s 43.842,57.116, 75.718,75.718S 218.309,432, 256.055,432s 72.559-9.302, 104.435-27.903
	c 31.878-18.602, 57.116-43.842, 75.718-75.718
	C 454.811,296.503, 464.11,261.691, 464.11,223.945z"  />
<glyph unicode="&#xe06a;" d="M 307.938,209.263c-2.806-1.621, 29.437-80.588, 34.543-89.431
		c 5.105-8.851, 13.136-9.502, 20.218-5.417c 7.081,4.085, 10.515,11.366, 5.409,20.217
		C 363.002,143.482, 310.734,210.883, 307.938,209.263zM 288,240A16,16 180 1 1 320,240A16,16 180 1 1 288,240zM 336,240A16,16 180 1 1 368,240A16,16 180 1 1 336,240zM 384,240A16,16 180 1 1 416,240A16,16 180 1 1 384,240zM 288,336L 416,336L 416,304L 288,304zM 242.283,211.849c 3.302,2.932, 5.395,7.195, 5.395,11.958
		c0,4.803-2.127,9.102-5.479,12.034l0,0.021 l-87.845,76.973l-0.005-0.002
		c-2.789,2.364-6.393,3.798-10.336,3.798c-8.837,0-16.001-7.164-16.001-16.002
		c0-0.064, 0.009-0.127, 0.010-0.192l-0.005-28.46L0,272l0-96 l 128.005,0 l-0.004-28.979
		c0-0.008-0.001-0.014-0.001-0.020C 128,138.164, 135.164,131, 144.001,131
		c 4.472,0, 8.511,1.84, 11.414,4.797l 0.006-0.002l 86.862,76.031L 242.283,211.849 zM 462,434L 242,434 c-27.525,0-50-22.5-50-50l0-64 l 48,0 L 240,386 l 224,0 l0-324 L 240,62 l0,66 l-48,0 l0-64 c0-27.5, 22.475-50, 50-50l 220,0 
		c 27.5,0, 50,22.5, 50,50L 512,384 C 512,411.5, 489.5,434, 462,434z"  />
<glyph unicode="&#xe06b;" d="M 446,416L 66,416 c-27.5,0-50-22.5-50-48l0-284 c0-29.5, 22.5-52, 50-52l 380,0 c 27.5,0, 50,22.5, 50,52L 496,368 C 496,393.5, 473.5,416, 446,416z
		 M 448,368l0-142.677 l-53.824,56.050c-12.444,12.444-32.81,12.444-45.254,0L 227.951,160.402
		l 42.576-77.714L 178.672,177.875c-12.222,12.665-32.403,12.845-44.848,0.4L 64,108.451L 64,368 
		L 448,368 zM 168.805,222.485c 31.324,0, 56.762,25.401, 56.762,56.748
		c0,31.362-25.438,56.767-56.762,56.767C 137.438,336, 112,310.596, 112,279.233
		C 112,247.887, 137.438,222.485, 168.805,222.485z"  />
<glyph unicode="&#xe06c;" d="M 209.986,374.928c-11.685,11.369-31.34,10.664-42.241,0
		C 156.821,364.265, 50.074,252.185, 50.074,252.185
		c-5.829-5.698-8.729-13.147-8.729-20.596c0-7.449, 2.901-14.898, 8.729-20.598
		c0,0, 106.747-112.078, 117.671-122.717c 10.926-10.664, 30.582-11.396, 42.241,0
		c 11.63,11.369, 12.546,27.235-0.028,41.167l-97.938,102.147l 97.938,102.146
		C 222.532,347.692, 221.616,363.559, 209.986,374.928zM 344.255,374.928c-10.9,10.664-30.557,11.369-42.241,0
		c-11.63-11.369-12.546-27.235, 0.028-41.192l 97.938-102.146l-97.938-102.147
		c-12.574-13.932-11.658-29.798-0.028-41.167c 11.659-11.396, 31.314-10.664, 42.241,0
		c 10.924,10.639, 117.671,122.717, 117.671,122.717
		c 5.829,5.699, 8.729,13.148, 8.729,20.598c0,7.448-2.9,14.897-8.729,20.596
		C 461.926,252.185, 355.179,364.265, 344.255,374.928z"  />
<glyph unicode="&#xe06d;" d="M 451.305,356.428c-5.068,14.262-15.524,18.955-28.649,18.955L 268.033,375.383 
		c-13.137,0-31.497,3.010-40.804,12.201l-14.12,13.955
		C 203.813,410.727, 185.454,416, 172.318,416L 90.373,416 c-13.136,0-23.334-6.464-26.516-21.292
		l-12.541-64.436l 411.491,0 L 451.305,356.428zM 473.971,294.937L 39.071,294.937 c-21.819,0-22.915-20.266-21.726-33.247
		l 19.557-208.934c 1.186-12.98, 4.259-31.103, 26.053-31.103l 387.131,0 
		c 22.219,0, 24.86,18.123, 26.039,31.103l 19.558,208.934
		C 496.861,274.671, 495.79,294.937, 473.971,294.937z M 352,48L 248,48 L 144,48 c0,0,0,8.842,0,16.389
		c0,7.561, 17.769,18.638, 45.141,29.489c 27.272,10.827, 35.991,19.966, 35.991,39.532
		c0,11.742-8.331,7.908-11.994,29.418c-1.517,8.92-8.873,0.144-10.277,20.507
		c0,8.125, 4.026,10.14, 4.026,10.14s-2.046,12.020-2.843,21.254
		c-0.996,11.526, 6.106,41.281, 43.956,41.281c 37.861,0, 44.942-29.755, 43.968-41.281
		c-0.796-9.234-2.843-21.254-2.843-21.254s 4.017-2.026, 4.017-10.14
		c-1.417-20.363-8.774-11.587-10.29-20.507
		c-3.65-21.51-11.982-17.676-11.982-29.418c0-19.566, 8.719-28.705, 35.991-39.532
		c 27.362-10.861, 45.141-21.941, 45.141-29.489C 352,56.842, 352,48, 352,48z"  />
<glyph unicode="&#xe06e;" d="M 457.051,386.009L 226.955,386.009 c-12.746,0-30.559,7.303-39.587,16.223
	l-13.698,13.537C 164.642,424.697, 146.829,432, 134.083,432L 41.726,432 
	C 28.979,432, 17.4,421.714, 16,409.139L 25.726,64c 1.15-12.594, 4.133-22.896, 25.277-22.896
	l 406.723,0 c 21.559,0, 24.119,10.303, 25.269,22.896l 6.731,284.847
	C 489.726,370.684, 477.867,386.009, 457.051,386.009z M 377.726,96.004L 257.726,96.004 l-120,0 
	c0,0,0,10.203,0,18.91c0,8.724, 20.503,21.506, 52.085,34.026
	c 31.467,12.493, 41.528,23.037, 41.528,45.614c0,13.549-9.613,9.125-13.839,33.943
	c-1.75,10.293-10.238,0.166-11.858,23.662c0,9.375, 4.646,11.699, 4.646,11.699
	s-2.361,13.869-3.28,24.524c-1.149,13.299, 7.046,47.632, 50.719,47.632
	c 43.686,0, 51.856-34.333, 50.732-47.632c-0.918-10.655-3.281-24.524-3.281-24.524
	s 4.635-2.338, 4.635-11.699c-1.635-23.496-10.125-13.369-11.873-23.662
	c-4.212-24.818-13.826-20.395-13.826-33.943c0-22.577, 10.061-33.121, 41.528-45.614
	c 31.571-12.532, 52.085-25.317, 52.085-34.026
	C 377.726,106.207, 377.726,96.004, 377.726,96.004z"  />
<glyph unicode="&#xe06f;" d="M 475.269,256L 274.668,443.014c-10.25,10.649-27.024,10.649-37.274,0L 36.769,256
	C 26.494,245.375, 33.049,224, 48,224l 32,0 l0-176 l 128,0 L 208,192 l 96,0 l0-144 l 128,0 L 432,224 l 32,0 
	C 478.925,224, 485.518,245.35, 475.269,256z"  />
<glyph unicode="&#xe070;" d="M 253.297,431.98C 138.389,430.443, 46.48,336.048, 48.020,221.141
	c 1.537-114.839, 95.934-206.771, 210.84-205.232
	c 114.863,1.536, 206.793,95.934, 205.232,210.84
	C 462.576,341.611, 368.182,433.52, 253.297,431.98z M 252.687,97.3l-1.153,0 
	c-17.686,0.521-30.169,13.568-29.672,31.005
	c 0.498,17.119, 13.275,29.581, 30.395,29.581l 1.041-0.023
	c 18.182-0.542, 30.53-13.456, 29.986-31.39
	C 282.786,109.309, 270.189,97.3, 252.687,97.3z M 327.111,245.021
	c-4.184-5.901-13.319-13.252-24.854-22.23l-12.709-8.773
	c-6.966-5.428-11.172-10.517-12.732-15.516c-1.268-3.98-1.854-4.998-1.968-13.026
	l-0.022-2.057l-48.465,0 l 0.137,4.115c 0.587,16.872, 1.018,26.775, 8.005,34.986
	c 10.969,12.868, 35.167,28.449, 36.185,29.104c 3.46,2.624, 6.377,5.587, 8.571,8.753
	c 5.089,7.011, 7.327,12.552, 7.327,17.956c0,7.531-2.238,14.497-6.648,20.693
	c-4.252,5.992-12.325,9.022-23.995,9.022c-11.579,0-19.494-3.685-24.243-11.216
	c-4.908-7.758-7.35-15.876-7.35-24.199l0-2.080 l-49.98,0 l 0.091,2.17
	c 1.288,30.622, 12.212,52.648, 32.476,65.517
	c 12.709,8.21, 28.54,12.349, 46.994,12.349c 24.176,0, 44.619-5.881, 60.676-17.459
	c 16.283-11.738, 24.537-29.332, 24.537-52.264
	C 339.143,268.021, 335.096,255.968, 327.111,245.021z"  />
</font>
</defs>
</svg>
