<?xml version="1.0" standalone="no"?>
<!DOCTYPE svg PUBLIC "-//W3C//DTD SVG 1.1//EN" "http://www.w3.org/Graphics/SVG/1.1/DTD/svg11.dtd" >
<svg xmlns="http://www.w3.org/2000/svg">
<metadata></metadata>
<defs>
<font id="wellrockslabregular" horiz-adv-x="1122" >
<font-face units-per-em="2048" ascent="1638" descent="-410" />
<missing-glyph horiz-adv-x="614" />
<glyph horiz-adv-x="2048" />
<glyph horiz-adv-x="2048" />
<glyph horiz-adv-x="682" />
<glyph horiz-adv-x="563" d="M4 1411q25 -125 101.5 -187.5t175.5 -62.5q98 0 175.5 62.5t100.5 187.5h-82q-27 -72 -78 -101.5t-116 -29.5q-66 0 -117 29.5t-78 101.5h-82z" />
<glyph horiz-adv-x="557" d="M199 1210h159v168h-159v-168z" />
<glyph horiz-adv-x="559" d="M86 1303q0 -41 15.5 -76t41 -61.5t61.5 -42t77 -15.5q39 0 74.5 15.5t62 42t42 61.5t15.5 76q0 39 -15.5 74.5t-42 62t-62.5 42t-74 15.5q-41 0 -77 -15.5t-61.5 -42t-41 -62.5t-15.5 -74zM158 1303q0 51 35.5 86.5t87.5 35.5q51 0 86.5 -35.5t35.5 -86.5t-35.5 -87 t-86.5 -36t-87 35.5t-36 87.5z" />
<glyph unicode="&#xa;" horiz-adv-x="565" d="M133 1137l96 -2l263 305h-173zM453 1137l96 -2l260 305h-170z" />
<glyph horiz-adv-x="559" d="M160 -238q0 -82 57 -129t139 -47q57 0 100.5 22t80.5 73l-19 55q-35 -33 -62.5 -43t-58.5 -10q-45 0 -76.5 26.5t-31.5 85.5q0 27 12 56.5t30.5 56t41 50.5t45.5 42h-84q-29 -18 -59.5 -44t-56 -57.5t-42 -66.5t-16.5 -70z" />
<glyph horiz-adv-x="563" d="M-8 1436l198 -299h177l200 299h-98l-190 -203l-189 203h-98z" />
<glyph unicode="&#xd;" horiz-adv-x="499" d="M78 0h352v51h-108v1039h-205v-19v-29l69 -4v-987h-108v-51z" />
<glyph horiz-adv-x="479" d="M-276 -27h106l922 1469h-107z" />
<glyph horiz-adv-x="1148" d="M45 971h191v-920h-66v-51h223v51h-20v920h225v119h-225v102q0 92 32.5 141t108.5 49q41 0 63.5 -15t38.5 -42l60 76q-12 39 -54 68.5t-116 29.5q-135 0 -202.5 -85t-67.5 -247v-77h-191v-119zM705 1071q0 -10 18 -16t55 -17h53v-987h-63v-51h219v51h-20v1039h-262v-19z M821 1446q0 -35 1 -53.5t8.5 -27.5t23.5 -10t47 -1t47.5 1t23.5 10t8 27.5t1 53.5t-1 53.5t-8 27.5t-23.5 10t-47.5 1t-47 -1t-23.5 -10t-8.5 -27.5t-1 -53.5z" />
<glyph horiz-adv-x="1148" d="M43 971h190v-920h-65v-51h223v51h-20v920h207v119h-207v102q0 92 31.5 141t107.5 49q39 0 60.5 -13t37.5 -38l56 76q-10 37 -50.5 64.5t-107.5 27.5q-137 0 -205 -85t-68 -247v-77h-190v-119zM709 1456q0 -12 16 -18t51 -19l49 4v-1372h-63v-51h223v51h-22v1424h-254v-19 z" />
<glyph horiz-adv-x="978" d="M18 410l170 125v-482h-79v-53h843v322h-61v-195h-553v518l326 242v133l-326 -242v584h76v53h-303v-53h77v-694l-170 -125v-133z" />
<glyph horiz-adv-x="495" d="M14 516l170 137v-602h-73v-51h237v51h-29v709l170 137v131l-170 -137v584h-208v-19q0 -10 10 -16t33 -17h30v-639l-170 -137v-131z" />
<glyph horiz-adv-x="1079" d="M49 0h967v240h-53v-113h-742l772 1165v123h-915v-229h53v102h690l-772 -1161v-127zM250 1808l199 -299h176l200 299h-98l-190 -202l-189 202h-98z" />
<glyph horiz-adv-x="935" d="M68 0h794v215h-51v-98h-586l635 854v119h-758v-211h50v94h548l-632 -854v-119zM178 1436l199 -299h176l201 299h-99l-190 -203l-189 203h-98z" />
<glyph unicode=" "  horiz-adv-x="614" />
<glyph unicode="&#x09;" horiz-adv-x="614" />
<glyph unicode="&#xa0;" horiz-adv-x="614" />
<glyph unicode="!" horiz-adv-x="690" d="M260 0h170v193h-170v-193zM264 1415l6 -495l23 -560h102l23 560l6 495h-160z" />
<glyph unicode="&#x22;" horiz-adv-x="940" d="M246 1194l10 -244h111l10 242v229h-131v-227zM557 1194l10 -244h111l10 242v229h-131v-227z" />
<glyph unicode="#" horiz-adv-x="1234" d="M94 432h197l-72 -432h123l72 432h317l-72 -432h123l72 432h252v113h-232l56 338h209v112h-191l74 435h-123l-74 -435h-317l74 435h-123l-74 -435h-258v-112h240l-56 -338h-217v-113zM434 545l55 338h318l-55 -338h-318z" />
<glyph unicode="$" horiz-adv-x="1110" d="M131 156q2 -2 21.5 -22.5t54.5 -50.5t65 -48q88 -53 234 -55v-160h110v166q139 25 236 102q131 106 131 272q0 156 -86 252q-84 96 -281 164v518q90 -6 144 -39q35 -20 64 -49l28 -28l68 71q-2 4 -18.5 23.5t-47.5 50.5t-59 47q-78 43 -179 49v103h-110v-105 q-141 -20 -238 -98q-123 -102 -123 -256q0 -156 107 -254q92 -86 254 -143v-564q-123 4 -199 50q-27 16 -53.5 39.5t-40.5 39t-16 17.5zM293 1063q0 102 80 168q55 43 133 59v-471q-94 45 -139 84q-74 68 -74 160zM616 113v512q109 -49 156 -93q68 -65 68 -161 q0 -115 -90 -193q-49 -43 -134 -65z" />
<glyph unicode="%" horiz-adv-x="1953" d="M164 1057q0 -180 79 -278.5t228 -98.5q154 0 231.5 99.5t77.5 279.5t-79.5 277.5t-229.5 97.5q-147 0 -227 -98.5t-80 -278.5zM291 1057q0 129 45 201.5t137 72.5t136 -71.5t44 -202.5q0 -129 -45 -202t-137 -73t-136 73t-44 202zM457 -27h114l926 1469h-113zM1178 360 q0 -180 78.5 -278t228.5 -98q154 0 230.5 99t76.5 279t-79 277.5t-228 97.5q-150 0 -228.5 -98t-78.5 -279zM1305 360q0 129 45 202t137 73t135 -72t43 -203t-44 -202.5t-136 -71.5t-136 71.5t-44 202.5z" />
<glyph unicode="&#x26;" horiz-adv-x="1394" d="M100 391q0 -78 31 -151.5t90.5 -132t144.5 -94.5t195 -36q152 0 270 64q78 43 152 121l133 -162l270 2v51h-133l-182 215q63 88 105 197q20 57 33.5 116.5t17.5 123.5h125v51h-238q-12 -96 -41 -197q-27 -94 -84 -194l-354 417q57 23 110.5 52.5t104.5 68.5 q121 90 121 248q0 66 -26.5 119t-73 91t-106.5 58.5t-128 20.5q-74 0 -138.5 -22.5t-112.5 -63.5t-76.5 -97.5t-28.5 -123.5q0 -90 55 -179q51 -80 104 -137q-166 -66 -247 -160q-92 -104 -93 -266zM252 410q0 102 74 186q70 80 190 129l387 -467q-63 -59 -108 -90 q-102 -68 -224 -68q-66 0 -124 23.5t-101 64.5t-68.5 97.5t-25.5 124.5zM422 1135q0 43 17.5 77.5t47 58t66.5 37t78 13.5q88 0 143 -46t55 -138q0 -100 -84 -168q-63 -53 -182 -101q-49 61 -90 121q-51 76 -51 146z" />
<glyph unicode="'" horiz-adv-x="501" d="M184 1194l11 -244h110l10 242v229h-131v-227z" />
<glyph unicode="(" horiz-adv-x="651" d="M127 569q0 -145 35 -282t93 -257t135 -215.5t159 -156.5l55 51q-61 55 -120.5 144.5t-107.5 203t-78 244.5t-30 268t30 269.5t78 246t107.5 202.5t120.5 145l-55 51q-82 -61 -159 -156.5t-135 -215.5t-93 -257t-35 -285z" />
<glyph unicode=")" horiz-adv-x="651" d="M45 -291l55 -51q82 61 159 156.5t135.5 215.5t93 257t34.5 282q0 147 -34.5 284.5t-93 257.5t-135.5 215t-159 157l-55 -51q61 -55 120.5 -144.5t108 -203t78 -245.5t29.5 -270q0 -137 -29.5 -268t-78 -244.5t-108 -203t-120.5 -144.5z" />
<glyph unicode="*" horiz-adv-x="1089" d="M139 944l332 25l-188 -275l118 -67q16 27 35 63.5t37.5 77.5t36.5 82t35 76q16 -37 34.5 -78t37 -81t37 -77t34.5 -63l119 67l-189 275l332 -25v135l-332 -26l189 276l-119 68q-16 -27 -34.5 -64t-37 -78t-37 -81.5t-34.5 -75.5q-16 37 -34.5 78t-37 80.5t-37 76.5 t-35.5 64l-118 -68l188 -276l-332 26v-135z" />
<glyph unicode="+" horiz-adv-x="1286" d="M115 518h465v-465h131v465h463v131h-463v459h-131v-459h-465v-131z" />
<glyph unicode="," horiz-adv-x="559" d="M135 -233l39 -19l39 -18l19 26q18 25 42.5 63t49 84t36.5 89q10 37 14.5 86t5.5 80t1 35l-21 1q-22 1 -49 1h-47h-20h-2q0 -109 -30 -219.5t-77 -208.5z" />
<glyph unicode="-" horiz-adv-x="694" d="M76 553h540v135h-540v-135z" />
<glyph unicode="." horiz-adv-x="559" d="M195 0h172v193h-172v-193z" />
<glyph unicode="/" horiz-adv-x="630" d="M-31 -31h135l558 1461h-136z" />
<glyph unicode="0" d="M92 707q0 -170 29 -304.5t87 -227.5t146 -142t205 -49q233 0 351 191.5t118 535.5q0 340 -116.5 531.5t-350.5 191.5q-236 0 -352.5 -191.5t-116.5 -535.5zM240 711q0 285 75.5 441.5t243.5 156.5t245 -156.5t77 -445.5q0 -285 -77 -441.5t-243 -156.5 q-170 0 -245.5 157.5t-75.5 444.5z" />
<glyph unicode="1" d="M272 1262l45 -109l215 113v-1215h-143v-51h432v51h-141l-2 1364h-76z" />
<glyph unicode="2" d="M98 0h865l4 266h-52l-4 -139h-645q66 117 160 228.5t240 228.5q45 37 95 90t90 115.5t66.5 132t26.5 143.5q0 84 -29.5 151.5t-84 115.5t-130 75t-168.5 27q-74 0 -143.5 -26t-123.5 -57.5t-88 -56.5l-34 -26l70 -92l25 20q24 21 68 46.5t102.5 46t126.5 20.5 q111 0 182 -71t71 -181q0 -55 -18 -107.5t-49 -100.5t-70 -91t-80 -76q-176 -150 -288.5 -301.5t-184.5 -292.5v-88z" />
<glyph unicode="3" d="M90 152l33 -27q33 -27 87 -57.5t125 -57t148 -26.5q111 0 202 28.5t156.5 83t101.5 130t36 169.5q0 154 -78 242t-219 108q119 33 192.5 121t73.5 207q0 82 -29.5 149.5t-85 113.5t-133 72t-176.5 26q-72 0 -138.5 -24t-116.5 -51.5t-81 -50.5l-30 -24l67 -78l25 16 q24 17 65 35.5t94.5 35t108.5 16.5q129 0 208 -66.5t79 -171.5q0 -137 -101.5 -206.5t-275.5 -65.5l-68 2v-107l115 2q172 4 265.5 -76.5t93.5 -218.5q0 -135 -95.5 -213.5t-251.5 -78.5q-66 0 -125 19t-105 44t-73 44l-28 20z" />
<glyph unicode="4" d="M59 485l29 -129h610v-305h-125v-51h377v51h-114v305h217v123h-217v942h-158zM201 479l497 776v-776h-497z" />
<glyph unicode="5" d="M137 160l29 -28t79 -60.5t116.5 -60t142.5 -27.5q115 0 207 32.5t157.5 93t100.5 147.5t35 198q0 98 -32 179t-89.5 138t-139 88t-180.5 31q-66 0 -129 -17.5t-119 -54.5l23 467h541v-141h55v270h-725l-35 -721q14 -4 25.5 -13t21.5 -17q127 102 303 102q160 0 247 -83 t87 -237q0 -78 -25.5 -139t-71.5 -106t-111.5 -68.5t-145.5 -23.5q-61 0 -116.5 21.5t-98.5 47t-69 46.5l-25 22z" />
<glyph unicode="6" d="M115 655q0 -176 31.5 -302t92 -209t145.5 -121.5t191 -38.5q98 0 179.5 33.5t139.5 94t91 145.5t33 189q0 211 -110.5 331t-307.5 120q-111 0 -207 -53q-78 -43 -133 -115v2q0 242 88 397q104 184 324 185q98 0 164.5 -43t78.5 -105h95l-6 28q-7 28 -17 50 q-84 195 -311 191q-272 -4 -416.5 -200t-144.5 -579zM264 522q49 129 127 185q88 63 199 63q135 0 209.5 -88t74.5 -242q0 -74 -21.5 -135t-60 -104t-93 -67.5t-121.5 -24.5q-152 0 -234 118q-66 92 -80 295z" />
<glyph unicode="7" d="M121 1141h53v145h660q-78 -141 -149 -293.5t-133.5 -309.5t-114.5 -316.5t-91 -315.5h-119v-51h402v51h-129q78 319 202.5 637.5t278.5 605.5v121h-860v-274z" />
<glyph unicode="8" d="M86 375q0 -86 35 -159t98.5 -124t150.5 -79.5t191 -28.5q106 0 194.5 27.5t150 77.5t95 123t33.5 165q0 129 -70.5 219t-236.5 147q55 25 102.5 60t83 79t56 95t20.5 108q0 80 -29.5 143.5t-85 109.5t-133 71t-172.5 25q-96 0 -176 -26t-139 -73t-92 -111.5t-33 -142.5 q0 -106 60.5 -192t201.5 -148q-305 -98 -305 -366zM233 383q0 123 88.5 196.5t235.5 104.5q150 -33 241 -108.5t91 -194.5q0 -61 -24.5 -111.5t-67.5 -86.5t-102.5 -55t-131.5 -19t-132 19t-104 56t-69 87.5t-25 111.5zM272 1075q0 51 21.5 94t59.5 74t91.5 48.5t116.5 17.5 q125 0 206 -64t81 -168q0 -59 -25.5 -107t-67.5 -83t-92.5 -58.5t-99.5 -31.5q-59 12 -111.5 36.5t-92.5 60.5t-63.5 81t-23.5 100z" />
<glyph unicode="9" d="M100 971q0 -209 112 -330t308 -121q106 0 201 51q82 43 137 119v-8q0 -238 -88 -393q-104 -182 -319 -183q-100 0 -167 42t-81 104h-82l20 -78q23 -92 106 -142t199 -48q270 4 414 201.5t144 576.5q0 176 -32 303t-91.5 209t-144.5 121t-193 39q-98 0 -179 -34 t-139.5 -95.5t-91.5 -146.5t-33 -187zM244 971q0 76 21.5 138t60.5 106.5t94 69t123 24.5q152 0 231 -119q66 -92 80 -297q-49 -127 -129 -182q-88 -63 -195 -64q-135 0 -210.5 88t-75.5 236z" />
<glyph unicode=":" horiz-adv-x="559" d="M195 0h172v193h-172v-193zM195 819h172v193h-172v-193z" />
<glyph unicode=";" horiz-adv-x="559" d="M115 -233l39 -19l39 -18l18 26q18 25 43 63t49.5 84t36.5 89q10 37 14 86t5 80t1 35l-22 1q-21 1 -47 1h-47h-21h-2q0 -109 -29.5 -219.5t-76.5 -208.5zM195 819h172v193h-172v-193z" />
<glyph unicode="&#x3c;" horiz-adv-x="1286" d="M115 522l1056 -465v136l-892 387l892 387v135l-1056 -465v-115z" />
<glyph unicode="=" horiz-adv-x="1286" d="M115 295h1059v131h-1059v-131zM115 733h1059v131h-1059v-131z" />
<glyph unicode="&#x3e;" horiz-adv-x="1286" d="M115 57l1056 465v115l-1056 465v-135l893 -387l-893 -387v-136z" />
<glyph unicode="?" horiz-adv-x="989" d="M125 1325l61 -88l32 13q32 12 75 25t89 25.5t75 12.5q125 0 194.5 -67.5t69.5 -178.5q0 -59 -20.5 -95t-52.5 -63.5t-69.5 -52.5t-74.5 -59q-51 -49 -84 -104.5t-45 -133.5q-6 -37 -2 -85t10 -77.5t6 -34.5h107l10 148q2 47 22.5 100.5t92.5 91.5q45 25 89 59t78.5 79 t56 101t21.5 124q0 76 -25.5 144.5t-75.5 119.5t-126 81t-176 30q-61 0 -121.5 -18.5t-109 -40t-78.5 -39.5zM358 0h170v193h-170v-193z" />
<glyph unicode="@" horiz-adv-x="1714" d="M68 459q0 -164 61 -311.5t173 -259t265.5 -178t337.5 -66.5l-2 17t-5 38.5t-6 40.5l-3 20q-133 2 -258 53.5t-222.5 142.5t-155.5 217t-58 273t56 274.5t151.5 220.5t222.5 147.5t268 54.5q131 0 244.5 -44t197.5 -118t131 -172t47 -207q0 -102 -31.5 -193.5t-80.5 -160 t-107.5 -108.5t-109.5 -40q-25 0 -45 21q-12 14 -13 41q0 8 1 15t3 18l189 686h-148l-36 -131q-14 43 -41 75.5t-61 54t-70.5 32t-69.5 10.5q-117 0 -210 -51.5t-159.5 -134.5t-101.5 -188.5t-35 -211.5q0 -86 26.5 -151.5t69.5 -111.5t99.5 -69.5t117.5 -23.5q47 0 90.5 13 t80 34.5t65.5 47t47 50.5q18 -86 60 -118t85 -32q92 0 182.5 50.5t163 134.5t117.5 196.5t45 239.5q0 133 -55 253t-155.5 211t-237.5 145.5t-299 54.5q-172 0 -321.5 -67t-261 -177.5t-175 -256t-63.5 -300.5zM543 344q0 80 26.5 163t74.5 148.5t112.5 107.5t138.5 42 q80 0 132 -69t52 -167q0 -74 -27.5 -155.5t-75.5 -150t-111.5 -115t-137.5 -46.5q-35 0 -67.5 14.5t-58.5 45.5t-42 76t-16 106z" />
<glyph unicode="A" horiz-adv-x="1380" d="M4 0h295v53h-76l146 385h643l145 -385h-74v-53h297v53h-69l-500 1313h72v49h-367v-49h72l-512 -1313h-72v-53zM416 563l278 740l273 -740h-551z" />
<glyph unicode="B" horiz-adv-x="1159" d="M113 0h411q248 0 385.5 101t137.5 300q0 125 -71 217.5t-224 126.5q123 31 182 109t59 201q0 180 -115.5 270t-332.5 90h-432v-53h73v-1309h-73v-53zM336 125v549h188q180 0 274.5 -68t94.5 -209q0 -135 -97.5 -203.5t-277.5 -68.5h-182zM338 801v489h201q143 0 222 -58 t79 -177q0 -125 -85 -189.5t-239 -64.5h-178z" />
<glyph unicode="C" horiz-adv-x="1437" d="M113 709q0 -166 51 -301.5t144 -230.5t225.5 -147.5t293.5 -52.5q74 0 157 25t151.5 55.5t91.5 42.5l69 37l-61 105l-40 -20q-40 -21 -99.5 -46.5t-131 -46t-135.5 -20.5q-127 0 -230 43t-177 121.5t-114 189t-40 246.5q0 135 40 245.5t114 189.5t177 122t230 43 q117 0 221.5 -47.5t161.5 -133.5l64 -2v269h-53v-78q-76 63 -180.5 93t-221.5 30q-160 0 -290 -53.5t-223 -149.5t-144 -231.5t-51 -296.5z" />
<glyph unicode="D" horiz-adv-x="1417" d="M104 0h412q199 0 346.5 49t243.5 141.5t144 223.5t48 293q0 334 -182 521t-543 187h-469v-53h80v-1309h-80v-53zM334 127v1161h235q287 0 431.5 -147t144.5 -434q0 -291 -155.5 -435.5t-463.5 -144.5h-192z" />
<glyph unicode="E" horiz-adv-x="1130" d="M80 0h944v233h-53v-106h-625v539h545v127h-545v495h612v-102h54v229h-932v-53h117v-1309h-117v-53z" />
<glyph unicode="F" horiz-adv-x="999" d="M63 0h343v53h-76v615h501v127h-501v493h567v-102h53v229h-887v-53h117v-1309h-117v-53z" />
<glyph unicode="G" horiz-adv-x="1546" d="M115 709q0 -166 52 -301.5t147.5 -230.5t230.5 -147.5t301 -52.5q201 0 346.5 88t198.5 250v404h-492v-127h334v-281q-35 -92 -139.5 -147t-245.5 -55q-129 0 -235.5 43t-182.5 121.5t-118 189t-42 246.5q0 135 41 245.5t115 189.5t177.5 122t230.5 43q129 0 244.5 -49.5 t181.5 -141.5h65v266h-53v-86q-82 66 -195.5 104t-255.5 38q-158 0 -286.5 -53.5t-223 -150.5t-145.5 -231.5t-51 -295.5z" />
<glyph unicode="H" horiz-adv-x="1398" d="M104 0h312v53h-72v619h711v-619h-74v-53h293v53h-70v1309h70v53h-293v-53h74v-563h-711v563h72v53h-312v-53h91v-1309h-91v-53z" />
<glyph unicode="I" horiz-adv-x="524" d="M98 0h308v53h-70v1309h70v53h-308v-53h90v-1309h-90v-53z" />
<glyph unicode="J" horiz-adv-x="653" d="M-31 -170q18 -8 58.5 -18.5t93.5 -10.5q344 0 344 377v1184h80v53h-332v-53h102v-1178q0 -135 -51 -191t-151 -56q-49 0 -86 9t-56 15z" />
<glyph unicode="K" horiz-adv-x="1247" d="M104 0h322v53h-76v664v47v598h76v53h-322v-53h97v-1309h-97v-53zM397 717l574 -664h-72v-53h338v53h-63l-613 699l572 610h63v53h-317v-53h67l-549 -598v-47z" />
<glyph unicode="L" horiz-adv-x="976" d="M86 0h864v322h-61v-195h-553v1235h76v53h-324v-53h98v-1309h-100v-53z" />
<glyph unicode="M" horiz-adv-x="1806" d="M98 0h299v53h-67v1243l524 -1298h90l518 1298v-1243h-69v-53h286v53h-71v1309h71v53h-297l-479 -1182l-481 1182h-324v-53h95v-1309h-95v-53z" />
<glyph unicode="N" horiz-adv-x="1413" d="M80 0h321v53h-84v1184l742 -1243h178v1368h80v53h-301v-53h84v-1172q-180 315 -362.5 612.5t-370.5 612.5h-287v-53h100v-1309h-100v-53z" />
<glyph unicode="O" horiz-adv-x="1548" d="M111 709q0 -164 48 -298.5t136 -230.5t211 -149.5t272 -53.5q150 0 274 53.5t212 149.5t136 230.5t48 298.5q0 162 -48 297t-136 231t-212 149.5t-274 53.5t-272.5 -53.5t-210.5 -149.5t-136 -231.5t-48 -296.5zM266 709q0 131 37 241.5t104.5 190.5t162 124t208.5 44 q115 0 209 -44t162 -124t105.5 -190.5t37.5 -241.5q0 -133 -37.5 -243t-105.5 -189.5t-162 -123.5t-209 -44t-209 44t-161.5 123.5t-104.5 189t-37 243.5z" />
<glyph unicode="P" horiz-adv-x="1085" d="M96 0h324v53h-78v537h236q104 0 189 28.5t144.5 83t92 130t32.5 169.5q0 197 -119.5 305.5t-334.5 108.5h-486v-53h97v-1309h-97v-53zM342 717v571h236q150 0 228.5 -70.5t78.5 -211.5q0 -147 -89 -216t-268 -71z" />
<glyph unicode="Q" horiz-adv-x="1548" d="M111 709q0 -326 184 -529q86 -92 204.5 -142t256.5 -58q0 2 19.5 -8.5t49 -28t63.5 -40t62 -46.5q72 -59 111 -87l39 -28l131 53l-150 119q-90 72 -118 86q188 55 301 180q184 203 184 529q0 162 -48 297t-136 231t-212 149.5t-274 53.5t-272.5 -53.5t-210.5 -149.5 t-136 -231.5t-48 -296.5zM266 709q0 131 37 241.5t104.5 190.5t162 124t208.5 44q115 0 209 -44t162 -124t105.5 -190.5t37.5 -241.5q0 -133 -37.5 -243t-105.5 -189.5t-162 -123.5t-209 -44t-209 44t-161.5 123.5t-104.5 189t-37 243.5z" />
<glyph unicode="R" horiz-adv-x="1173" d="M90 0h334v53h-80v1235h231q301 0 302 -231q0 -123 -89.5 -190.5t-242.5 -67.5h-158v-125h166l23 -32q22 -32 59 -86t83 -124t95 -145l180 -287h176v2l-23 39q-24 39 -59.5 97.5t-78.5 124t-80 120.5q-33 47 -72 100.5t-72.5 99.5t-55 78.5t-17.5 36.5q166 33 242.5 132.5 t76.5 228.5q0 172 -111.5 264t-310.5 92h-518v-53h105v-1309h-105v-53z" />
<glyph unicode="S" horiz-adv-x="1056" d="M104 1077q0 -80 29 -142.5t81 -111.5t125 -88t161 -69q86 -31 145.5 -62t95 -64.5t52 -73.5t16.5 -89q0 -59 -23.5 -108.5t-64.5 -85.5t-97.5 -56.5t-123.5 -20.5q-61 0 -115.5 15.5t-98.5 40t-75 56.5t-43 67v32h-62v-319h54v94q63 -55 154.5 -85t191.5 -30q98 0 181 30 t143.5 82t95.5 124t35 158q0 80 -21.5 142t-68 112.5t-118 91.5t-173.5 78q-174 61 -252 126.5t-78 157.5q0 104 79 167t203 63q117 0 192 -38t105 -89v-23h68v268h-53v-81q-61 45 -141 69.5t-173 24.5q-92 0 -169.5 -28t-135 -76t-89.5 -114.5t-32 -144.5z" />
<glyph unicode="T" horiz-adv-x="1091" d="M25 1141h53v147h395v-1235h-100v-53h350v53h-100v1235h393v-147h53v274h-1044v-274z" />
<glyph unicode="U" horiz-adv-x="1366" d="M102 1362h74v-899q0 -229 135 -357.5t371 -128.5q240 0 372 128t132 358v899h76v53h-295v-53h71v-897q0 -172 -92 -265.5t-264 -93.5q-168 0 -262 93.5t-94 265.5v897h71v53h-295v-53z" />
<glyph unicode="V" horiz-adv-x="1316" d="M-4 1362h74l514 -1368h151l516 1368h74v53h-289v-53h70l-442 -1192l-439 1192h72v53h-301v-53z" />
<glyph unicode="W" horiz-adv-x="1961" d="M0 1362h72l393 -1368h162l352 1266l350 -1266h158l395 1368h72v53h-281v-53h74l-336 -1186l-326 1186h70v53h-342v-53h68l-326 -1182l-332 1182h72v53h-295v-53z" />
<glyph unicode="X" horiz-adv-x="1296" d="M20 0h316v53h-74l383 568l379 -568h-74v-53h330v53h-80l-467 686l430 623h76v53h-303v-53h70l-355 -516l-348 516h68v53h-318v-53h80l430 -631l-463 -678h-80v-53z" />
<glyph unicode="Y" horiz-adv-x="1267" d="M0 1362h74l487 -746v-563h-80v-53h312v53h-82v563l479 746h74v53h-303v-53h75l-397 -619l-393 619h76v53h-322v-53z" />
<glyph unicode="Z" horiz-adv-x="1079" d="M49 0h967v240h-53v-113h-742l772 1165v123h-915v-229h53v102h690l-772 -1161v-127z" />
<glyph unicode="[" horiz-adv-x="645" d="M184 -336l113 -6h276v109h-213l-41 4v1603h41h213v109h-276h-113v-1819z" />
<glyph unicode="\" horiz-adv-x="634" d="M-31 1430l559 -1459h136l-560 1459h-135z" />
<glyph unicode="]" horiz-adv-x="645" d="M72 -233v-109h276l113 6v1819h-113h-276v-109h213l41 -4v-1599l-41 -4h-213z" />
<glyph unicode="^" horiz-adv-x="1210" d="M111 653l133 -14l360 633l359 -633l133 14l-443 768h-98z" />
<glyph unicode="_" horiz-adv-x="1024" d="M-2 -358v-103h1030v103h-1030z" />
<glyph unicode="`" horiz-adv-x="561" d="M59 1438l263 -303l100 2l-191 303z" />
<glyph unicode="a" horiz-adv-x="1046" d="M90 303q0 -68 22.5 -127t65.5 -103t104.5 -70t137.5 -26q86 0 174 39t162 134v-150h262v51l-131 2l-6 97v612q0 174 -93.5 263t-273.5 89q-66 0 -125 -11t-103 -23.5t-71 -23.5l-27 -12l31 -94l27 8q28 9 69 18t91.5 17t95.5 8q117 0 179 -57t62 -182v-144 q-49 20 -99 28.5t-87 8.5q-221 0 -344 -96t-123 -256zM233 301q0 111 87.5 175.5t254.5 66.5q53 0 98.5 -15.5t69.5 -40.5v-118q-25 -123 -103.5 -201t-197.5 -78q-104 0 -156.5 59.5t-52.5 151.5z" />
<glyph unicode="b" horiz-adv-x="1210" d="M61 0h252v172q72 -111 157 -151.5t183 -40.5q104 0 189.5 41.5t146 116.5t93 180.5t32.5 232.5q0 129 -31.5 232.5t-90 177t-141.5 113.5t-187 40q-98 0 -187.5 -42t-163.5 -154v557h-211v-54l74 2v-1372h-115v-51zM313 547q0 98 24.5 181t68 142.5t104.5 92t135 32.5 t134.5 -31.5t101.5 -90t63.5 -141.5t22.5 -183t-22.5 -183t-65.5 -143.5t-102.5 -93.5t-133.5 -33q-72 0 -131 33t-104.5 92.5t-70 142t-24.5 183.5z" />
<glyph unicode="c" horiz-adv-x="974" d="M82 545q0 -127 36 -232.5t102.5 -180.5t158.5 -117t205 -42q123 0 205.5 49.5t125.5 129.5l-55 94q-12 -29 -37.5 -55.5t-60.5 -48t-78 -35t-88 -13.5q-84 0 -151.5 33t-114.5 93.5t-74 143t-27 183.5q0 100 27 183t75 141.5t115.5 90t151.5 31.5q82 0 153.5 -41 t92.5 -104h59v289h-51v-105q-45 37 -114.5 59.5t-155.5 22.5q-109 0 -200 -43t-157.5 -118.5t-104.5 -180t-38 -227.5z" />
<glyph unicode="d" horiz-adv-x="1191" d="M92 543q0 -127 32 -230.5t92 -177.5t145 -114.5t190 -40.5q98 0 184 40.5t158 149.5v-170h252v51h-115v1424h-217v-50h16q16 0 36 -1t28 -1v-510q-76 119 -167 160t-185 41q-104 0 -187.5 -41t-141.5 -115.5t-89 -180t-31 -234.5zM238 543q0 100 22.5 184t63.5 143.5 t99 92t132 32.5t136.5 -31.5t106.5 -91t69.5 -142.5t25.5 -183q0 -96 -24.5 -178t-67.5 -142.5t-103.5 -95.5t-134.5 -35t-134 33t-103 91.5t-65.5 141t-22.5 181.5z" />
<glyph unicode="e" horiz-adv-x="1087" d="M82 543q0 -131 34 -236.5t98.5 -179.5t156.5 -114t209 -40q61 0 128.5 18.5t124 42t94.5 42.5l38 18l-52 103l-31 -17q-30 -16 -77 -36.5t-102.5 -37t-104.5 -16.5q-172 0 -272 125q-90 113 -99 295h781l2 29q-4 270 -125 422.5t-336 152.5q-102 0 -187.5 -43 t-147.5 -118.5t-97 -181t-35 -228.5zM229 621q14 154 88 251q92 125 244 125q129 0 210 -101t91 -275h-633z" />
<glyph unicode="f" horiz-adv-x="632" d="M45 971h186v-920h-61v-51h319v51h-120v920h213v119h-213v102q0 92 31.5 141t109.5 49q39 0 68 -18l30 -18l60 75q-2 2 -21.5 19.5t-58.5 38t-84 20.5q-135 0 -204 -85t-69 -247v-77h-186v-119z" />
<glyph unicode="g" horiz-adv-x="1191" d="M90 539q0 -121 34 -221.5t94.5 -172t145.5 -112.5t187 -41q98 0 190.5 45t155.5 162v-133q0 -199 -88 -297.5t-262 -98.5q-104 0 -192.5 30t-125.5 60l-45 -118q49 -37 141.5 -65t215.5 -28q113 0 205 34t155.5 97.5t98 153.5t34.5 205v999h113v52h-250v-150 q-43 55 -85 89t-85 53.5t-86 25.5t-88 6q-106 0 -192.5 -41t-145.5 -116.5t-92 -182t-33 -235.5zM238 541q0 100 22.5 183t65.5 143.5t102 93t133 32.5q160 0 248 -120.5t88 -329.5q0 -92 -24.5 -172t-69.5 -137.5t-107.5 -90t-136.5 -32.5t-133 31.5t-101 88t-64.5 135 t-22.5 175.5z" />
<glyph unicode="h" horiz-adv-x="1146" d="M66 0h321v51h-70v627q33 147 118 232t202 85q98 0 152.5 -71.5t54.5 -194.5v-678h-84v-51h289v51h-68v680q0 180 -83 281.5t-236 101.5q-223 0 -345 -190v551h-211v-54h15q14 0 32.5 1t26.5 1v-1372h-114v-51z" />
<glyph unicode="i" horiz-adv-x="499" d="M94 1036h19q18 0 40.5 1t30.5 1v-987h-88v-51h312v51h-89v1039h-225v-54zM184 1296q0 -31 22.5 -53t53.5 -22t53.5 22t22.5 53t-22.5 53.5t-53.5 22.5t-53.5 -22.5t-22.5 -53.5z" />
<glyph unicode="j" horiz-adv-x="495" d="M-59 -307v-119q10 -2 19 -4t17.5 -4t24.5 -2h47q279 0 279 317v1209h-248v-54h24q23 0 50.5 1t35.5 1v-1134q0 -117 -35.5 -168t-129.5 -51zM184 1296q0 -31 22.5 -53t53.5 -22t53.5 22t22.5 53t-22.5 53.5t-53.5 22.5t-53.5 -22.5t-22.5 -53.5z" />
<glyph unicode="k" horiz-adv-x="1067" d="M70 0h342v51h-90v504l526 -555h203v51h-72l-510 539l481 450h58v50h-293v-50h67l-460 -428v863h-211v-52h73v-1372h-114v-51z" />
<glyph unicode="l" horiz-adv-x="493" d="M88 0h320v51h-91v1424h-208v-54h14q14 0 32.5 1t26.5 1v-1372h-94v-51z" />
<glyph unicode="m" horiz-adv-x="1732" d="M109 0h280v51h-70v627q33 147 112 232t190 85q88 0 137 -72.5t49 -195.5v-676h-82v-51h289v51h-70v625q35 147 113 233t188 86q88 0 136.5 -72.5t48.5 -195.5v-676h-84v-51h286v51h-65v682q0 180 -79 280.5t-228 100.5q-111 0 -202 -58.5t-140 -144.5 q-23 100 -93.5 151.5t-175.5 51.5q-106 0 -192 -47t-144 -141v164h-204v-54h14q14 0 33.5 1t25.5 1v-987h-73v-51z" />
<glyph unicode="n" horiz-adv-x="1140" d="M106 0h302v51h-91v627q33 147 117 232t201 85q94 0 148.5 -71.5t54.5 -194.5v-678h-84v-51h309v51h-88v680q0 180 -83 281.5t-233 101.5q-111 0 -199.5 -48t-148.5 -142v166h-205v-50h15q14 0 33.5 -1t25.5 -1v-987h-74v-51z" />
<glyph unicode="o" horiz-adv-x="1153" d="M82 543q0 -123 37 -227.5t102.5 -180.5t155.5 -119t198 -43q109 0 199 43t155.5 119t101.5 180.5t36 227.5q0 125 -36 230.5t-101.5 181t-155.5 117.5t-199 42t-198.5 -42t-155 -117.5t-102.5 -181t-37 -230.5zM229 543q0 98 26 180t71 142.5t108.5 93t140.5 32.5 q76 0 139.5 -32.5t109.5 -93t71 -142.5t25 -180t-25 -180t-71 -141.5t-109.5 -92.5t-139.5 -33q-78 0 -141 33t-108 92.5t-71 141t-26 180.5z" />
<glyph unicode="p" horiz-adv-x="1191" d="M76 1040h18q18 0 41 -1t29 -1v-1419h-74v-51h287v51h-76v549q61 -109 153.5 -152t188.5 -43q104 0 189.5 41t145.5 117t92 180.5t32 233.5t-32 234.5t-90 180t-143 114.5t-192 40q-94 0 -184 -45t-166 -164v185h-219v-50zM299 541v2q0 100 24.5 184t68.5 143.5t104.5 92 t132.5 32.5q76 0 137 -32.5t104 -92t65.5 -143.5t22.5 -184q0 -102 -22.5 -184.5t-65.5 -141.5t-104 -91t-137 -32q-74 0 -134.5 34t-103.5 93.5t-67.5 141t-24.5 178.5z" />
<glyph unicode="q" horiz-adv-x="1187" d="M92 545q0 -129 32 -233.5t92 -180.5t145 -117t190 -41q98 0 189 44t153 161v-559h-76v-51h287v51h-74v1415l70 2v56h-209v-189q-72 121 -161 166t-181 45q-109 0 -193 -40t-143 -113.5t-90 -179t-31 -236.5zM236 543q0 209 87 330.5t242 121.5q72 0 132.5 -32.5 t103.5 -92t67.5 -141.5t24.5 -180t-24.5 -182t-67.5 -144.5t-103.5 -94.5t-134.5 -34q-76 0 -136 32t-103 91t-65.5 141t-22.5 185z" />
<glyph unicode="r" horiz-adv-x="749" d="M74 0h344v51h-86v496q0 98 19.5 179t57 138.5t93.5 85.5q47 24 106 24q12 0 25 -1l86 -6v137l-84 8q-98 0 -183 -57.5t-133 -190.5v226h-204v-50h16q16 0 36.5 -1t27.5 -1v-987h-121v-51z" />
<glyph unicode="s" horiz-adv-x="849" d="M74 -23h53v80q45 -43 122 -64.5t159 -21.5q172 0 272 87.5t100 234.5q0 123 -72.5 200.5t-234.5 124.5q-123 37 -183.5 82t-60.5 119q0 78 52.5 128t152.5 50q78 0 144.5 -32.5t97.5 -77.5v-10l59 4v235h-51v-76q-41 31 -113.5 52.5t-142.5 21.5q-72 0 -133.5 -20.5 t-105.5 -59.5t-69.5 -95t-25.5 -126q0 -68 24.5 -118t67.5 -86t99.5 -61.5t120.5 -45.5q113 -35 173 -83t60 -140q0 -43 -18.5 -78t-51 -59.5t-74.5 -39t-89 -14.5q-53 0 -99.5 11.5t-83.5 31t-59.5 47t-28.5 58.5h-61v-259z" />
<glyph unicode="t" horiz-adv-x="641" d="M33 971h186v-733q0 -135 51.5 -198t169.5 -63q43 0 86.5 9.5t63.5 17.5l-2 117q-20 -8 -48 -16.5t-67 -8.5q-55 0 -86 34t-31 99v742h226v119h-226v303l-137 -78v-225h-186v-119z" />
<glyph unicode="u" horiz-adv-x="1142" d="M70 1038h106v-673q0 -186 80 -285.5t240 -99.5q111 0 199.5 49t144.5 135v-164h233v51h-102v1039h-248v-52h111v-632q-31 -137 -117 -221.5t-199 -84.5q-100 0 -152.5 72t-52.5 201v717h-243v-52z" />
<glyph unicode="v" horiz-adv-x="993" d="M8 1038h70l346 -1044h147l349 1044h63v52h-260v-52h57l-282 -882l-277 882h55v52h-268v-52z" />
<glyph unicode="w" horiz-adv-x="1585" d="M8 1038h51l310 -1044h151l262 934l265 -934h147l317 1044h58v52h-244v-52h55l-260 -880l-243 878h45v51h-267v-51h47l-258 -882l-245 884h49v52h-240v-52z" />
<glyph unicode="x" horiz-adv-x="999" d="M25 0h268v51h-53l262 418l260 -418h-53v-51h266v51h-51l-342 520l307 467h59v52h-256v-52h43l-233 -370l-232 370h49v52h-264v-52h54l315 -467l-342 -520h-57v-51z" />
<glyph unicode="y" horiz-adv-x="1005" d="M14 1038h68l356 -1015l-71 -228q-16 -55 -43 -88q-25 -31 -62 -31h-4l-82 5l-53 6l-6 -117l200 -10h8q26 0 47 12q25 14 45.5 38.5t35 56.5t26.5 65l449 1306h61v52h-264v-52h59l-278 -843l-281 843h60v52h-271v-52z" />
<glyph unicode="z" horiz-adv-x="935" d="M68 0h794v215h-51v-98h-586l635 854v119h-758v-211h50v94h548l-632 -854v-119z" />
<glyph unicode="{" horiz-adv-x="624" d="M78 512q94 -4 136 -74.5t42 -199.5v-297q0 -61 12.5 -112.5t42 -89.5t79.5 -59.5t128 -21.5h66v109h-74q-55 0 -88 43t-33 149v281q0 152 -50 223.5t-136 105.5q43 18 77.5 44t58 65t37 93t13.5 130v281q0 106 34 149t87 43h74v109h-66q-78 0 -128 -21.5t-79.5 -59.5 t-42 -89t-12.5 -113v-297q0 -129 -42 -199.5t-136 -74.5v-117z" />
<glyph unicode="|" horiz-adv-x="712" d="M287 -205h137v1682h-137v-1682z" />
<glyph unicode="}" horiz-adv-x="624" d="M39 -233v-109h65q76 0 127.5 21.5t81 59.5t42 89t12.5 113v297q0 129 42 199.5t136 74.5v117q-94 4 -136 74.5t-42 199.5v297q0 61 -12.5 112.5t-42 89.5t-81 59.5t-127.5 21.5h-65v-109h76q53 0 85.5 -43t32.5 -149v-281q0 -76 13.5 -130t37 -93t58.5 -64.5t78 -44.5 q-86 -35 -136.5 -106.5t-50.5 -222.5v-281q0 -106 -32.5 -149t-85.5 -43h-76z" />
<glyph unicode="~" horiz-adv-x="1251" d="M129 584l43 -123q47 59 102.5 100t118.5 41q68 0 215.5 -73.5t239.5 -73.5q49 0 90 14t76 36.5t60.5 51t43.5 57.5l-43 123q-53 -59 -105 -100t-118 -41t-213 73.5t-242 73.5q-49 0 -91 -14t-75.5 -36.5t-59.5 -51.5t-42 -57z" />
<glyph unicode="&#xa1;" horiz-adv-x="690" d="M260 821h170v193h-170v-193zM266 -401h160l-6 495l-23 559h-102l-23 -559z" />
<glyph unicode="&#xa2;" horiz-adv-x="1103" d="M150 547q0 -256 137 -412q45 -53 123 -98l-99 -330h95l86 293q63 -23 159 -23q123 0 206 49.5t126 129.5l-55 94q-12 -29 -38 -55.5t-60.5 -48t-77.5 -35t-88 -13.5q-84 0 -136 25l252 846q10 -4 19.5 -9.5t19.5 -9.5q70 -41 92 -104l60 6v262h-51v-84q-41 33 -105 55 l82 281h-94l-76 -258q-16 2 -35.5 3t-42.5 1q-109 0 -200 -42t-157.5 -117.5t-104 -179t-37.5 -226.5zM297 549q0 98 26.5 180t74.5 140.5t116 90t152 31.5q18 0 26 -2l-243 -817q-33 27 -52 51q-100 125 -100 326z" />
<glyph unicode="&#xa3;" horiz-adv-x="1116" d="M111 70q0 -33 62.5 -55.5t168.5 -22.5q45 0 78 13t69 48q55 -33 120 -47t118 -14q68 0 123 17.5t93 38t48 28.5l31 26l-41 72l-27 -8q-26 -8 -73 -17.5t-114 -17.5t-146 -8q-16 0 -44 13.5t-46.5 25.5t-20.5 14l12 230l-16 268h293v114h-310q-16 55 -29.5 109.5 t-13.5 101.5q0 162 72 237t195 75q86 0 135 -34t82 -89l6 -10l84 16l-19 66q-23 82 -100.5 128t-193.5 46q-100 0 -177 -31t-128.5 -87t-77 -133t-25.5 -169q0 -57 10 -109.5t31 -116.5h-209v-114h229q12 -31 19.5 -63.5t7.5 -73.5l-4 -336l-180 20q-41 0 -66.5 -22.5 t-25.5 -55.5v-73zM236 111q0 6 25.5 11t62.5 5q35 0 60.5 -5t25.5 -13v2q0 -8 -26 -13.5t-62 -5.5q-35 0 -60.5 5t-25.5 14z" />
<glyph unicode="&#xa5;" horiz-adv-x="1169" d="M16 1362h74l279 -498h-252v-100h309l84 -150v-61h-393v-100h393v-400h-80v-53h311v53h-82v400h392v100h-392v61l84 150h308v100h-250l278 498h74v53h-283v-53h58q-57 -102 -95 -171t-65 -118t-45 -83t-36.5 -68.5t-41 -74.5t-53.5 -99q-84 152 -166 305t-168 309h57v53 h-299v-53z" />
<glyph unicode="&#xa6;" horiz-adv-x="712" d="M287 -205h137v639h-137v-639zM287 836h137v641h-137v-641z" />
<glyph unicode="&#xa7;" horiz-adv-x="1052" d="M123 578q0 -104 58.5 -175t197.5 -129l196 -81q188 -78 189 -209q0 -47 -23.5 -81t-61.5 -55.5t-86 -32t-97 -10.5q-84 0 -161 32t-112 102h-80l13 -74q31 -86 127 -131t221 -45q84 0 156.5 21.5t127 63.5t86 100t31.5 132q0 150 -160 246q98 74 140.5 147.5t42.5 149.5 q0 104 -58.5 174t-197.5 129l-195 82q-94 41 -141 91t-47 118q0 47 21.5 80.5t56 55t78.5 32t92 10.5q74 0 143.5 -32t105.5 -101h95l-27 74q-31 86 -120 131t-212 45q-80 0 -147.5 -21.5t-118.5 -63.5t-80 -100.5t-29 -132.5q0 -150 160 -246q-98 -74 -141 -147.5 t-43 -148.5zM256 604q0 59 40 123t103 100l246 -108q88 -39 119 -83t31 -112q0 -59 -40 -123.5t-104 -99.5l-243 109q-88 39 -120 83t-32 111z" />
<glyph unicode="&#xa8;" horiz-adv-x="561" d="M-12 1288q0 -49 35 -84q35 -33 79 -33q45 0 80 33q35 35 35 84t-35 84q-35 33 -80 33t-79 -33q-35 -35 -35 -84zM340 1288q0 -49 35 -84q35 -33 80 -33t80 33q35 35 34 84q0 49 -34 84q-35 33 -80 33t-80 -33q-35 -35 -35 -84z" />
<glyph unicode="&#xa9;" horiz-adv-x="1617" d="M59 721q0 -154 59.5 -290t161 -237.5t237.5 -160t290 -58.5t290 59.5t237.5 161t160.5 237.5t59 290t-59 289t-160.5 236.5t-237.5 160.5t-290 59t-290 -59t-237.5 -160.5t-161 -238t-59.5 -289.5zM188 721q0 131 48.5 247.5t132.5 202.5t196.5 136.5t241.5 50.5 t241.5 -50.5t196.5 -136.5t132 -202.5t48 -247.5q0 -133 -48 -249t-132 -202t-196.5 -136t-241.5 -50t-241.5 50t-196.5 136t-132.5 202t-48.5 249zM395 723q0 -100 31 -181t87 -138.5t135 -88t175 -30.5q45 0 94.5 14t91.5 32.5t55 26.5l42 21l-37 63l-23 -12 q-24 -12 -60 -27.5t-79 -28t-82 -12.5q-76 0 -137 26t-105 74t-69 114.5t-25 146.5t25 146.5t69 114.5t105.5 73.5t136.5 25.5q72 0 133.5 -28.5t96.5 -79.5l39 -2v162h-33v-48q-45 39 -107.5 56.5t-132.5 17.5q-96 0 -175 -31.5t-134 -90t-86 -138.5t-31 -178z" />
<glyph unicode="&#xaa;" horiz-adv-x="681" d="M53 993q0 -82 60.5 -139t160.5 -57q57 0 117 23.5t109 80.5v-90h176v31l-88 2l-4 57v367q0 211 -246 211q-55 0 -106.5 -10.5t-76 -19.5t-28.5 -11l14 -54q4 0 31 6.5t73 13.5t85 7q78 0 120 -34t42 -109v-86q-33 12 -67 17t-58 5q-147 0 -230.5 -56t-83.5 -155zM150 991 q0 66 58 105t171 41q37 0 66.5 -9.5t46.5 -23.5v-72q-16 -74 -68.5 -121t-132.5 -47q-70 0 -105.5 37t-35.5 90z" />
<glyph unicode="&#xab;" horiz-adv-x="1062" d="M129 520l293 -442l135 2l-285 446l285 447l-135 2l-293 -443v-12zM520 520l293 -442l135 2l-284 446l284 447l-135 2l-293 -443v-12z" />
<glyph unicode="&#xac;" horiz-adv-x="1286" d="M115 739h925v-448h134v581h-523l43 89l-16 8l-10 -21l-185 86q-39 29 -53 64t2 67q27 55 105 19l198 -92l-10 -25l14 -8l39 86l-14 6l-10 -21l-185 87q-39 31 -53 65.5t2 67.5q27 55 105 18l198 -94l-12 -25l16 -6l39 84l-14 8l-10 -20l-201 94q-53 25 -93 15.5 t-61 -54.5q-16 -33 -11 -66.5t24 -62.5q-33 8 -57.5 -6t-39.5 -45q-33 -63 9 -125l-48 22l-32 -65l16 -8l5 12q5 12 7 16l291 -135l-12 -28l14 -7h-536v-133zM438 1556q63 -31 111 -90l12 9l10 10l-17 29q-17 30 -40 49q-16 14 -36 24l-21 10zM598 1593l14 -6l9 19l63 -195 l16 -8l236 80l29 59l-15 8l-10 -22l-229 -76l-68 205l8 16l-14 6z" />
<glyph unicode="&#xad;" horiz-adv-x="694" d="M76 553h540v135h-540v-135z" />
<glyph unicode="&#xae;" horiz-adv-x="1617" d="M59 721q0 -154 59.5 -290t161 -237.5t237.5 -160t290 -58.5t290 59.5t237.5 161t160.5 237.5t59 290t-59 289t-160.5 236.5t-237.5 160.5t-290 59t-290 -59t-237.5 -160.5t-161 -238t-59.5 -289.5zM188 721q0 131 48.5 247.5t132.5 202.5t196.5 136.5t241.5 50.5 t241.5 -50.5t196.5 -136.5t132 -202.5t48 -247.5q0 -139 -52 -259t-144 -208q-12 20 -30.5 50t-40 64.5t-44 69.5t-43.5 64q-25 33 -52.5 71.5t-52 72.5t-40 56.5t-13.5 26.5q121 23 176.5 95.5t55.5 166.5q0 123 -81 190.5t-224 67.5h-375v-39h76v-948h-76v-39h242v39h-58 v895h168q217 0 217 -168q0 -90 -64.5 -138t-174.5 -48h-115v-90h121l17 -23q16 -24 41.5 -62t59 -89.5t68.5 -106.5l131 -209h76q-80 -66 -178 -102.5t-209 -36.5q-129 0 -241.5 50t-196.5 136t-132.5 202t-48.5 249z" />
<glyph unicode="&#xaf;" horiz-adv-x="563" d="M0 1235h563v98h-563v-98z" />
<glyph unicode="&#xb0;" horiz-adv-x="815" d="M98 1130q0 -63 24.5 -119.5t66.5 -98.5t98.5 -66.5t122.5 -24.5q63 0 119.5 24.5t98.5 66.5t66.5 98.5t24.5 122.5q0 63 -24.5 119.5t-66.5 98.5t-99.5 66.5t-120.5 24.5t-120 -24.5t-99 -66.5t-66.5 -99.5t-24.5 -121.5zM201 1133q0 43 16 80.5t44 65.5t66 44t81 16 t80.5 -16t65.5 -44t44 -67t16 -82t-16 -80.5t-44 -65.5t-65.5 -44t-80.5 -16t-81 16t-66 44t-44 67t-16 82z" />
<glyph unicode="&#xb1;" horiz-adv-x="1286" d="M115 0h1059v135h-1059v-135zM115 641h463v-401h135v401h461v135h-461v402h-135v-402h-463v-135z" />
<glyph unicode="&#xb2;" horiz-adv-x="708" d="M63 616h553l2 152h-32l-2 -80h-414q43 66 103.5 129.5t152.5 130.5q31 20 61.5 51t57 67t43 76t16.5 81q0 98 -72.5 154.5t-191.5 56.5q-47 0 -90 -11.5t-77 -32t-55.5 -46t-25.5 -52.5v-12l45 -41q8 49 63.5 86t141.5 37q70 0 116 -41t46 -102t-43 -118t-94 -95 q-113 -86 -185.5 -173.5t-118.5 -164.5v-52z" />
<glyph unicode="&#xb3;" horiz-adv-x="708" d="M51 737q12 -55 82 -93t170 -38q141 0 229.5 65t88.5 171q0 86 -49.5 137t-141.5 61q76 20 123 70.5t47 118.5q0 94 -72.5 149.5t-197.5 55.5q-92 0 -156.5 -33t-79.5 -88l43 -43q14 39 65.5 65.5t123.5 26.5q82 0 133 -38t51 -97q0 -78 -65.5 -119t-176.5 -37l-43 2v-72 h72q111 0 170 -38.5t59 -116.5q0 -76 -60 -122t-161 -46q-82 0 -140.5 31.5t-70.5 76.5z" />
<glyph unicode="&#xb4;" horiz-adv-x="561" d="M137 1137l101 -2l262 303l-172 2z" />
<glyph unicode="&#xb5;" horiz-adv-x="1142" d="M43 1038h127v-1468h135v477q31 -31 83 -49t122 -18q111 0 196 49t138 135v-164h233v51h-102v1039h-268v-52h131v-632q-31 -137 -118 -221.5t-204 -84.5q-100 0 -154.5 72t-54.5 201v717h-264v-52z" />
<glyph unicode="&#xb6;" horiz-adv-x="1230" d="M78 1018q0 -86 30.5 -160t86 -127t134.5 -84t175 -33v-925h139v1597h262v-1597h139v1661h74v65h-583q-104 0 -188.5 -27.5t-144 -80t-92 -125t-32.5 -164.5z" />
<glyph unicode="&#xb8;" horiz-adv-x="559" d="M96 -377q20 -10 57 -19.5t83 -9.5q119 0 183 41t64 127q0 59 -42 100.5t-103 41.5l-39 -6l35 114h-66l-55 -188l49 4q41 4 67.5 -18.5t26.5 -57.5q0 -41 -34.5 -63.5t-92.5 -22.5q-45 0 -79.5 14.5t-43.5 18.5z" />
<glyph unicode="&#xb9;" horiz-adv-x="708" d="M166 1335l29 -61l137 63v-692h-51v-29h196v29h-51v778h-49z" />
<glyph unicode="&#xba;" horiz-adv-x="745" d="M47 1137q0 -74 24.5 -137.5t67.5 -108.5t103.5 -70.5t134.5 -25.5t134 25.5t103 70.5t68 108.5t25 137.5t-25 137t-68 108t-103 71t-134 26t-134.5 -26t-103.5 -71t-67.5 -108.5t-24.5 -136.5zM145 1137q0 119 63.5 193.5t168.5 74.5q104 0 167.5 -74.5t63.5 -193.5 q0 -117 -63.5 -193t-167.5 -76q-51 0 -94 20.5t-74 55.5t-47.5 84t-16.5 109z" />
<glyph unicode="&#xbb;" horiz-adv-x="1062" d="M121 80l133 -2l293 442v12l-293 443l-133 -2l282 -447zM512 80l133 -2l293 442v12l-293 443l-133 -2l283 -447z" />
<glyph unicode="&#xbc;" horiz-adv-x="1761" d="M158 1335l28 -61l138 63v-692h-52v-29h197v29h-51v778h-49zM281 -27h106l922 1469h-107zM903 276l19 -73h389v-174h-41v-29h164v29h-35v174h139v69h-139v539h-101zM993 272l318 443v-443h-318z" />
<glyph unicode="&#xbd;" horiz-adv-x="1761" d="M145 1335l29 -61l137 63v-692h-51v-29h197v29h-51v778h-50zM250 -27h106l922 1469h-107zM1020 0h553l2 152h-33l-2 -80h-414q43 66 103.5 129t152.5 131q31 20 62 51t57.5 66.5t43 75.5t16.5 81q0 98 -73 154.5t-192 56.5q-47 0 -90 -11t-76.5 -31.5t-55 -46.5t-25.5 -52 v-12l45 -41q8 49 63 85.5t141 36.5q70 0 116 -40.5t46 -102.5q0 -61 -43 -117.5t-94 -95.5q-113 -86 -185.5 -173t-117.5 -165v-51z" />
<glyph unicode="&#xbe;" horiz-adv-x="1761" d="M115 737q12 -55 81.5 -93t170.5 -38q141 0 229 65t88 171q0 86 -49 137t-141 61q76 20 123 70.5t47 118.5q0 94 -73 149.5t-198 55.5q-92 0 -156.5 -33t-78.5 -88l43 -43q14 39 65 65.5t123 26.5q82 0 133 -38t51 -97q0 -78 -65.5 -119t-175.5 -37l-43 2v-72h71 q111 0 170.5 -38.5t59.5 -116.5q0 -76 -60.5 -122t-160.5 -46q-82 0 -140.5 31.5t-70.5 76.5zM428 -27h107l921 1469h-106zM1004 276l18 -73h389v-174h-41v-29h164v29h-35v174h139v69h-139v539h-100zM1094 272l317 443v-443h-317z" />
<glyph unicode="&#xbf;" horiz-adv-x="989" d="M119 -49q0 -78 24.5 -145.5t74.5 -119t126 -81t176 -29.5q61 0 123 21.5t110 46t63 35.5l44 32l-61 88l-32 -15t-75 -32.5t-89 -33t-75 -15.5q-125 0 -194.5 67.5t-69.5 178.5q0 117 57.5 182.5t139.5 108.5q84 45 115.5 100t33.5 117l-14 196h-109l-10 -209 q-2 -25 -8 -37t-19.5 -24t-34 -27.5t-50.5 -42.5q-49 -16 -94.5 -49t-79 -80t-53 -106.5t-19.5 -126.5zM457 823h170v193h-170v-193z" />
<glyph unicode="&#xc0;" horiz-adv-x="1380" d="M4 0h295v53h-76l146 385h643l145 -385h-74v-53h297v53h-69l-500 1313h72v49h-367v-49h72l-512 -1313h-72v-53zM416 563l278 740l273 -740h-551zM469 1810l262 -303l100 2l-190 303z" />
<glyph unicode="&#xc1;" horiz-adv-x="1380" d="M4 0h295v53h-76l146 385h643l145 -385h-74v-53h297v53h-69l-500 1313h72v49h-367v-49h72l-512 -1313h-72v-53zM416 563l278 740l273 -740h-551zM547 1509l100 -2l262 303l-172 2z" />
<glyph unicode="&#xc2;" horiz-adv-x="1380" d="M4 0h295v53h-76l146 385h643l145 -385h-74v-53h297v53h-69l-500 1313h72v49h-367v-49h72l-512 -1313h-72v-53zM403 1509h99l188 203l191 -203h98l-201 299h-176zM416 563l278 740l273 -740h-551z" />
<glyph unicode="&#xc3;" horiz-adv-x="1380" d="M4 0h295v53h-76l146 385h643l145 -385h-74v-53h297v53h-69l-500 1313h72v49h-367v-49h72l-512 -1313h-72v-53zM389 1556l78 -2q16 51 35.5 68.5t54.5 17.5q51 0 129 -38.5t141 -38.5q66 0 111 53t63 145l-77 2q-16 -51 -37 -68.5t-53 -17.5q-51 0 -132 39q-78 39 -139 39 q-68 0 -112.5 -53t-61.5 -146zM416 563l278 740l273 -740h-551z" />
<glyph unicode="&#xc4;" horiz-adv-x="1380" d="M4 0h295v53h-76l146 385h643l145 -385h-74v-53h297v53h-69l-500 1313h72v49h-367v-49h72l-512 -1313h-72v-53zM399 1661q0 -49 35 -84q35 -33 80 -33t80 33q35 35 35 84t-35 84q-35 33 -80 33t-80 -33q-35 -35 -35 -84zM416 563l278 740l273 -740h-551zM752 1661 q0 -49 34 -84q35 -33 80 -33t80 33q35 35 35 84t-35 84q-35 33 -80 33t-80 -33q-35 -35 -34 -84z" />
<glyph unicode="&#xc5;" horiz-adv-x="1380" d="M4 0h295v53h-76l146 385h643l145 -385h-74v-53h297v53h-69l-500 1313h72v49h-367v-49h72l-512 -1313h-72v-53zM416 563l278 740l273 -740h-551zM498 1681q0 -41 15 -75.5t41 -61t61.5 -42t76.5 -15.5q39 0 75 15.5t62.5 42t42 61t15.5 75.5q0 39 -15.5 75t-42 62.5 t-62.5 42t-75 15.5q-41 0 -76.5 -15.5t-61.5 -42t-41 -62.5t-15 -75zM569 1681q0 51 36 87t87 36t87 -36t36 -87t-36 -86.5t-87 -35.5t-87 35.5t-36 86.5z" />
<glyph unicode="&#xc6;" horiz-adv-x="1871" d="M-53 0h301v53h-80l256 445h514v-445h-96v-53h913v233h-53v-106h-615l-2 539h537v127h-537l-2 495h605v-102h53v229h-1055v-53l94 2l-768 -1305l-65 -6v-53zM494 625l401 669h39l2 -669h-442z" />
<glyph unicode="&#xc7;" horiz-adv-x="1437" d="M113 709q0 -154 44 -281t124.5 -221t196.5 -152.5t259 -72.5l-47 -158l49 4q41 4 68 -18.5t27 -57.5q0 -41 -35 -63.5t-92 -22.5q-45 0 -80 14.5t-43 18.5l-11 -76q20 -10 57.5 -19.5t82.5 -9.5q119 0 183.5 41t64.5 127q0 59 -42 100.5t-104 41.5l-39 -6l25 79h26 q74 0 157 25t151.5 55.5t91.5 42.5l69 37l-61 105l-40 -20q-40 -21 -99.5 -46.5t-131 -46t-135.5 -20.5q-127 0 -230 43t-177 121.5t-114 189t-40 246.5q0 135 40 245.5t114 189.5t177 122t230 43q117 0 221.5 -47.5t161.5 -133.5l64 -2v269h-53v-78q-76 63 -180.5 93 t-221.5 30q-160 0 -290 -53.5t-223 -149.5t-144 -231.5t-51 -296.5z" />
<glyph unicode="&#xc8;" horiz-adv-x="1130" d="M80 0h944v233h-53v-106h-625v539h545v127h-545v495h612v-102h54v229h-932v-53h117v-1309h-117v-53zM342 1810l262 -303l101 2l-191 303z" />
<glyph unicode="&#xc9;" horiz-adv-x="1130" d="M80 0h944v233h-53v-106h-625v539h545v127h-545v495h612v-102h54v229h-932v-53h117v-1309h-117v-53zM420 1509l100 -2l262 303l-172 2z" />
<glyph unicode="&#xca;" horiz-adv-x="1130" d="M80 0h944v233h-53v-106h-625v539h545v127h-545v495h612v-102h54v229h-932v-53h117v-1309h-117v-53zM276 1509h99l188 203l191 -203h98l-201 299h-176z" />
<glyph unicode="&#xcb;" horiz-adv-x="1130" d="M80 0h944v233h-53v-106h-625v539h545v127h-545v495h612v-102h54v229h-932v-53h117v-1309h-117v-53zM272 1661q0 -49 35 -84q35 -33 80 -33t80 33q35 35 35 84t-35 84q-35 33 -80 33t-80 -33q-35 -35 -35 -84zM625 1661q0 -49 34 -84q35 -33 80 -33t80 33q35 35 35 84 t-35 84q-35 33 -80 33t-80 -33q-35 -35 -34 -84z" />
<glyph unicode="&#xcc;" horiz-adv-x="524" d="M39 1810l262 -303l100 2l-190 303zM98 0h308v53h-70v1309h70v53h-308v-53h90v-1309h-90v-53z" />
<glyph unicode="&#xcd;" horiz-adv-x="524" d="M98 0h308v53h-70v1309h70v53h-308v-53h90v-1309h-90v-53zM117 1509l100 -2l262 303l-172 2z" />
<glyph unicode="&#xce;" horiz-adv-x="524" d="M-27 1509h99l188 203l191 -203h98l-201 299h-176zM98 0h308v53h-70v1309h70v53h-308v-53h90v-1309h-90v-53z" />
<glyph unicode="&#xcf;" horiz-adv-x="524" d="M-31 1661q0 -49 35 -84q35 -33 80 -33t80 33q35 35 35 84t-35 84q-35 33 -80 33t-80 -33q-35 -35 -35 -84zM98 0h308v53h-70v1309h70v53h-308v-53h90v-1309h-90v-53zM322 1661q0 -49 34 -84q35 -33 80 -33t80 33q35 35 35 84t-35 84q-35 33 -80 33t-80 -33 q-35 -35 -34 -84z" />
<glyph unicode="&#xd0;" horiz-adv-x="1419" d="M23 657h161v-604h-80v-53h412q199 0 346.5 49t243.5 141.5t144 223.5t48 293q0 334 -182 521t-543 187h-469v-49h64l16 2v-588h-161v-123zM334 127v530h411v123h-411v508h235q287 0 431.5 -147t144.5 -434q0 -291 -155.5 -435.5t-463.5 -144.5h-192z" />
<glyph unicode="&#xd1;" horiz-adv-x="1413" d="M80 0h321v53h-84v1184l742 -1243h178v1368h80v53h-301v-53h84v-1172q-180 315 -362.5 612.5t-370.5 612.5h-287v-53h100v-1309h-100v-53zM403 1556l78 -2q16 51 36 68.5t54 17.5q51 0 129 -38.5t142 -38.5q66 0 111 53t63 145l-78 2q-16 -51 -36.5 -68.5t-53.5 -17.5 q-51 0 -131 39q-78 39 -139 39q-68 0 -113 -53t-62 -146z" />
<glyph unicode="&#xd2;" horiz-adv-x="1548" d="M111 709q0 -164 48 -298.5t136 -230.5t211 -149.5t272 -53.5q150 0 274 53.5t212 149.5t136 230.5t48 298.5q0 162 -48 297t-136 231t-212 149.5t-274 53.5t-272.5 -53.5t-210.5 -149.5t-136 -231.5t-48 -296.5zM266 709q0 131 37 241.5t104.5 190.5t162 124t208.5 44 q115 0 209 -44t162 -124t105.5 -190.5t37.5 -241.5q0 -133 -37.5 -243t-105.5 -189.5t-162 -123.5t-209 -44t-209 44t-161.5 123.5t-104.5 189t-37 243.5zM551 1810l262 -303l100 2l-190 303z" />
<glyph unicode="&#xd3;" horiz-adv-x="1548" d="M111 709q0 -164 48 -298.5t136 -230.5t211 -149.5t272 -53.5q150 0 274 53.5t212 149.5t136 230.5t48 298.5q0 162 -48 297t-136 231t-212 149.5t-274 53.5t-272.5 -53.5t-210.5 -149.5t-136 -231.5t-48 -296.5zM266 709q0 131 37 241.5t104.5 190.5t162 124t208.5 44 q115 0 209 -44t162 -124t105.5 -190.5t37.5 -241.5q0 -133 -37.5 -243t-105.5 -189.5t-162 -123.5t-209 -44t-209 44t-161.5 123.5t-104.5 189t-37 243.5zM629 1509l100 -2l262 303l-172 2z" />
<glyph unicode="&#xd4;" horiz-adv-x="1548" d="M111 709q0 -164 48 -298.5t136 -230.5t211 -149.5t272 -53.5q150 0 274 53.5t212 149.5t136 230.5t48 298.5q0 162 -48 297t-136 231t-212 149.5t-274 53.5t-272.5 -53.5t-210.5 -149.5t-136 -231.5t-48 -296.5zM266 709q0 131 37 241.5t104.5 190.5t162 124t208.5 44 q115 0 209 -44t162 -124t105.5 -190.5t37.5 -241.5q0 -133 -37.5 -243t-105.5 -189.5t-162 -123.5t-209 -44t-209 44t-161.5 123.5t-104.5 189t-37 243.5zM485 1509h99l188 203l191 -203h98l-201 299h-176z" />
<glyph unicode="&#xd5;" horiz-adv-x="1548" d="M111 709q0 -164 48 -298.5t136 -230.5t211 -149.5t272 -53.5q150 0 274 53.5t212 149.5t136 230.5t48 298.5q0 162 -48 297t-136 231t-212 149.5t-274 53.5t-272.5 -53.5t-210.5 -149.5t-136 -231.5t-48 -296.5zM266 709q0 131 37 241.5t104.5 190.5t162 124t208.5 44 q115 0 209 -44t162 -124t105.5 -190.5t37.5 -241.5q0 -133 -37.5 -243t-105.5 -189.5t-162 -123.5t-209 -44t-209 44t-161.5 123.5t-104.5 189t-37 243.5zM471 1556l78 -2q16 51 35.5 68.5t54.5 17.5q51 0 129 -38.5t141 -38.5q66 0 111 53t63 145l-77 2q-16 -51 -37 -68.5 t-54 -17.5q-51 0 -131 39q-78 39 -139 39q-68 0 -113 -53t-61 -146z" />
<glyph unicode="&#xd6;" horiz-adv-x="1548" d="M111 709q0 -164 48 -298.5t136 -230.5t211 -149.5t272 -53.5q150 0 274 53.5t212 149.5t136 230.5t48 298.5q0 162 -48 297t-136 231t-212 149.5t-274 53.5t-272.5 -53.5t-210.5 -149.5t-136 -231.5t-48 -296.5zM266 709q0 131 37 241.5t104.5 190.5t162 124t208.5 44 q115 0 209 -44t162 -124t105.5 -190.5t37.5 -241.5q0 -133 -37.5 -243t-105.5 -189.5t-162 -123.5t-209 -44t-209 44t-161.5 123.5t-104.5 189t-37 243.5zM481 1661q0 -49 35 -84q35 -33 80 -33t80 33q35 35 35 84t-35 84q-35 33 -80 33t-80 -33q-35 -35 -35 -84zM834 1661 q0 -49 34 -84q35 -33 80 -33t80 33q35 35 35 84t-35 84q-35 33 -80 33t-80 -33q-35 -35 -34 -84z" />
<glyph unicode="&#xd7;" horiz-adv-x="1288" d="M162 193l96 -97l387 387l387 -387l96 97l-387 387l387 387l-96 96l-387 -387l-387 387l-96 -96l387 -387z" />
<glyph unicode="&#xd8;" horiz-adv-x="1548" d="M111 709q0 -309 163 -504l-149 -172l74 -68l145 168q164 -156 434 -156q150 0 274 53.5t212 149.5t136 230.5t48 298.5q0 311 -166 505l152 175l-74 67l-148 -170q-164 154 -434 154q-150 0 -272.5 -53.5t-210.5 -149.5t-136 -231.5t-48 -296.5zM266 709q0 131 37 241.5 t104.5 190.5t162 124t208.5 44q209 0 338 -133l-741 -857q-109 152 -109 390zM440 242l742 856q110 -151 110 -389q0 -133 -37.5 -243t-105.5 -189.5t-162 -123.5t-209 -44q-205 0 -338 133z" />
<glyph unicode="&#xd9;" horiz-adv-x="1366" d="M102 1362h74v-899q0 -229 135 -357.5t371 -128.5q240 0 372 128t132 358v899h76v53h-295v-53h71v-897q0 -172 -92 -265.5t-264 -93.5q-168 0 -262 93.5t-94 265.5v897h71v53h-295v-53zM461 1810l262 -303l100 2l-190 303z" />
<glyph unicode="&#xda;" horiz-adv-x="1366" d="M102 1362h74v-899q0 -229 135 -357.5t371 -128.5q240 0 372 128t132 358v899h76v53h-295v-53h71v-897q0 -172 -92 -265.5t-264 -93.5q-168 0 -262 93.5t-94 265.5v897h71v53h-295v-53zM539 1509l100 -2l262 303l-172 2z" />
<glyph unicode="&#xdb;" horiz-adv-x="1366" d="M102 1362h74v-899q0 -229 135 -357.5t371 -128.5q240 0 372 128t132 358v899h76v53h-295v-53h71v-897q0 -172 -92 -265.5t-264 -93.5q-168 0 -262 93.5t-94 265.5v897h71v53h-295v-53zM395 1509h99l188 203l190 -203h99l-201 299h-176z" />
<glyph unicode="&#xdc;" horiz-adv-x="1366" d="M102 1362h74v-899q0 -229 135 -357.5t371 -128.5q240 0 372 128t132 358v899h76v53h-295v-53h71v-897q0 -172 -92 -265.5t-264 -93.5q-168 0 -262 93.5t-94 265.5v897h71v53h-295v-53zM391 1661q0 -49 35 -84q35 -33 80 -33t80 33q35 35 35 84t-35 84q-35 33 -80 33 t-80 -33q-35 -35 -35 -84zM743 1661q0 -49 35 -84q35 -33 80 -33t80 33q35 35 35 84t-35 84q-35 33 -80 33t-80 -33q-35 -35 -35 -84z" />
<glyph unicode="&#xdd;" horiz-adv-x="1267" d="M0 1362h74l487 -746v-563h-80v-53h312v53h-82v563l479 746h74v53h-303v-53h75l-397 -619l-393 619h76v53h-322v-53zM492 1509l100 -2l262 303l-172 2z" />
<glyph unicode="&#xde;" horiz-adv-x="1085" d="M117 0h303v53h-78v271h236q104 0 189 28.5t144.5 81.5t92 129t32.5 170q0 197 -119.5 304.5t-334.5 107.5h-240v217h78v53h-303v-53h76v-1309h-76v-53zM342 451v567h236q150 0 228.5 -70t78.5 -211q0 -147 -89 -214.5t-268 -69.5z" />
<glyph unicode="&#xdf;" horiz-adv-x="1208" d="M70 0h338v51h-86v973q0 102 21.5 171t59 111t89 59t112.5 17q49 0 96.5 -16t84 -48t58 -80t21.5 -110q0 -123 -74.5 -196.5t-197.5 -73.5h-27v-115h23q184 0 277 -80.5t93 -234.5q0 -68 -18 -127t-54 -103t-89.5 -70t-120.5 -26q-31 0 -66 5.5t-56.5 10.5t-23.5 5 l-4 -123q4 0 25.5 -3t59.5 -7t71 -4q102 0 181 34.5t133.5 94t83 141.5t28.5 176q0 160 -89 260.5t-249 122.5q66 18 111 51t73.5 76t42 93t13.5 102q0 166 -107.5 264t-294.5 98q-94 0 -172 -26.5t-134 -83t-87 -141.5t-31 -201v-996l-18 2l-96 -2v-51z" />
<glyph unicode="&#xe0;" horiz-adv-x="1046" d="M90 303q0 -68 22.5 -127t65.5 -103t104.5 -70t137.5 -26q86 0 174 39t162 134v-150h262v51l-131 2l-6 97v612q0 174 -93.5 263t-273.5 89q-66 0 -125 -11t-103 -23.5t-71 -23.5l-27 -12l31 -94l27 8q28 9 69 18t91.5 17t95.5 8q117 0 179 -57t62 -182v-144 q-49 20 -99 28.5t-87 8.5q-221 0 -344 -96t-123 -256zM233 301q0 111 87.5 175.5t254.5 66.5q53 0 98.5 -15.5t69.5 -40.5v-118q-25 -123 -103.5 -201t-197.5 -78q-104 0 -156.5 59.5t-52.5 151.5zM305 1438l262 -303l101 2l-191 303z" />
<glyph unicode="&#xe1;" horiz-adv-x="1046" d="M90 303q0 -68 22.5 -127t65.5 -103t104.5 -70t137.5 -26q86 0 174 39t162 134v-150h262v51l-131 2l-6 97v612q0 174 -93.5 263t-273.5 89q-66 0 -125 -11t-103 -23.5t-71 -23.5l-27 -12l31 -94l27 8q28 9 69 18t91.5 17t95.5 8q117 0 179 -57t62 -182v-144 q-49 20 -99 28.5t-87 8.5q-221 0 -344 -96t-123 -256zM233 301q0 111 87.5 175.5t254.5 66.5q53 0 98.5 -15.5t69.5 -40.5v-118q-25 -123 -103.5 -201t-197.5 -78q-104 0 -156.5 59.5t-52.5 151.5zM383 1137l100 -2l262 303l-172 2z" />
<glyph unicode="&#xe2;" horiz-adv-x="1046" d="M90 303q0 -68 22.5 -127t65.5 -103t104.5 -70t137.5 -26q86 0 174 39t162 134v-150h262v51l-131 2l-6 97v612q0 174 -93.5 263t-273.5 89q-66 0 -125 -11t-103 -23.5t-71 -23.5l-27 -12l31 -94l27 8q28 9 69 18t91.5 17t95.5 8q117 0 179 -57t62 -182v-144 q-49 20 -99 28.5t-87 8.5q-221 0 -344 -96t-123 -256zM233 301q0 111 87.5 175.5t254.5 66.5q53 0 98.5 -15.5t69.5 -40.5v-118q-25 -123 -103.5 -201t-197.5 -78q-104 0 -156.5 59.5t-52.5 151.5zM240 1137h98l188 202l191 -202h98l-201 299h-176z" />
<glyph unicode="&#xe3;" horiz-adv-x="1046" d="M90 303q0 -68 22.5 -127t65.5 -103t104.5 -70t137.5 -26q86 0 174 39t162 134v-150h262v51l-131 2l-6 97v612q0 174 -93.5 263t-273.5 89q-66 0 -125 -11t-103 -23.5t-71 -23.5l-27 -12l31 -94l27 8q28 9 69 18t91.5 17t95.5 8q117 0 179 -57t62 -182v-144 q-49 20 -99 28.5t-87 8.5q-221 0 -344 -96t-123 -256zM225 1184l78 -2q16 51 35.5 68.5t54.5 17.5q51 0 129 -39t142 -39q66 0 111 53.5t63 145.5l-78 2q-16 -51 -37 -68.5t-53 -17.5q-51 0 -131 38q-78 39 -140 39q-68 0 -112.5 -53t-61.5 -145zM233 301q0 111 87.5 175.5 t254.5 66.5q53 0 98.5 -15.5t69.5 -40.5v-118q-25 -123 -103.5 -201t-197.5 -78q-104 0 -156.5 59.5t-52.5 151.5z" />
<glyph unicode="&#xe4;" horiz-adv-x="1046" d="M90 303q0 -68 22.5 -127t65.5 -103t104.5 -70t137.5 -26q86 0 174 39t162 134v-150h262v51l-131 2l-6 97v612q0 174 -93.5 263t-273.5 89q-66 0 -125 -11t-103 -23.5t-71 -23.5l-27 -12l31 -94l27 8q28 9 69 18t91.5 17t95.5 8q117 0 179 -57t62 -182v-144 q-49 20 -99 28.5t-87 8.5q-221 0 -344 -96t-123 -256zM233 301q0 111 87.5 175.5t254.5 66.5q53 0 98.5 -15.5t69.5 -40.5v-118q-25 -123 -103.5 -201t-197.5 -78q-104 0 -156.5 59.5t-52.5 151.5zM236 1288q0 -49 34 -84q35 -33 80 -33t80 33q35 35 35 84t-35 84 q-35 33 -80 33t-80 -33q-35 -35 -34 -84zM588 1288q0 -49 35 -84q35 -33 79 -33q45 0 80 33q35 35 35 84t-35 84q-35 33 -80 33t-79 -33q-35 -35 -35 -84z" />
<glyph unicode="&#xe5;" horiz-adv-x="1046" d="M90 303q0 -68 22.5 -127t65.5 -103t104.5 -70t137.5 -26q86 0 174 39t162 134v-150h262v51l-131 2l-6 97v612q0 160 -80 249t-234 101q66 14 111 67.5t45 123.5q0 39 -15.5 74.5t-42 62t-62.5 42t-75 15.5q-41 0 -76.5 -15.5t-61 -42t-41 -62.5t-15.5 -74 q0 -68 42 -120.5t107 -68.5q-78 -4 -148.5 -21.5t-106 -31.5t-40.5 -17l31 -94l27 8q28 9 69 18t91.5 17t95.5 8q117 0 179 -57t62 -182v-144q-49 20 -99 28.5t-87 8.5q-221 0 -344 -96t-123 -256zM233 301q0 111 87.5 175.5t254.5 66.5q53 0 98.5 -15.5t69.5 -40.5v-118 q-25 -123 -103.5 -201t-197.5 -78q-104 0 -156.5 59.5t-52.5 151.5zM406 1303q0 51 35.5 86.5t86.5 35.5t87 -35.5t36 -86.5t-35.5 -87t-87.5 -36q-51 0 -86.5 35.5t-35.5 87.5z" />
<glyph unicode="&#xe6;" horiz-adv-x="1751" d="M96 303q0 -68 23.5 -127t67.5 -103t105.5 -70t139.5 -26q141 0 242.5 60.5t159.5 155.5q68 -117 171 -168.5t214 -51.5q61 0 129.5 18.5t127 42t97.5 42.5l39 18l-51 103l-30 -17q-30 -16 -76 -36.5t-100.5 -37t-103.5 -16.5q-168 0 -266 125q-86 111 -96 295h764l4 29 q-2 129 -33 235.5t-87 181t-137 116.5t-181 42q-111 0 -200 -46t-159 -144q-35 88 -115.5 139t-222.5 51q-66 0 -128 -15.5t-111.5 -33.5t-78.5 -33l-30 -16l51 -86l28 11t71 24.5t93 24.5t95 11q117 0 181.5 -57t64.5 -182v-144q-51 20 -101.5 28.5t-89.5 8.5 q-221 0 -346 -96t-125 -256zM240 301q0 111 87 175.5t259 66.5q55 0 101 -15.5t71 -40.5v-118q-25 -123 -105 -201t-198 -78q-106 0 -160.5 59.5t-54.5 151.5zM891 621q14 156 84 251q88 125 239 125q129 0 207 -101t86 -275h-616z" />
<glyph unicode="&#xe7;" horiz-adv-x="974" d="M82 545q0 -115 29.5 -213.5t85 -172t134.5 -119.5t175 -60l-45 -156l49 4q41 4 67.5 -18.5t26.5 -57.5q0 -41 -34.5 -63.5t-92.5 -22.5q-45 0 -80 14.5t-43 18.5l-10 -76q20 -10 57 -19.5t82 -9.5q119 0 183.5 41t64.5 127q0 59 -42 100.5t-103 41.5l-39 -6l22 75h15 q123 -2 205.5 48.5t125.5 130.5l-55 94q-12 -29 -37.5 -55.5t-60.5 -48t-78 -35t-88 -13.5q-84 0 -151.5 33t-114.5 93.5t-74 143t-27 183.5q0 100 27 183t75 141.5t115.5 90t151.5 31.5q82 0 153.5 -41t92.5 -104h59v289h-51v-105q-45 37 -114.5 59.5t-155.5 22.5 q-109 0 -200 -43t-157.5 -118.5t-104.5 -180t-38 -227.5z" />
<glyph unicode="&#xe8;" horiz-adv-x="1087" d="M82 543q0 -131 34 -236.5t98.5 -179.5t156.5 -114t209 -40q61 0 128.5 18.5t124 42t94.5 42.5l38 18l-52 103l-31 -17q-30 -16 -77 -36.5t-102.5 -37t-104.5 -16.5q-172 0 -272 125q-90 113 -99 295h781l2 29q-4 270 -125 422.5t-336 152.5q-102 0 -187.5 -43 t-147.5 -118.5t-97 -181t-35 -228.5zM229 621q14 154 88 251q92 125 244 125q129 0 210 -101t91 -275h-633zM324 1438l262 -303l100 2l-190 303z" />
<glyph unicode="&#xe9;" horiz-adv-x="1087" d="M82 543q0 -131 34 -236.5t98.5 -179.5t156.5 -114t209 -40q61 0 128.5 18.5t124 42t94.5 42.5l38 18l-52 103l-31 -17q-30 -16 -77 -36.5t-102.5 -37t-104.5 -16.5q-172 0 -272 125q-90 113 -99 295h781l2 29q-4 270 -125 422.5t-336 152.5q-102 0 -187.5 -43 t-147.5 -118.5t-97 -181t-35 -228.5zM229 621q14 154 88 251q92 125 244 125q129 0 210 -101t91 -275h-633zM401 1137l101 -2l262 303l-172 2z" />
<glyph unicode="&#xea;" horiz-adv-x="1087" d="M82 543q0 -131 34 -236.5t98.5 -179.5t156.5 -114t209 -40q61 0 128.5 18.5t124 42t94.5 42.5l38 18l-52 103l-31 -17q-30 -16 -77 -36.5t-102.5 -37t-104.5 -16.5q-172 0 -272 125q-90 113 -99 295h781l2 29q-4 270 -125 422.5t-336 152.5q-102 0 -187.5 -43 t-147.5 -118.5t-97 -181t-35 -228.5zM229 621q14 154 88 251q92 125 244 125q129 0 210 -101t91 -275h-633zM258 1137h98l189 202l190 -202h99l-201 299h-176z" />
<glyph unicode="&#xeb;" horiz-adv-x="1087" d="M82 543q0 -131 34 -236.5t98.5 -179.5t156.5 -114t209 -40q61 0 128.5 18.5t124 42t94.5 42.5l38 18l-52 103l-31 -17q-30 -16 -77 -36.5t-102.5 -37t-104.5 -16.5q-172 0 -272 125q-90 113 -99 295h781l2 29q-4 270 -125 422.5t-336 152.5q-102 0 -187.5 -43 t-147.5 -118.5t-97 -181t-35 -228.5zM229 621q14 154 88 251q92 125 244 125q129 0 210 -101t91 -275h-633zM254 1288q0 -49 35 -84q35 -33 80 -33t80 33q35 35 34 84q0 49 -34 84q-35 33 -80 33t-80 -33q-35 -35 -35 -84zM606 1288q0 -49 35 -84q35 -33 80 -33t80 33 q35 35 35 84t-35 84q-35 33 -80 33t-80 -33q-35 -35 -35 -84z" />
<glyph unicode="&#xec;" horiz-adv-x="499" d="M29 1438l262 -303l100 2l-190 303zM78 0h352v51h-108v1039h-205v-19v-29l69 -4v-987h-108v-51z" />
<glyph unicode="&#xed;" horiz-adv-x="499" d="M78 0h352v51h-108v1039h-205v-19v-29l69 -4v-987h-108v-51zM106 1137l101 -2l262 303l-172 2z" />
<glyph unicode="&#xee;" horiz-adv-x="499" d="M-37 1137h98l189 202l190 -202h99l-201 299h-176zM78 0h352v51h-108v1039h-205v-19v-29l69 -4v-987h-108v-51z" />
<glyph unicode="&#xef;" horiz-adv-x="499" d="M-41 1288q0 -49 35 -84q35 -33 80 -33t80 33q35 35 34 84q0 49 -34 84q-35 33 -80 33t-80 -33q-35 -35 -35 -84zM78 0h352v51h-108v1039h-205v-19v-29l69 -4v-987h-108v-51zM311 1288q0 -49 35 -84q35 -33 80 -33t80 33q35 35 35 84t-35 84q-35 33 -80 33t-80 -33 q-35 -35 -35 -84z" />
<glyph unicode="&#xf0;" horiz-adv-x="1157" d="M84 537q0 -123 37 -227.5t102.5 -179.5t156.5 -117t202 -42q117 0 209 45t155.5 129t96 204t32.5 272q0 319 -178 557q-43 57 -125 131l219 114l-76 78l-237 -123q-102 76 -299 121l-82 -84q88 -20 154.5 -43.5t113.5 -50.5l-248 -129l82 -78l269 141q31 -25 47 -41 q147 -141 168 -245q-133 145 -310 145q-109 0 -197.5 -43t-154 -120t-101.5 -183t-36 -231zM231 539q0 98 25 181t71 143.5t109.5 94t143.5 33.5q76 0 140 -33.5t110.5 -94t72 -141.5t25.5 -173q0 -96 -27 -179t-74 -144.5t-110.5 -96.5t-136.5 -35q-74 0 -138.5 34 t-110.5 93.5t-73 140t-27 177.5z" />
<glyph unicode="&#xf1;" horiz-adv-x="1140" d="M106 0h302v51h-91v627q33 147 117 232t201 85q94 0 148.5 -71.5t54.5 -194.5v-678h-84v-51h309v51h-88v680q0 180 -83 281.5t-233 101.5q-111 0 -199.5 -48t-148.5 -142v166h-205v-50h15q14 0 33.5 -1t25.5 -1v-987h-74v-51zM264 1184l78 -2q16 51 35.5 68.5t54.5 17.5 q51 0 129 -39t141 -39q66 0 111.5 53.5t63.5 145.5l-78 2q-16 -51 -37 -68.5t-53 -17.5q-51 0 -131 38q-78 39 -140 39q-68 0 -112.5 -53t-61.5 -145z" />
<glyph unicode="&#xf2;" horiz-adv-x="1153" d="M82 543q0 -123 37 -227.5t102.5 -180.5t155.5 -119t198 -43q109 0 199 43t155.5 119t101.5 180.5t36 227.5q0 125 -36 230.5t-101.5 181t-155.5 117.5t-199 42t-198.5 -42t-155 -117.5t-102.5 -181t-37 -230.5zM229 543q0 98 26 180t71 142.5t108.5 93t140.5 32.5 q76 0 139.5 -32.5t109.5 -93t71 -142.5t25 -180t-25 -180t-71 -141.5t-109.5 -92.5t-139.5 -33q-78 0 -141 33t-108 92.5t-71 141t-26 180.5zM352 1438l262 -303l101 2l-191 303z" />
<glyph unicode="&#xf3;" horiz-adv-x="1153" d="M82 543q0 -123 37 -227.5t102.5 -180.5t155.5 -119t198 -43q109 0 199 43t155.5 119t101.5 180.5t36 227.5q0 125 -36 230.5t-101.5 181t-155.5 117.5t-199 42t-198.5 -42t-155 -117.5t-102.5 -181t-37 -230.5zM229 543q0 98 26 180t71 142.5t108.5 93t140.5 32.5 q76 0 139.5 -32.5t109.5 -93t71 -142.5t25 -180t-25 -180t-71 -141.5t-109.5 -92.5t-139.5 -33q-78 0 -141 33t-108 92.5t-71 141t-26 180.5zM430 1137l100 -2l263 303l-172 2z" />
<glyph unicode="&#xf4;" horiz-adv-x="1153" d="M82 543q0 -123 37 -227.5t102.5 -180.5t155.5 -119t198 -43q109 0 199 43t155.5 119t101.5 180.5t36 227.5q0 125 -36 230.5t-101.5 181t-155.5 117.5t-199 42t-198.5 -42t-155 -117.5t-102.5 -181t-37 -230.5zM229 543q0 98 26 180t71 142.5t108.5 93t140.5 32.5 q76 0 139.5 -32.5t109.5 -93t71 -142.5t25 -180t-25 -180t-71 -141.5t-109.5 -92.5t-139.5 -33q-78 0 -141 33t-108 92.5t-71 141t-26 180.5zM287 1137h98l188 202l191 -202h98l-200 299h-177z" />
<glyph unicode="&#xf5;" horiz-adv-x="1153" d="M82 543q0 -123 37 -227.5t102.5 -180.5t155.5 -119t198 -43q109 0 199 43t155.5 119t101.5 180.5t36 227.5q0 125 -36 230.5t-101.5 181t-155.5 117.5t-199 42t-198.5 -42t-155 -117.5t-102.5 -181t-37 -230.5zM229 543q0 98 26 180t71 142.5t108.5 93t140.5 32.5 q76 0 139.5 -32.5t109.5 -93t71 -142.5t25 -180t-25 -180t-71 -141.5t-109.5 -92.5t-139.5 -33q-78 0 -141 33t-108 92.5t-71 141t-26 180.5zM272 1184l78 -2q16 51 36 68.5t54 17.5q51 0 129 -39t142 -39q66 0 111 53.5t63 145.5l-78 2q-16 -51 -36.5 -68.5t-53.5 -17.5 q-51 0 -131 38q-78 39 -140 39q-68 0 -112.5 -53t-61.5 -145z" />
<glyph unicode="&#xf6;" horiz-adv-x="1153" d="M82 543q0 -123 37 -227.5t102.5 -180.5t155.5 -119t198 -43q109 0 199 43t155.5 119t101.5 180.5t36 227.5q0 125 -36 230.5t-101.5 181t-155.5 117.5t-199 42t-198.5 -42t-155 -117.5t-102.5 -181t-37 -230.5zM229 543q0 98 26 180t71 142.5t108.5 93t140.5 32.5 q76 0 139.5 -32.5t109.5 -93t71 -142.5t25 -180t-25 -180t-71 -141.5t-109.5 -92.5t-139.5 -33q-78 0 -141 33t-108 92.5t-71 141t-26 180.5zM283 1288q0 -49 34 -84q35 -33 80 -33t80 33q35 35 35 84t-35 84q-35 33 -80 33t-80 -33q-35 -35 -34 -84zM635 1288q0 -49 35 -84 q35 -33 80 -33q44 0 79 33q35 35 35 84t-35 84q-35 33 -79 33q-45 0 -80 -33q-35 -35 -35 -84z" />
<glyph unicode="&#xf7;" horiz-adv-x="1288" d="M115 514h1059v131h-1059v-131zM559 70h168v186h-168v-186zM559 905h168v187h-168v-187z" />
<glyph unicode="&#xf8;" horiz-adv-x="1153" d="M70 -20l65 -56l131 162q119 -113 309 -113q109 0 199 43t155.5 119t101.5 180.5t36 227.5q0 238 -121 389l137 172l-65 57l-131 -164q-121 117 -312 117q-109 0 -198.5 -42t-155 -117.5t-102.5 -181t-37 -230.5q0 -238 125 -393zM229 543q0 98 26 180t71 142.5t108.5 93 t140.5 32.5q140 0 226 -100l-504 -627q-68 106 -68 279zM350 193l504 626q66 -108 66 -276q0 -98 -25 -180t-71 -141.5t-109.5 -92.5t-139.5 -33q-139 0 -225 97z" />
<glyph unicode="&#xf9;" horiz-adv-x="1142" d="M70 1038h106v-673q0 -186 80 -285.5t240 -99.5q111 0 199.5 49t144.5 135v-164h233v51h-102v1039h-248v-52h111v-632q-31 -137 -117 -221.5t-199 -84.5q-100 0 -152.5 72t-52.5 201v717h-243v-52zM348 1438l262 -303l101 2l-191 303z" />
<glyph unicode="&#xfa;" horiz-adv-x="1142" d="M70 1038h106v-673q0 -186 80 -285.5t240 -99.5q111 0 199.5 49t144.5 135v-164h233v51h-102v1039h-248v-52h111v-632q-31 -137 -117 -221.5t-199 -84.5q-100 0 -152.5 72t-52.5 201v717h-243v-52zM426 1137l100 -2l262 303l-172 2z" />
<glyph unicode="&#xfb;" horiz-adv-x="1142" d="M70 1038h106v-673q0 -186 80 -285.5t240 -99.5q111 0 199.5 49t144.5 135v-164h233v51h-102v1039h-248v-52h111v-632q-31 -137 -117 -221.5t-199 -84.5q-100 0 -152.5 72t-52.5 201v717h-243v-52zM283 1137h98l188 202l191 -202h98l-201 299h-176z" />
<glyph unicode="&#xfc;" horiz-adv-x="1142" d="M70 1038h106v-673q0 -186 80 -285.5t240 -99.5q111 0 199.5 49t144.5 135v-164h233v51h-102v1039h-248v-52h111v-632q-31 -137 -117 -221.5t-199 -84.5q-100 0 -152.5 72t-52.5 201v717h-243v-52zM279 1288q0 -49 34 -84q35 -33 80 -33t80 33q35 35 35 84t-35 84 q-35 33 -80 33t-80 -33q-35 -35 -34 -84zM631 1288q0 -49 35 -84q35 -33 79 -33q45 0 80 33q35 35 35 84t-35 84q-35 33 -80 33t-79 -33q-35 -35 -35 -84z" />
<glyph unicode="&#xfd;" horiz-adv-x="1005" d="M14 1038h68l356 -1015l-71 -228q-16 -55 -43 -88t-66 -31l-82 5l-53 6l-6 -117l200 -10q31 -2 55.5 12t45 38.5t35 56.5t26.5 65l449 1306h61v52h-264v-52h59l-278 -843l-281 843h60v52h-271v-52zM358 1137l101 -2l262 303l-172 2z" />
<glyph unicode="&#xfe;" horiz-adv-x="1191" d="M90 -381v-51h287v51h-76v549q61 -109 153.5 -152t188.5 -43q104 0 189.5 41t145.5 117t92 180.5t32 233.5t-32 234.5t-90 180t-143 114.5t-192 40q-92 0 -180 -45t-164 -164v570h-211v-19q0 -10 10.5 -16t32.5 -17h31v-1804h-74zM299 541v2q0 100 24.5 184t68.5 143.5 t104.5 92t132.5 32.5q76 0 137 -32.5t104 -92t65.5 -143.5t22.5 -184q0 -102 -22.5 -184.5t-65.5 -141.5t-104 -91t-137 -32q-74 0 -134.5 34t-103.5 93.5t-67.5 141t-24.5 178.5z" />
<glyph unicode="&#xff;" horiz-adv-x="1005" d="M14 1038h68l356 -1015l-71 -228q-16 -55 -43 -88t-66 -31l-82 5l-53 6l-6 -117l200 -10q31 -2 55.5 12t45 38.5t35 56.5t26.5 65l449 1306h61v52h-264v-52h59l-278 -843l-281 843h60v52h-271v-52zM211 1288q0 -49 35 -84q35 -33 80 -33t80 33q35 35 34 84q0 49 -34 84 q-35 33 -80 33t-80 -33q-35 -35 -35 -84zM563 1288q0 -49 35 -84q35 -33 80 -33t80 33q35 35 35 84t-35 84q-35 33 -80 33t-80 -33q-35 -35 -35 -84z" />
<glyph unicode="&#x152;" horiz-adv-x="1964" d="M104 715q0 -168 45.5 -302t130.5 -227.5t207.5 -143.5t276.5 -50q59 0 101 1t67 3q27 4 51 4h55h807v233h-53v-106h-618v539h538v127h-538v495h606v-102h53v229l-793 -4l-276 12q-154 6 -275.5 -42t-206.5 -142t-131.5 -228t-46.5 -296zM256 705q0 285 134 437t392 152 q100 0 171 -6t71 -12v-1139q0 -6 -68.5 -11t-169.5 -5q-258 0 -394 151.5t-136 432.5z" />
<glyph unicode="&#x153;" horiz-adv-x="1873" d="M76 543q0 -123 34.5 -227.5t97 -180.5t150.5 -119t193 -43q147 0 249.5 57.5t164.5 162.5q70 -113 174 -166.5t245 -53.5q57 0 123 22.5t121 48.5t91 48l36 23l-51 102l-30 -19q-29 -20 -75.5 -44.5t-100.5 -44t-103 -19.5q-170 0 -269 125q-84 113 -94 295h762l6 29 q-2 129 -33.5 235.5t-89 181t-138.5 116.5t-183 42q-147 0 -242.5 -65.5t-148.5 -169.5q-51 106 -151.5 170.5t-260.5 64.5q-106 0 -194.5 -42t-151 -117.5t-97 -181t-34.5 -230.5zM223 543q0 98 24.5 180t68.5 142.5t106.5 93t136.5 32.5t136.5 -32.5t106.5 -93 t68.5 -142.5t24.5 -180t-24.5 -180t-68.5 -141.5t-106.5 -92.5t-136.5 -33t-136.5 33t-106.5 92.5t-68.5 141t-24.5 180.5zM1034 621q14 156 84 251q88 125 240 125q129 0 207 -101t84 -275h-615z" />
<glyph unicode="&#x178;" horiz-adv-x="1267" d="M0 1362h74l487 -746v-563h-80v-53h312v53h-82v563l479 746h74v53h-303v-53h75l-397 -619l-393 619h76v53h-322v-53zM344 1661q0 -49 35 -84q35 -33 80 -33t80 33q35 35 34 84q0 49 -34 84q-35 33 -80 33t-80 -33q-35 -35 -35 -84zM696 1661q0 -49 35 -84q35 -33 80 -33 t80 33q35 35 35 84t-35 84q-35 33 -80 33t-80 -33q-35 -35 -35 -84z" />
<glyph unicode="&#x2c6;" horiz-adv-x="563" d="M-6 1137h98l189 202l190 -202h98l-200 299h-176z" />
<glyph unicode="&#x2dc;" horiz-adv-x="561" d="M-25 1184l78 -2q16 51 36 68.5t54 17.5q51 0 129 -39t142 -39q66 0 111 53.5t63 145.5l-78 2q-16 -51 -36.5 -68.5t-53.5 -17.5q-51 0 -131 38q-78 39 -139 39q-68 0 -113 -53t-62 -145z" />
<glyph unicode="&#x2000;" horiz-adv-x="938" />
<glyph unicode="&#x2001;" horiz-adv-x="1876" />
<glyph unicode="&#x2002;" horiz-adv-x="938" />
<glyph unicode="&#x2003;" horiz-adv-x="1876" />
<glyph unicode="&#x2004;" horiz-adv-x="625" />
<glyph unicode="&#x2005;" horiz-adv-x="469" />
<glyph unicode="&#x2006;" horiz-adv-x="312" />
<glyph unicode="&#x2007;" horiz-adv-x="312" />
<glyph unicode="&#x2008;" horiz-adv-x="234" />
<glyph unicode="&#x2009;" horiz-adv-x="375" />
<glyph unicode="&#x200a;" horiz-adv-x="104" />
<glyph unicode="&#x2010;" horiz-adv-x="694" d="M76 553h540v135h-540v-135z" />
<glyph unicode="&#x2011;" horiz-adv-x="694" d="M76 553h540v135h-540v-135z" />
<glyph unicode="&#x2012;" horiz-adv-x="694" d="M76 553h540v135h-540v-135z" />
<glyph unicode="&#x2013;" horiz-adv-x="1024" d="M-2 465h1030v139h-1030v-139z" />
<glyph unicode="&#x2014;" horiz-adv-x="2048" d="M-2 465h2054v139h-2054v-139z" />
<glyph unicode="&#x2018;" horiz-adv-x="507" d="M135 961l21 -1q22 -2 47 -2h47q23 0 22 0h2q0 109 30 219.5t77 208.5l-39 19l-39 18l-19 -25q-18 -26 -42.5 -64t-49 -84t-36.5 -89q-10 -37 -14.5 -86t-5.5 -79.5t-1 -34.5z" />
<glyph unicode="&#x2019;" horiz-adv-x="526" d="M135 995l39 -18l39 -19l19 26q18 26 42.5 63.5t49 84t36.5 89.5q10 37 14.5 86t5.5 79.5t1 34.5l-21 1q-22 1 -49 1h-47h-20h-2q0 -109 -30 -219t-77 -209z" />
<glyph unicode="&#x201a;" horiz-adv-x="563" d="M160 -231l69 -37q31 41 62 92t54.5 102t37.5 96t14 74q0 98 -26 99h-103h-35v-91h33l-67 -258q0 -43 -9.5 -60t-29.5 -17z" />
<glyph unicode="&#x201c;" horiz-adv-x="1085" d="M135 961l21 -1q22 -2 47 -2h47q23 0 22 0h2q0 109 30 219.5t77 208.5l-39 19l-39 18l-19 -25q-18 -26 -42.5 -64t-49 -84t-36.5 -89q-10 -37 -14.5 -86t-5.5 -79.5t-1 -34.5zM586 961l22 -1q21 -2 45 -2h47h23h2q0 109 29.5 219.5t76.5 208.5l-38 19l-39 18l-18 -25 q-19 -26 -43.5 -64t-49.5 -84t-37 -89q-10 -37 -14 -86t-5 -79.5t-1 -34.5z" />
<glyph unicode="&#x201d;" horiz-adv-x="1085" d="M135 995l39 -18l39 -19l19 26q18 26 42.5 63.5t49 84t36.5 89.5q10 37 14.5 86t5.5 79.5t1 34.5l-21 1q-22 1 -49 1h-47h-20h-2q0 -109 -30 -219t-77 -209zM586 995l39 -18l39 -19l18 26q18 26 43 63.5t49.5 84t36.5 89.5q10 37 14 86t5 79.5t1 34.5l-21 1q-22 1 -48 1 h-47h-21h-2q0 -109 -29.5 -219t-76.5 -209z" />
<glyph unicode="&#x201e;" horiz-adv-x="1011" d="M135 -254l39 -18l39 -19l19 25q18 26 42.5 64t49 84t36.5 89q10 37 14.5 86t5.5 80t1 35l-21 1q-22 1 -49 1h-47h-20h-2q0 -109 -30 -219.5t-77 -208.5zM586 -254l39 -18l39 -19l18 25q18 26 43 64t49.5 84t36.5 89q10 37 14 86t5 80t1 35l-21 1q-22 1 -48 1h-47h-21h-2 q0 -109 -29.5 -219.5t-76.5 -208.5z" />
<glyph unicode="&#x2022;" horiz-adv-x="755" d="M193 711q0 -72 50 -122t122 -50t122 50t50 122t-50.5 122t-121.5 50q-72 0 -122 -50.5t-50 -121.5z" />
<glyph unicode="&#x2026;" horiz-adv-x="2048" d="M258 0h172v193h-172v-193zM940 0h172v193h-172v-193zM1622 0h172v193h-172v-193z" />
<glyph unicode="&#x202f;" horiz-adv-x="375" />
<glyph unicode="&#x2039;" horiz-adv-x="548" d="M66 520l292 -442l136 2l-285 446l285 447l-136 2l-292 -443v-12z" />
<glyph unicode="&#x203a;" horiz-adv-x="548" d="M57 80l133 -2l293 442v12l-293 443l-133 -2l283 -447z" />
<glyph unicode="&#x205f;" horiz-adv-x="469" />
<glyph unicode="&#x20ac;" horiz-adv-x="1437" d="M-29 418h189q74 -207 247 -324t420 -117q74 0 157 25t151.5 55.5t91.5 42.5l69 37l-61 105l-40 -20q-40 -21 -99.5 -46.5t-131 -46t-135.5 -20.5q-176 0 -306 81.5t-195 227.5h702v131h-745q-16 78 -17 160q0 82 15 147h747v131h-708q66 150 196.5 236t310.5 86 q117 0 221.5 -47.5t161.5 -133.5l64 -2v269h-53v-78q-76 63 -180.5 93t-221.5 30q-123 0 -228.5 -32t-190.5 -90t-147 -142t-97 -189h-187v-131h154q-12 -72 -12 -147q0 -84 12 -160h-154v-131z" />
<glyph unicode="&#x2122;" horiz-adv-x="2004" d="M80 1239h35v98h260v-815h-66v-37h232v37h-68v815h260v-98h35v182h-688v-182zM858 485h199v35h-45v821l346 -856h59l342 856v-821h-47v-35h191v35h-48v864h48v35h-197l-315 -778l-318 778h-215v-35h64v-864h-64v-35z" />
<glyph unicode="&#xe000;" horiz-adv-x="1085" d="M0 0v1085h1085v-1085h-1085z" />
</font>
</defs>
</svg>
