<?xml version="1.0" standalone="no"?>
<!DOCTYPE svg PUBLIC "-//W3C//DTD SVG 1.1//EN" "http://www.w3.org/Graphics/SVG/1.1/DTD/svg11.dtd" >
<svg xmlns="http://www.w3.org/2000/svg">
<metadata></metadata>
<defs>
<font id="wellrockslabboldregular" horiz-adv-x="1404" >
<font-face units-per-em="2048" ascent="1638" descent="-410" />
<missing-glyph horiz-adv-x="561" />
<glyph horiz-adv-x="2048" />
<glyph horiz-adv-x="2048" />
<glyph horiz-adv-x="682" />
<glyph horiz-adv-x="555" d="M-2 1233q29 -125 105.5 -187.5t177.5 -62.5q100 0 177 57.5t99 169.5l-20 23h-91q-23 -59 -66.5 -85t-98.5 -26t-99.5 26t-68.5 85h-115z" />
<glyph horiz-adv-x="325" d="M82 954h162v168h-162v-168z" />
<glyph horiz-adv-x="509" d="M59 1188q0 -41 15.5 -76t41 -61.5t61.5 -42t77 -15.5q39 0 75 15.5t62.5 42t42 61.5t15.5 76q0 39 -15.5 74.5t-42 62.5t-62.5 42t-75 15q-41 0 -77 -15t-61.5 -42t-41 -62.5t-15.5 -74.5zM164 1188q0 37 25.5 63.5t64.5 26.5q37 0 63.5 -26.5t26.5 -63.5t-26.5 -63.5 t-63.5 -26.5q-39 0 -64.5 26.5t-25.5 63.5z" />
<glyph unicode="&#xa;" horiz-adv-x="806" d="M47 991l135 -2l283 305h-217zM348 991l135 -2l279 305h-215z" />
<glyph horiz-adv-x="624" d="M125 -195q0 -84 57.5 -131t136.5 -47q55 0 98.5 20.5t80.5 73.5l2 17l-27 80q-41 -41 -67.5 -52.5t-49.5 -11.5q-31 0 -53 19.5t-22 62.5q0 23 14 49.5t35.5 54t48.5 54t51 47.5h-135q-29 -18 -58.5 -44t-54 -57.5t-41 -66.5t-16.5 -68z" />
<glyph horiz-adv-x="577" d="M-16 1286l211 -299h186l213 299h-139l-170 -166l-164 166h-137z" />
<glyph unicode="&#xd;" horiz-adv-x="489" d="M68 0h352v92h-96v998h-222v-86l62 -7v-905h-96v-92z" />
<glyph horiz-adv-x="1038" d="M-12 -27h153l910 1469h-152z" />
<glyph horiz-adv-x="1050" d="M55 944h183v-850h-64v-94h256v94h-18v850h215v158h-215v78q0 78 26.5 120.5t85.5 42.5q33 0 53.5 -19t43.5 -52l81 104q-16 47 -62 86t-124 39q-139 0 -208.5 -89t-69.5 -257v-53h-183v-158zM684 1063q0 -23 15.5 -31t50.5 -18v2q12 -4 20 -6h35v-916h-60v-94h252v94h-20 v1008h-293v-39zM797 1415q0 -37 2 -57.5t11 -29.5t28.5 -11t54.5 -2q37 0 56.5 2t28.5 11t11 29.5t2 57.5v23q0 37 -2 57.5t-11 29.5t-28.5 11t-56.5 2q-35 0 -54.5 -2t-28.5 -11t-11 -29.5t-2 -57.5v-23z" />
<glyph horiz-adv-x="1062" d="M59 942h183v-848h-64v-94h256v94h-18v848h196v160h-196v78q0 78 25.5 119.5t84.5 41.5q29 0 50.5 -16t44.5 -49l75 110q-12 45 -56 79t-118 34q-141 0 -210.5 -88t-69.5 -256v-53h-183v-160zM694 1436q0 -23 16.5 -31t47.5 -19l22 -8l27 2v-1286h-62v-94h256v94h-20v1381 h-287v-39z" />
<glyph horiz-adv-x="966" d="M16 375l162 121v-400h-76v-96h848v354h-102v-188h-486v469l312 233v187l-312 -236v500h74v96h-332v-96h74v-639l-162 -121v-184z" />
<glyph horiz-adv-x="471" d="M-2 475l156 133v-514h-68v-94h258v94h-25v654l154 133v186l-154 -135v543h-233v-39q0 -20 9 -28.5t30 -18.5q2 -2 6 -4.5t6 -4.5h17v-585l-156 -133v-187z" />
<glyph horiz-adv-x="1050" d="M41 0h967v279h-95v-111h-647l719 1108v149h-917v-268h94v100h598l-719 -1105v-152zM215 1808l217 -335h193l219 335h-144l-174 -188l-170 188h-141z" />
<glyph horiz-adv-x="913" d="M59 0h795v252h-90v-94h-492l580 796v146h-760v-248h90v92h453l-576 -799v-145zM147 1436l215 -334h191l217 334h-141l-174 -187l-168 187h-140z" />
<glyph unicode=" "  horiz-adv-x="561" />
<glyph unicode="&#x09;" horiz-adv-x="561" />
<glyph unicode="&#xa0;" horiz-adv-x="561" />
<glyph unicode="!" horiz-adv-x="456" d="M143 0h170v229h-170v-229zM147 1415l5 -502l18 -563h117l18 563l4 502h-162z" />
<glyph unicode="&#x22;" horiz-adv-x="614" d="M86 1110l8 -244h142l10 242v229h-160v-227zM369 1110l8 -244h141l10 242v229h-159v-227z" />
<glyph unicode="#" horiz-adv-x="1099" d="M27 420h184l-68 -420h162l68 420h260l-68 -420h162l68 420h245v151h-219l45 285h205v152h-178l70 422h-160l-74 -422h-258l70 422h-160l-74 -422h-250v-152h228l-47 -285h-211v-151zM399 571l45 285h263l-48 -285h-260z" />
<glyph unicode="$" horiz-adv-x="954" d="M49 172q33 -35 50.5 -55.5t31.5 -32.5t28.5 -21.5t39.5 -23.5q86 -51 213 -57v-158h147v166q66 12 118 37.5t97 62.5q133 115 133 283q0 160 -88 260q-84 92 -260 160v467q68 -10 105 -33q14 -10 23 -15.5t18.5 -14.5t21.5 -22.5t35 -37.5l92 100q-29 39 -44 60.5 t-28.5 33.5t-27 21.5t-37.5 23.5q-70 39 -158 49v101h-147v-103q-129 -25 -219 -98q-125 -100 -125 -268q0 -162 110 -262h-2q43 -45 102.5 -78t133.5 -62v-512q-98 6 -156 47q-23 12 -35 19.5t-23.5 18t-24.5 26.5t-36 45zM252 1057q0 90 67 145q18 16 41 26.5t52 20.5 v-393q-35 18 -60 33t-39 29q-33 29 -47 63.5t-14 75.5zM559 162v434q72 -33 111 -72q57 -61 57 -141q0 -104 -78 -172q-16 -16 -38.5 -27.5t-51.5 -21.5z" />
<glyph unicode="%" horiz-adv-x="1644" d="M8 1047q0 -186 82 -287t240 -101q160 0 240.5 102t80.5 288t-83 286.5t-238 100.5q-156 0 -239 -101.5t-83 -287.5zM176 1047q0 117 38 181t116 64t115.5 -64t37.5 -181q0 -115 -37.5 -179.5t-115.5 -64.5t-116 64.5t-38 179.5zM274 -27h164l928 1469h-160zM995 371 q0 -186 82 -286.5t238 -100.5q160 0 240.5 101.5t80.5 287.5t-83 286.5t-238 100.5q-156 0 -238 -101.5t-82 -287.5zM1161 371q0 117 39 181t117 64t114.5 -64t36.5 -181t-37.5 -180.5t-115.5 -63.5t-116 63.5t-38 180.5z" />
<glyph unicode="&#x26;" horiz-adv-x="1411" d="M61 401q0 -80 31 -155.5t91.5 -136t147.5 -96.5t197 -36q78 0 145.5 14.5t127.5 49.5q70 37 135 104l119 -145l293 2v94h-142l-159 187q31 41 55 86t41 96q41 109 49 219h123v92h-271q-14 -111 -43 -207q-10 -39 -25 -77.5t-38 -77.5l-303 356q49 23 96 50.5t90 60.5 q125 94 125 258q0 68 -27.5 124t-74.5 95t-109.5 60.5t-132.5 21.5q-74 0 -140.5 -23.5t-116.5 -66.5t-79.5 -101.5t-29.5 -128.5q0 -88 57 -184q23 -35 41 -62.5t41 -50.5q-70 -33 -124 -69.5t-93 -79.5q-47 -53 -72 -121t-25 -152zM252 420q0 47 17.5 89t47.5 77 q66 72 162 112l350 -424q-55 -53 -86 -71q-45 -33 -97 -47.5t-107 -14.5q-59 0 -110.5 20.5t-91.5 57.5t-62.5 88t-22.5 113zM416 1122q0 37 15 67t41 50.5t57.5 31.5t66.5 11q76 0 123 -40t47 -118q0 -88 -72 -145q-31 -27 -69.5 -48.5t-85.5 -39.5q-20 25 -39 50.5 t-37 51.5q-47 70 -47 129z" />
<glyph unicode="'" horiz-adv-x="352" d="M111 1110l8 -244h114l9 242v229h-131v-227z" />
<glyph unicode="(" horiz-adv-x="636" d="M76 578q0 -145 33.5 -282.5t90 -257.5t129 -217t152.5 -161l80 78q-57 55 -113.5 143t-101.5 198.5t-72.5 237.5t-27.5 261q0 133 27.5 261t72.5 238.5t101.5 198.5t113.5 143l-80 78q-80 -63 -152.5 -159.5t-129 -217.5t-90 -259t-33.5 -283z" />
<glyph unicode=")" horiz-adv-x="509" d="M12 -262l80 -78q80 63 152.5 160.5t129 217.5t90.5 257.5t34 282.5t-34 283t-90.5 259t-129 217.5t-152.5 159.5l-80 -78q57 -55 113.5 -143t101.5 -198.5t73 -238.5t28 -261t-28 -260.5t-73 -238t-101 -198.5t-114 -143z" />
<glyph unicode="*" horiz-adv-x="927" d="M57 891l293 20l-166 -241l152 -86q27 47 57.5 108.5t55.5 120.5q4 8 7 16.5t7 16.5q29 -66 62.5 -137.5t66.5 -124.5l151 86l-168 241l293 -20v174l-293 -25l168 244l-151 86q-27 -47 -55.5 -108.5t-57.5 -120.5q-4 -8 -8 -16.5t-8 -18.5q-29 68 -62.5 139.5t-64.5 124.5 l-152 -86l166 -244l-293 25v-174z" />
<glyph unicode="+" horiz-adv-x="1091" d="M16 498h445v-447h170v447h444v168h-444v440h-170v-440h-445v-168z" />
<glyph unicode="," horiz-adv-x="452" d="M100 -201l52 -26l49 -25q41 57 63.5 89t34.5 56.5t19.5 49t17.5 65.5q6 25 10 41.5t5 33.5t2 43t1 71q0 8 -2 13t-14 7t-41 2h-78h-20q0 -109 -29 -216t-70 -204z" />
<glyph unicode="-" horiz-adv-x="622" d="M-8 580h540v135h-540v-135z" />
<glyph unicode="." horiz-adv-x="399" d="M45 0h172v193h-172v-193z" />
<glyph unicode="/" horiz-adv-x="708" d="M-2 -31h172l541 1461h-172z" />
<glyph unicode="0" horiz-adv-x="1005" d="M35 707q0 -170 28.5 -304.5t87 -227.5t146.5 -142t205 -49q233 0 351 191.5t118 535.5q0 340 -117 531.5t-350 191.5q-236 0 -352.5 -191.5t-116.5 -535.5zM219 711q0 266 67.5 412.5t215.5 146.5q147 0 215.5 -146.5t68.5 -416.5q0 -262 -68.5 -409.5t-213.5 -147.5 q-152 0 -218.5 146t-66.5 415z" />
<glyph unicode="1" horiz-adv-x="688" d="M66 1255l59 -145l186 100v-1116h-131v-94h441v94h-132l-2 1321h-96z" />
<glyph unicode="2" horiz-adv-x="1019" d="M76 0h864l4 301h-92l-4 -135h-555q59 100 143 199.5t213 203.5q45 37 93.5 90.5t88 116t65.5 134t26 145.5q0 86 -30 155.5t-84 119.5t-130 77t-168 27q-72 0 -115 -3.5t-79.5 -19.5t-82 -53t-122.5 -105l92 -125q55 53 88 82t61.5 42.5t63.5 15.5t96 2q94 0 156.5 -62.5 t62.5 -160.5q0 -49 -17.5 -98.5t-45 -93.5t-63.5 -84t-73 -73q-170 -147 -278.5 -296.5t-177.5 -288.5v-113z" />
<glyph unicode="3" horiz-adv-x="962" d="M33 166q74 -68 118 -105.5t81.5 -54t81.5 -19.5t122 -3q111 0 202 29.5t155.5 85t100.5 133.5t36 174q0 135 -59.5 222t-168.5 122q92 45 145.5 126.5t53.5 186.5q0 172 -113.5 271.5t-312.5 99.5q-70 0 -110.5 -3.5t-76.5 -18.5t-78 -48t-114 -94l90 -107q55 39 87 61.5 t57.5 32t56.5 11.5t82 2q113 0 182.5 -58.5t69.5 -150.5q0 -119 -86 -180.5t-232 -61.5h-20l-84 2v-147l129 2h12q147 0 227.5 -73t80.5 -191q0 -121 -85 -191.5t-223 -70.5q-59 0 -93 2t-63.5 14t-65.5 39.5t-97 77.5z" />
<glyph unicode="4" horiz-adv-x="1024" d="M14 496l33 -150h580v-252h-119v-94h403v94h-110v252h209v162h-209v913h-185zM211 508l416 657v-657h-416z" />
<glyph unicode="5" horiz-adv-x="1001" d="M66 174q63 -72 102 -110.5t73.5 -56t79 -20.5t119.5 -3q115 0 207 32.5t156.5 94t99.5 150.5t35 202q0 100 -32 183t-89 140.5t-139 89t-180 31.5q-111 0 -213 -51l18 391h473v-137h94v305h-731l-33 -737q23 -6 29 -12.5t12 -10.5q4 -2 14.5 -8t14.5 -8q61 49 133 76.5 t152 27.5q141 0 218 -75.5t77 -212.5q0 -70 -22.5 -126.5t-64.5 -96t-100.5 -61t-128.5 -21.5q-55 0 -88 2t-60.5 15t-60 43t-88.5 83z" />
<glyph unicode="6" horiz-adv-x="1007" d="M53 657q0 -176 32 -303t92.5 -210t145.5 -121.5t191 -38.5q98 0 180 33.5t140.5 95t90 149t31.5 193.5q0 215 -110.5 336.5t-306.5 121.5q-113 0 -207 -53q-55 -31 -96 -72q10 190 81 318q92 168 289 168q86 0 144.5 -42t70.5 -102h133q-4 27 -7 41.5t-6 24.5t-6 18.5 t-9 20.5q-88 199 -308 199h-8q-270 0 -413.5 -198t-143.5 -579zM240 526q43 115 110 164q76 57 178 58q117 0 183.5 -80t66.5 -219q0 -66 -19.5 -121.5t-53 -95t-83 -61t-106.5 -21.5q-133 0 -205 104q-55 80 -71 272z" />
<glyph unicode="7" horiz-adv-x="1015" d="M78 1106h94v141h567q-141 -268 -255.5 -564t-188.5 -589h-117v-94h426v94h-117q76 299 192 601t257 571l2 10v139h-860v-309z" />
<glyph unicode="8" horiz-adv-x="1026" d="M39 385q0 -90 36 -164t98.5 -126t149.5 -81.5t191 -29.5q106 0 194.5 27.5t150 79.5t95 127t33.5 169q0 123 -60.5 211t-201.5 147q94 53 156.5 136.5t62.5 193.5q0 82 -30.5 147.5t-86 112.5t-133.5 73t-172 26q-96 0 -177 -27t-139.5 -75t-92 -114.5t-33.5 -146.5 q0 -100 50 -184t167 -144q-258 -109 -258 -358zM223 393q0 109 78 174.5t209 94.5q135 -29 215 -98t80 -173q0 -109 -80 -175t-209 -66t-211 66.5t-82 176.5zM260 1065q0 92 70.5 148.5t183.5 56.5q111 0 181.5 -56.5t70.5 -146.5q0 -53 -22.5 -95t-59.5 -74t-81 -52.5 t-87 -28.5q-53 12 -99 33.5t-81 53.5t-55.5 72t-20.5 89z" />
<glyph unicode="9" horiz-adv-x="978" d="M39 963q0 -104 28.5 -189.5t83 -146t132 -92t176.5 -31.5q57 0 105 13t98 40q27 16 50 32.5t46 39.5q-8 -184 -80 -318q-92 -164 -285 -164q-86 0 -145.5 41t-73.5 101h-125l29 -105q25 -94 106.5 -147t198.5 -53h6q268 0 410.5 199.5t142.5 576.5q0 352 -122 513 t-339 161q-98 0 -179 -35t-139.5 -97.5t-91 -148.5t-32.5 -190zM217 963q0 139 72.5 223t191.5 84q131 0 203 -107q29 -43 46.5 -109.5t25.5 -164.5q-23 -55 -51.5 -96t-61.5 -64q-82 -57 -174 -57q-117 0 -184.5 78.5t-67.5 212.5z" />
<glyph unicode=":" horiz-adv-x="393" d="M111 0h172v227h-172v-227zM111 784h172v228h-172v-228z" />
<glyph unicode=";" horiz-adv-x="401" d="M72 -213l51 -29l47 -24q41 59 63.5 94t36 60.5t20.5 51t17 68.5q6 27 10.5 44.5t5.5 35.5t2 45t1 74q0 8 -2 13t-14.5 8t-41.5 3h-78h-20q0 -113 -28.5 -227.5t-69.5 -216.5zM147 791h185v229h-185v-229z" />
<glyph unicode="&#x3c;" horiz-adv-x="1202" d="M72 508l1056 -465v176l-825 359l825 356v178l-1056 -467v-137z" />
<glyph unicode="=" horiz-adv-x="1099" d="M20 272h1059v164h-1059v-164zM20 680h1059v162h-1059v-162z" />
<glyph unicode="&#x3e;" horiz-adv-x="1089" d="M16 43l1057 465v137l-1057 467v-178l826 -356l-826 -359v-176z" />
<glyph unicode="?" horiz-adv-x="831" d="M41 1313l78 -117q72 29 112.5 45t65.5 23.5t42 8.5t44 1q106 0 166.5 -60.5t60.5 -156.5q0 -72 -33.5 -108t-78.5 -68q-20 -16 -41 -31.5t-43 -38.5q-53 -49 -85 -106.5t-44 -137.5q-2 -10 -3 -21t-1 -28v-43t2 -31.5t6 -36t12 -55.5h137l13 162q2 41 19 88t77 82 q45 25 88 59.5t78 80.5t56.5 102.5t21.5 128.5q0 80 -26 149.5t-76 121.5t-126 83t-176 31q-59 0 -95 -2t-67.5 -14.5t-72.5 -38t-111 -72.5zM268 0h203v229h-203v-229z" />
<glyph unicode="@" horiz-adv-x="1603" d="M16 469q0 -164 63.5 -311.5t177.5 -259t271.5 -178t345.5 -66.5v31q0 4 -2 14q-2 12 -4 29.5t-5 34t-7 29.5t-10 20q-127 2 -246 50t-211 134t-148.5 203.5t-56.5 257.5q0 137 52.5 257t142.5 209t210 139t253 50q123 0 229.5 -41t184 -110.5t121.5 -160.5t44 -192 q0 -96 -28.5 -180t-72.5 -148.5t-96.5 -101.5t-99.5 -37q-14 0 -28 15q-6 6 -6 24l4 21v4l190 696h-190l-27 -88q-41 66 -104.5 96.5t-120.5 30.5q-119 0 -214.5 -52t-162 -136t-102 -189.5t-35.5 -214.5q0 -88 27.5 -156.5t72.5 -115.5t103.5 -71.5t121.5 -24.5 q84 0 152.5 35.5t112.5 80.5q25 -68 66.5 -94.5t84.5 -26.5q92 0 184.5 50.5t166 136.5t119.5 199.5t46 240.5q0 133 -56 254t-155.5 213t-237 146.5t-298.5 54.5q-172 0 -321.5 -66.5t-261.5 -177.5t-175.5 -256t-63.5 -301zM522 356q0 74 24.5 150t67.5 137.5t101.5 100 t126.5 38.5q70 0 113.5 -59.5t43.5 -147.5q0 -68 -25.5 -143.5t-68.5 -140t-101.5 -106.5t-123.5 -42q-59 0 -108.5 52.5t-49.5 160.5z" />
<glyph unicode="A" horiz-adv-x="1406" d="M16 0h330v96h-65l125 328h591l125 -328h-61v-96h332v96h-76l-467 1227h61v92h-399v-92h59l-479 -1227h-76v-96zM467 590l240 633l231 -633h-471z" />
<glyph unicode="B" horiz-adv-x="1019" d="M43 0h416q248 0 383 104.5t135 307.5q0 113 -56.5 198.5t-172.5 132.5q180 80 180 301q0 186 -117 278.5t-334 92.5h-434v-96h72v-1223h-72v-96zM299 164v489h160q162 0 245.5 -59t83.5 -186q0 -121 -88 -182.5t-247 -61.5h-154zM301 819v432h170q127 0 196.5 -51.5 t69.5 -155.5q0 -111 -74.5 -168t-211.5 -57h-150z" />
<glyph unicode="C" horiz-adv-x="1253" d="M37 709q0 -166 50 -301.5t143.5 -230.5t224.5 -147.5t293 -52.5q74 0 116.5 2.5t86.5 17.5t101.5 48t157.5 92l7 29l-70 121q-90 -51 -141.5 -79t-88 -41t-72.5 -15t-95 -2q-117 0 -212.5 39.5t-164 113.5t-106.5 177.5t-38 228.5t38 228t106.5 177t164 115t212.5 41 q106 0 203.5 -45t152.5 -129l94 -2v303h-94v-56q-74 51 -168 75t-197 24q-158 0 -287.5 -53.5t-222 -149.5t-143.5 -230.5t-51 -297.5z" />
<glyph unicode="D" horiz-adv-x="1265" d="M35 0h418q197 0 343 49t242.5 141.5t143.5 223.5t47 293q0 334 -181.5 521t-539.5 187h-473v-96h78v-1223h-78v-96zM299 166v1083h205q266 0 400 -137t134 -405q0 -270 -144 -405.5t-431 -135.5h-164z" />
<glyph unicode="E" horiz-adv-x="1044" d="M49 0h944v270h-94v-104h-553v479h520v166h-520v438h543v-100h92v266h-932v-96h113v-1223h-113v-96z" />
<glyph unicode="F" horiz-adv-x="956" d="M35 0h366v96h-71v551h477v166h-477v436h497v-100h95v266h-887v-96h110v-1223h-110v-96z" />
<glyph unicode="G" horiz-adv-x="1370" d="M47 709q0 -166 51.5 -301.5t146.5 -230.5t230 -147.5t301 -52.5q201 0 345.5 89.5t199.5 255.5l2 6v413h-518v-168h321v-247q-33 -78 -126 -127t-222 -49q-121 0 -219 39.5t-169 113.5t-109.5 176.5t-38.5 229.5q0 125 37.5 228t106.5 177t165 115t213 41 q121 0 228.5 -48t172.5 -137h95v301h-95v-61q-80 53 -184 84t-229 31q-158 0 -287 -53.5t-222 -149.5t-144.5 -231.5t-51.5 -296.5z" />
<glyph unicode="H" horiz-adv-x="1345" d="M88 0h344v96h-70v555h642v-555h-72v-96h325v96h-67v1223h67v96h-325v-96h72v-502h-642v502h70v96h-344v-96h86v-1223h-86v-96z" />
<glyph unicode="I" horiz-adv-x="468" d="M82 0h307v96h-61v1223h61v96h-307v-96h78v-1223h-78v-96z" />
<glyph unicode="J" horiz-adv-x="618" d="M-29 -199q23 -10 66 -22t96 -12q168 0 254 97t86 290v1171h74v96h-350v-96h96v-1165q0 -121 -42 -170t-126 -49q-45 0 -87 12t-65 20z" />
<glyph unicode="K" horiz-adv-x="1259" d="M63 0h353v96h-72v1223h72v96h-353v-96h93v-1223h-93v-96zM346 709l524 -613h-43v-96h369v96h-74l-567 652l528 571h74v96h-348v-96h37l-500 -549v-61z" />
<glyph unicode="L" horiz-adv-x="948" d="M41 0h864v354h-102v-188h-481v1153h71v96h-350v-96h92v-1223h-94v-96z" />
<glyph unicode="M" horiz-adv-x="1751" d="M86 0h334v96h-66v1071l473 -1169h117l467 1167v-1069h-68v-96h324v96h-70v1225h70v94h-326l-452 -1112l-453 1112h-350v-94h90v-1225h-90v-96z" />
<glyph unicode="N" horiz-adv-x="1386" d="M76 0h352v96h-80v1045l682 -1147h205v1327h78v94h-334v-94h80v-1032q-109 188 -217.5 368.5t-218.5 364.5q-57 94 -118 194.5t-120 198.5h-309v-94h96v-1225h-96v-96z" />
<glyph unicode="O" horiz-adv-x="1417" d="M39 709q0 -164 48 -298.5t136 -230.5t211 -149.5t273 -53.5q152 0 275.5 53.5t210.5 149.5t135 230.5t48 298.5t-48 298t-135 230t-211 149.5t-275 53.5q-150 0 -273 -53.5t-211 -149.5t-136 -230.5t-48 -297.5zM233 709q0 123 35 226t97.5 178t149.5 116t192 41 q106 0 193 -41t149.5 -116t97.5 -178t35 -226t-35 -226.5t-97.5 -177.5t-149.5 -114.5t-193 -40.5q-104 0 -191.5 40.5t-150 114.5t-97.5 177.5t-35 226.5z" />
<glyph unicode="P" horiz-adv-x="968" d="M14 0h353v96h-76v475h205q104 0 189 30t144.5 85t92 133t32.5 174q0 199 -119.5 310.5t-334.5 111.5h-486v-96h92v-1223h-92v-96zM291 739v510h205q131 0 200.5 -63.5t69.5 -188.5q0 -135 -79 -196.5t-238 -61.5h-158z" />
<glyph unicode="Q" horiz-adv-x="1411" d="M37 713q0 -326 184 -529q86 -94 210 -144t265 -60l16 -10q17 -11 41.5 -27.5t52.5 -37t52 -40.5q35 -29 56.5 -45.5t37 -28.5t29.5 -21.5t33 -23.5l172 70l-174 141q-23 18 -42.5 32.5t-35.5 26.5q152 51 256 168q184 203 184 529q0 164 -48 299t-135 231t-211 149.5 t-275 53.5q-150 0 -273 -53.5t-211 -149.5t-136 -231t-48 -299zM231 713q0 123 35 226t97.5 178t149.5 116t192 41q106 0 193 -41t149.5 -116t97.5 -178t35 -226q0 -125 -35 -228.5t-97.5 -178.5t-149.5 -115.5t-193 -40.5q-104 0 -191.5 40.5t-150 115.5t-97.5 178.5 t-35 228.5z" />
<glyph unicode="R" horiz-adv-x="1212" d="M66 0h364v96h-78v557h168q45 -63 71.5 -101t50.5 -72t50.5 -76t71.5 -115l178 -289h203v31q-51 86 -80 135t-51.5 85t-45 68.5t-59.5 86.5q-20 31 -44.5 64.5t-49.5 68.5q-31 45 -60.5 84t-41.5 57q154 39 226.5 138.5t72.5 230.5q0 176 -114 271t-312 95h-520v-96h100 v-1223h-100v-96zM352 817v432h201q135 0 201.5 -49t66.5 -153q0 -111 -79.5 -170.5t-217.5 -59.5h-172z" />
<glyph unicode="S" horiz-adv-x="956" d="M51 1067q0 -82 29 -145.5t80 -114.5t122.5 -90t157.5 -70q78 -29 132.5 -56.5t87 -58t47 -65.5t14.5 -80q0 -53 -20.5 -96t-56.5 -76t-86 -50.5t-109 -17.5q-109 0 -189 47.5t-104 104.5v53h-103v-354h94v70q61 -43 141.5 -67t166.5 -24q96 0 179 31t143.5 84t95 128 t34.5 161q0 82 -20.5 146.5t-65.5 115.5t-116.5 92t-172.5 78q-158 59 -228.5 118.5t-70.5 137.5q0 90 68 145.5t178 55.5q100 0 167 -32t95 -75v-39h107v306h-94v-64q-121 74 -275 74q-92 0 -171 -29t-135 -78t-89 -117.5t-33 -148.5z" />
<glyph unicode="T" horiz-adv-x="1091" d="M25 1106h94v143h334v-1153h-97v-96h379v96h-94v1153h332v-143h96v309h-1044v-309z" />
<glyph unicode="U" horiz-adv-x="1325" d="M84 1321h72v-850q0 -233 135 -363.5t373 -130.5q242 0 374.5 130.5t132.5 363.5v850h72v94h-328v-94h70v-848q0 -156 -84 -241t-237 -85q-152 0 -237 85t-85 241v848h70v94h-328v-94z" />
<glyph unicode="V" horiz-adv-x="1351" d="M12 1321h78l500 -1327h174l498 1327h79v94h-323v-94h57l-395 -1073l-393 1073h61v94h-336v-94z" />
<glyph unicode="W" horiz-adv-x="1990" d="M18 1321h74l385 -1327h195l325 1163l324 -1163h190l385 1327h76v94h-317v-94h63l-299 -1045l-289 1045h62v94h-379v-94h57l-286 -1040l-295 1040h61v94h-332v-94z" />
<glyph unicode="X" horiz-adv-x="1314" d="M27 0h348v96h-53l329 488l324 -488h-51v-96h362v96h-90l-434 643l399 580h84v96h-336v-96h47l-299 -440l-297 440h48v96h-351v-96h88l402 -588l-434 -635h-86v-96z" />
<glyph unicode="Y" horiz-adv-x="1275" d="M6 1319h82l461 -707v-516h-78v-96h344v96h-80v516l453 707h82v96h-336v-96h55l-344 -537l-340 537h55v96h-354v-96z" />
<glyph unicode="Z" horiz-adv-x="1054" d="M43 0h967v276h-95v-110h-647l719 1102v147h-917v-266h94v100h598l-719 -1097v-152z" />
<glyph unicode="[" horiz-adv-x="593" d="M102 -326l121 -8h269v150h-211l-17 2v1523h228v150h-390v-1817z" />
<glyph unicode="\" horiz-adv-x="698" d="M-8 1430l543 -1459h172l-543 1459h-172z" />
<glyph unicode="]" horiz-adv-x="534" d="M74 -184v-150h270l119 8v1817h-389v-150h211l18 -2v-1521l-18 -2h-211z" />
<glyph unicode="^" horiz-adv-x="1073" d="M31 623l176 -21l334 578l329 -578l174 21l-444 763h-121z" />
<glyph unicode="_" horiz-adv-x="960" d="M-35 -217v-102h1030v102h-1030z" />
<glyph unicode="`" horiz-adv-x="423" d="M12 1292l269 -303l131 2l-193 303z" />
<glyph unicode="a" horiz-adv-x="1071" d="M72 313q0 -70 23.5 -131t66.5 -106t105.5 -72t140.5 -27q74 0 151.5 31t147.5 98v-106h292v92l-127 2l-4 74v586q0 180 -94 270t-276 90q-63 0 -100.5 -1t-69 -8t-68.5 -22.5t-98 -44.5l41 -129q61 20 97 30.5t62.5 16t53 6.5t69.5 1q100 0 154.5 -49.5t54.5 -159.5v-109 q-43 16 -84 22.5t-71 6.5q-223 0 -345 -97.5t-122 -263.5zM252 311q0 96 77 152.5t226 58.5q43 0 79.5 -12.5t59.5 -28.5v-100q-23 -111 -92.5 -181.5t-173.5 -70.5q-88 0 -132 52t-44 130z" />
<glyph unicode="b" horiz-adv-x="1052" d="M0 0h285v123q66 -80 141.5 -111.5t161.5 -31.5q106 0 192 41.5t146.5 118.5t93.5 182.5t33 234.5t-32 234.5t-90.5 179t-143.5 113.5t-189 40q-86 0 -166 -31.5t-147 -113.5v496h-246v-95l70 2v-1288h-109v-94zM285 553q0 92 21.5 168t60.5 130t94 85t121 31 q133 0 209.5 -113t76.5 -299q0 -92 -20.5 -169t-58 -132t-91 -86t-118.5 -31q-63 0 -117.5 30t-93.5 85t-61.5 132t-22.5 169z" />
<glyph unicode="c" horiz-adv-x="849" d="M8 547q0 -127 36 -232.5t101.5 -181.5t156.5 -118t204 -42q123 0 207 50.5t127 134.5l-2 22l-72 123q-14 -31 -40 -61.5t-58.5 -54t-70.5 -39t-79 -15.5q-74 0 -134 31t-103 85t-67 131t-24 169t24 167t67 128t103 82.5t134 29.5q37 0 72 -10t64.5 -28.5t52 -44 t32.5 -56.5h90v320h-90v-80q-47 27 -106.5 43t-128.5 16q-109 0 -199 -43t-156.5 -118.5t-103.5 -180t-37 -227.5z" />
<glyph unicode="d" horiz-adv-x="1198" d="M74 549q0 -127 32.5 -232.5t92 -180.5t145.5 -115.5t193 -40.5q86 0 161.5 31.5t143.5 109.5v-121h284v94h-110v1381h-250v-91q31 -2 47 -2h29v-407q-72 88 -153 118.5t-163 30.5q-104 0 -188 -41t-142.5 -116.5t-90 -181t-31.5 -236.5zM256 549q0 92 19.5 169t56.5 132 t89 86t118 31q68 0 123 -30t95 -84t62.5 -131t22.5 -169q0 -90 -21.5 -166t-60.5 -131t-93.5 -87t-119.5 -32q-66 0 -120 30t-92 84t-58.5 130t-20.5 168z" />
<glyph unicode="e" horiz-adv-x="1021" d="M47 545q0 -133 34 -238.5t98.5 -179.5t156.5 -114t207 -40q61 0 98 2t74 14.5t87 38t138 74.5l-70 140q-74 -43 -114.5 -65.5t-69.5 -33t-55.5 -12.5t-69.5 -2q-152 0 -242 113q-74 96 -90 250h742l4 47q-4 270 -125 422.5t-336 152.5q-102 0 -187 -43t-147.5 -118.5 t-97.5 -180t-35 -227.5zM233 641q8 63 28.5 115.5t49.5 93.5q77 108 213 108h2q111 0 179.5 -85t85.5 -232h-558z" />
<glyph unicode="f" horiz-adv-x="706" d="M39 942h172v-848h-57v-94h340v94h-113v848h199v160h-199v78q0 78 24.5 119.5t86.5 41.5q14 0 23 -1t18.5 -5t21.5 -13t33 -26l78 105q-33 37 -51.5 56.5t-36 28.5t-37 11t-54.5 2q-137 0 -206.5 -88t-69.5 -256v-53h-172v-160z" />
<glyph unicode="g" horiz-adv-x="1118" d="M31 545q0 -121 33.5 -222.5t95 -175t146.5 -114.5t190 -41q84 0 164.5 32.5t144.5 114.5v-53q0 -182 -80 -272t-233 -90q-49 0 -97.5 9t-89.5 23.5t-74.5 32.5t-54.5 35l-59 -158q55 -43 150 -73.5t218 -30.5q113 0 205 33.5t155.5 98t98.5 157t35 208.5v951h108v92h-282 v-105q-76 80 -151.5 104.5t-155.5 24.5q-109 0 -195 -42t-146.5 -117.5t-93 -183t-32.5 -238.5zM215 547q0 92 20.5 169t58.5 132t91 86t119 31q141 0 221 -111.5t80 -304.5q0 -86 -22.5 -159t-62.5 -126t-95.5 -82.5t-122.5 -29.5q-66 0 -118 28.5t-90 80.5t-58.5 125 t-20.5 161z" />
<glyph unicode="h" horiz-adv-x="1079" d="M49 0h350v94h-67v582q29 135 104.5 213t179.5 78q82 0 129.5 -64.5t47.5 -173.5v-635h-80v-94h319v94h-65v637q0 186 -85 289.5t-243 103.5q-188 0 -307 -141v492h-244v-97q29 0 43 1t27 1v-1286h-109v-94z" />
<glyph unicode="i" horiz-adv-x="464" d="M76 1004q35 0 52 1t28 1v-912h-78v-94h311v94h-76v1004h-237v-94zM156 1278q0 -41 25.5 -68.5t60.5 -27.5t60.5 27.5t25.5 68.5q0 39 -26 66.5t-60 27.5q-35 0 -60.5 -27.5t-25.5 -66.5z" />
<glyph unicode="j" horiz-adv-x="395" d="M-80 -254v-158l37 -10l-2 2q12 -4 14 -4q10 -2 68 -2q270 0 270 332v1202h-262v-96q47 0 66.5 1t31.5 1v-1086q0 -102 -27.5 -147t-99.5 -45h2zM139 1286q0 -39 27 -66.5t61 -27.5q35 0 61.5 27.5t26.5 66.5q0 41 -26.5 68.5t-61.5 27.5t-61.5 -27.5t-26.5 -68.5z" />
<glyph unicode="k" horiz-adv-x="1054" d="M37 0h369v94h-87v410l474 -504h225v94h-82l-465 498l438 418h66v92h-322v-92h31l-365 -346v811h-243v-95h69v-1286h-108v-94z" />
<glyph unicode="l" horiz-adv-x="464" d="M74 0h319v94h-80v1381h-223v-97q27 0 41 1t25 1v-1286h-82v-94z" />
<glyph unicode="m" horiz-adv-x="1697" d="M86 0h317v92h-67v578q29 133 100.5 209.5t169.5 76.5q76 0 118 -63.5t42 -171.5v-629h-80v-92h324v92h-68v574q33 135 102.5 212.5t167.5 77.5q76 0 117 -63.5t41 -171.5v-629h-82v-92h322v92h-64v635q0 184 -82 285.5t-237 101.5q-102 0 -186.5 -47t-137.5 -119 q-35 82 -103.5 124t-164.5 42q-190 0 -305 -137v113h-244v-95q29 0 45 1t27 1v-905h-72v-92z" />
<glyph unicode="n" horiz-adv-x="1124" d="M84 0h330v92h-86v578q29 133 103.5 209.5t178.5 76.5q78 0 125 -63.5t47 -169.5v-631h-82v-92h340v92h-84v633q0 184 -85 286.5t-238 102.5q-190 0 -311 -139v115h-238v-91q29 -2 43 -2h27v-905h-70v-92z" />
<glyph unicode="o" horiz-adv-x="1046" d="M31 545q0 -123 36.5 -228.5t102.5 -181.5t156 -119t198 -43q109 0 199 43t155.5 119t101.5 181.5t36 228.5q0 125 -36 229.5t-101.5 180t-155.5 117.5t-199 42t-198.5 -42t-155.5 -117.5t-102.5 -180t-36.5 -229.5zM215 545q0 90 22.5 164.5t63.5 129t98.5 85t124.5 30.5 q68 0 125.5 -30.5t97 -85t62 -129t22.5 -164.5t-22.5 -165t-62 -129t-97 -85t-125.5 -31t-125 31t-98 85t-63.5 129t-22.5 165z" />
<glyph unicode="p" horiz-adv-x="1077" d="M25 1012q37 -2 55 -2h31v-1336h-72v-94h317v94h-71v439q61 -76 141 -108t164 -32q106 0 191 42t144.5 118t92.5 182.5t33 235.5q0 131 -32 237.5t-90.5 181t-144.5 115.5t-192 41q-82 0 -163 -33.5t-150 -123.5v133h-254v-90zM283 547v2q0 94 21.5 171t61.5 132t93 85 t119 30q68 0 122 -30t91.5 -85t58 -132t20.5 -171q0 -186 -77.5 -300t-214.5 -114q-66 0 -120.5 31t-93 86t-60 131t-21.5 164z" />
<glyph unicode="q" horiz-adv-x="1085" d="M37 551q0 -129 31.5 -235.5t92 -182.5t145.5 -118t192 -42q86 0 164.5 33t140.5 113v-445h-72v-94h318v94h-70v1332l65 2v96h-243v-133q-68 90 -147 122.5t-158 32.5q-109 0 -194 -39.5t-144.5 -114.5t-90 -181.5t-30.5 -239.5zM217 549q0 193 78 305.5t217 112.5 q63 0 116.5 -30t92.5 -84t60.5 -130t21.5 -168t-21.5 -169t-59.5 -132t-92.5 -87t-119.5 -32q-68 0 -122 30t-92 84t-58.5 131t-20.5 169z" />
<glyph unicode="r" horiz-adv-x="667" d="M10 0h363v92h-80v455q0 174 59.5 281.5t179.5 107.5h19l104 -8v174l-98 10q-82 0 -153.5 -38t-122.5 -126v142h-234v-91q33 -2 47 -2h29v-905h-113v-92z" />
<glyph unicode="s" horiz-adv-x="798" d="M47 -23h92v54q47 -29 111.5 -43.5t130.5 -14.5q172 0 272.5 89t100.5 241q0 125 -72 205t-233 131q-109 33 -161 72t-52 98q0 68 43 110t129 42q66 0 121 -29t83 -66v-24l99 8v268h-90v-55q-45 23 -104.5 38t-115.5 15q-72 0 -133 -21.5t-106 -61.5t-70.5 -97t-25.5 -131 q0 -72 24.5 -123t66.5 -88t98 -62.5t120 -46.5q98 -33 150.5 -75.5t52.5 -120.5q0 -72 -59.5 -116t-139.5 -44q-92 0 -158.5 40t-77.5 101h-96v-293z" />
<glyph unicode="t" horiz-adv-x="641" d="M43 940h172v-688q0 -143 51 -209t174 -66q41 0 83 10.5t63 18.5l14 21l-2 143q-27 -10 -60.5 -21.5t-66.5 -11.5q-88 0 -88 107v696h209v160h-209v309l-168 -98v-211h-172v-160z" />
<glyph unicode="u" horiz-adv-x="999" d="M-2 997h100v-624q0 -190 82 -291.5t246 -101.5q94 0 172 35.5t135 101.5v-117h268v92h-98v998h-280v-93h106v-581q-29 -125 -104.5 -201t-175.5 -76q-86 0 -131.5 62.5t-45.5 177.5v711h-274v-93z" />
<glyph unicode="v" horiz-adv-x="935" d="M-18 997h71l334 -1003h168l332 1003h69v93h-292v-93h47l-240 -759l-238 759h48v93h-299v-93z" />
<glyph unicode="w" horiz-adv-x="1525" d="M-16 997h53l301 -1003h182l238 835l239 -835h179l307 1003h61v93h-280v-93h45l-224 -743l-206 741h36v92h-303v-92h37l-219 -745l-209 747h39v93h-276v-93z" />
<glyph unicode="x" horiz-adv-x="1021" d="M37 0h301v92h-37l213 338l211 -338h-35v-92h297v92h-59l-312 477l279 428h68v93h-287v-93h22l-184 -295l-182 295h30v93h-294v-93h59l289 -428l-314 -477h-65v-92z" />
<glyph unicode="y" horiz-adv-x="942" d="M-16 1010h69l336 -969l-67 -213q-14 -45 -34 -71.5t-46 -26.5h-2l-78 4l-74 8l-8 -158l215 -12h6q63 0 104 55.5t64 126.5l422 1256h67v92h-296v-92h49l-236 -734l-242 734h52v92h-301v-92z" />
<glyph unicode="z" horiz-adv-x="913" d="M59 0h795v250h-90v-94h-492l580 790v144h-760v-246h90v90h453l-576 -791v-143z" />
<glyph unicode="{" horiz-adv-x="622" d="M59 500q86 -4 125 -67.5t39 -178.5v-291q0 -63 12.5 -117.5t41 -94.5t79 -62.5t127.5 -22.5h82v150h-88q-41 0 -65.5 36.5t-24.5 129.5v274q0 139 -40 211t-105 111q68 39 106.5 111.5t38.5 211.5v275q0 92 24.5 128.5t65.5 36.5h88v150h-82q-78 0 -128 -22.5 t-78.5 -62.5t-41 -94.5t-12.5 -117.5v-291q0 -115 -39 -178t-125 -68v-157z" />
<glyph unicode="|" horiz-adv-x="430" d="M147 -199h138v1682h-138v-1682z" />
<glyph unicode="}" horiz-adv-x="503" d="M0 -184v-150h82q76 0 127 22.5t80.5 62.5t42 94.5t12.5 117.5v291q0 115 34 178.5t109 67.5l19 22v135q-86 4 -124 67.5t-38 178.5v291q0 63 -12.5 117.5t-42 94.5t-80.5 62.5t-127 22.5h-82v-150h92q39 0 63.5 -36.5t24.5 -128.5v-275q0 -139 38 -212t106 -111 q-68 -39 -106 -111t-38 -211v-274q0 -92 -24.5 -129t-63.5 -37h-92z" />
<glyph unicode="~" horiz-adv-x="1097" d="M53 528l60 -151q53 61 108 102t109 41q61 0 196 -61q143 -66 238 -66q49 0 92 13.5t78 35t61.5 47t44.5 52.5l2 16l-53 137q-59 -59 -111.5 -99t-109.5 -40q-55 0 -193 61q-139 66 -241 66q-49 0 -93 -14.5t-80 -36t-63.5 -49t-44.5 -54.5z" />
<glyph unicode="&#xa1;" horiz-adv-x="450" d="M139 797h170v229h-170v-229zM145 -389h162l-6 502l-16 563h-117l-18 -563z" />
<glyph unicode="&#xa2;" horiz-adv-x="1013" d="M92 555q0 -258 137 -416q20 -23 46 -46t59 -46l-96 -332h137l80 279q59 -16 135 -17q123 0 207 50.5t127 136.5l-2 22l-72 125q-14 -31 -40 -61.5t-58.5 -55t-70.5 -40t-79 -15.5q-31 0 -56.5 4t-45.5 11l227 780q2 -4 12 -6q57 -35 84 -107l92 10v297h-92v-61 q-12 6 -24.5 13t-28.5 12l82 282h-135l-72 -250q-12 0 -26.5 1t-30.5 1q-106 0 -197.5 -43t-157 -118.5t-103.5 -181t-38 -228.5zM274 557q0 90 24 165t66 128t102 84t134 31l-213 -736q-6 6 -11 12.5t-9 12.5q-92 117 -93 303z" />
<glyph unicode="&#xa3;" horiz-adv-x="1042" d="M63 90q0 -41 66 -69.5t178 -28.5q43 0 75 12t67 41q53 -29 112.5 -41t112.5 -12q68 0 106.5 2t66 12t54.5 32.5t70 65.5l4 27l-49 86q-57 -20 -76 -33.5t-33 -22.5t-40.5 -13.5t-102.5 -4.5q-8 0 -30.5 4.5t-50.5 11.5t-56.5 18t-49.5 26l13 213l-17 237h281v156h-301 q-16 49 -25.5 96t-9.5 86q0 145 62.5 213t168.5 68q74 0 118 -31t73 -80l12 -20l117 20l-23 88q-23 86 -102.5 135.5t-200.5 49.5q-100 0 -177 -32t-128 -89.5t-77.5 -135t-26.5 -171.5q0 -49 7 -96.5t23 -100.5h-190v-156h225q8 -25 14.5 -51.5t4.5 -58.5l-4 -303l-148 18 q-51 0 -82 -27.5t-31 -68.5v-72zM166 145q0 16 23.5 26.5t58.5 10.5q33 0 56.5 -10.5t23.5 -26.5t-23.5 -26t-58.5 -10q-33 0 -56.5 10t-23.5 26z" />
<glyph unicode="&#xa5;" horiz-adv-x="1189" d="M27 1319h77l244 -438h-225v-142h305l74 -129v-30h-379v-142h379v-342h-78v-96h342v96h-78v342h377v142h-377v30l72 129h305v142h-225l241 438h82v96h-315v-96h39q-41 -76 -71 -129t-52 -94q-29 -49 -47.5 -85t-35.5 -68t-35.5 -66.5t-45.5 -83.5q-43 82 -87 163.5 t-89 167.5q-27 49 -54.5 97.5t-54.5 97.5h41v96h-329v-96z" />
<glyph unicode="&#xa6;" horiz-adv-x="425" d="M143 -199h138v666h-138v-666zM143 813h138v670h-138v-670z" />
<glyph unicode="&#xa7;" horiz-adv-x="956" d="M76 586q0 -111 58.5 -183.5t197.5 -132.5l186 -80q164 -72 164 -184q0 -41 -20.5 -69.5t-53.5 -47t-73.5 -26.5t-83.5 -8q-76 0 -143.5 30.5t-102.5 98.5h-115l16 -95q35 -94 131.5 -143t219.5 -49q84 0 156.5 22.5t127 65.5t86 104.5t31.5 139.5q0 139 -135 239 q84 70 121 141.5t37 147.5q0 109 -58.5 182.5t-197.5 132.5l-185 80q-166 72 -166 185q0 39 18.5 67.5t48.5 47t69 27.5t79 9q63 0 125 -31.5t97 -99.5h133l-35 103q-31 92 -121 139t-213 47q-80 0 -148.5 -23.5t-118.5 -66.5t-80 -104.5t-30 -137.5q0 -143 135 -242 q-84 -72 -120.5 -143.5t-36.5 -142.5zM244 610q0 51 31.5 105.5t82.5 89.5l226 -103q76 -35 101.5 -73t25.5 -97q0 -51 -31 -106t-84 -86l-221 100q-78 35 -104.5 73t-26.5 97z" />
<glyph unicode="&#xa8;" horiz-adv-x="577" d="M-4 1098q0 -51 41 -84h-2q39 -33 90 -33q49 0 88 33h-2q41 33 41 84q0 53 -41 86h2q-37 31 -88 30q-53 0 -90 -30h2q-41 -33 -41 -86zM324 1098q0 -51 41 -84h-3q39 -33 89 -33q51 0 90 33h-2q41 33 41 84q0 53 -41 86h2q-37 31 -90 30q-51 0 -89 -30h3q-41 -33 -41 -86z " />
<glyph unicode="&#xa9;" horiz-adv-x="1515" d="M10 721q0 -154 59.5 -290t161 -237.5t237.5 -160t290 -58.5t290 59.5t237 161t160.5 237.5t59.5 290t-59.5 289t-160.5 236.5t-237.5 160.5t-289.5 59q-154 0 -290 -59t-237.5 -160.5t-161 -238t-59.5 -289.5zM180 721q0 125 45 233.5t124 189.5t183.5 128t225.5 47 q119 0 225.5 -47t184 -128t123.5 -189.5t46 -233.5q0 -123 -46 -231.5t-123.5 -189.5t-184 -128t-225.5 -47q-121 0 -225.5 47t-183.5 128t-124 189.5t-45 231.5zM336 723q0 -102 31.5 -184t89 -140.5t138.5 -90.5t179 -32q45 0 72.5 1.5t54.5 10.5t61.5 28.5t96.5 54.5 l10 30l-47 80q-57 -33 -89 -50t-55.5 -25.5t-45 -9.5t-56.5 -1q-68 0 -124 23.5t-96 66.5t-62.5 103.5t-22.5 134.5t22.5 134.5t62.5 103.5t96.5 67.5t123.5 24.5q63 0 119.5 -29t91.5 -78l72 -4v203h-76v-25q-45 27 -99.5 39t-111.5 12q-98 0 -179 -32.5t-137.5 -92 t-88 -141.5t-31.5 -182z" />
<glyph unicode="&#xaa;" horiz-adv-x="657" d="M16 952q0 -86 61.5 -145t166.5 -59q47 0 96 15t94 54v-57h205v71l-84 3l-2 34v342q0 219 -250 220q-41 0 -65.5 -1.5t-45 -5.5t-45 -14t-65.5 -29l22 -88q47 12 74 18.5t44.5 9.5t31.5 3h41q131 0 131 -113v-51q-27 6 -52.5 9t-43.5 3q-147 0 -230.5 -58t-83.5 -161z M150 950q0 113 192 117q27 0 47.5 -6t36.5 -17v-51q-16 -61 -58 -101t-108 -40q-55 0 -82.5 28.5t-27.5 69.5z" />
<glyph unicode="&#xab;" horiz-adv-x="1015" d="M90 510l287 -436l178 2l-283 446l283 447l-178 2l-287 -436v-25zM461 510l287 -436l178 2l-283 446l283 447l-178 2l-287 -436v-25z" />
<glyph unicode="&#xac;" horiz-adv-x="1142" d="M41 717h887v-434h172v606h-488l35 74l-55 26l-10 -20l-154 73h2q-25 16 -37 37t-12 37q0 12 6 25q6 18 29 18q18 0 43 -10h-2l172 -82l-8 -23l51 -28l55 125l-51 24l-10 -20l-154 74q-49 39 -49 75q0 12 6 25q8 18 29 18q23 0 43 -10h-2l172 -84l-13 -22l58 -23l53 119 l-51 31l-13 -23l-90 41l211 74l41 86l-53 28l-18 -36l-191 -64l-55 168l16 31l-55 22l-55 -121l41 -18l45 -133l-7 4q-41 18 -77 18h-6l16 11l20 20q-14 25 -22 38t-14.5 22.5t-13.5 16.5t-19 17q-8 6 -13.5 10.5t-12.5 9.5t-19.5 11t-34.5 16l-37 -77q35 -16 67.5 -42 t55.5 -57q-47 -14 -68 -63q-12 -20 -12 -60q0 -29 8 -53q-51 -6 -76 -63q-16 -29 -16 -62q0 -16 2 -22l-12 6l-51 -103l53 -26q4 6 6 13t6 13l242 -112h-506v-172z" />
<glyph unicode="&#xad;" horiz-adv-x="622" d="M-8 580h540v135h-540v-135z" />
<glyph unicode="&#xae;" horiz-adv-x="1515" d="M10 721q0 -154 59.5 -290t161 -237.5t237.5 -160t290 -58.5t290 59.5t237 161t160.5 237.5t59.5 290t-59.5 289t-160.5 236.5t-237.5 160.5t-289.5 59q-154 0 -290 -59t-237.5 -160.5t-161 -238t-59.5 -289.5zM180 721q0 147 59.5 268t163.5 203v-16h74v-877h-74v-51 q-104 84 -163.5 206t-59.5 267zM451 217h231v82h-55v393h112q33 -45 52.5 -72.5t36 -52t36 -55.5t51.5 -82l134 -213h16q-68 -43 -144.5 -67.5t-162.5 -24.5t-164 24.5t-143 67.5zM502 1255q121 64 256 64q119 0 225.5 -47t184 -128t123.5 -189.5t46 -233.5 q0 -123 -44 -229.5t-122 -186.5q-27 43 -66.5 105.5t-72.5 109.5q-16 23 -32.5 46.5t-32.5 45.5v-2q-23 33 -44.5 60.5t-31.5 42.5q113 29 165 101.5t52 168.5q0 131 -84 201.5t-233 70.5h-289zM627 823v299h141q188 0 188 -139q0 -78 -56 -119t-155 -41h-118z" />
<glyph unicode="&#xaf;" horiz-adv-x="575" d="M6 846h563v98h-563v-98z" />
<glyph unicode="&#xb0;" horiz-adv-x="710" d="M45 1075q0 -63 24.5 -119.5t66.5 -98.5t98.5 -66.5t121.5 -24.5q63 0 119.5 24.5t98.5 66.5t67 98t25 122q0 63 -25 119.5t-67 98.5t-99 66.5t-121 24.5q-63 0 -119.5 -24.5t-98.5 -66.5t-66.5 -99t-24.5 -121zM182 1077q0 35 13.5 67t37 55.5t54 36.5t67.5 13 q35 0 67 -13t55.5 -36.5t36.5 -55.5t13 -69t-13 -67.5t-36.5 -54t-55.5 -37t-67 -13.5q-72 0 -122 50.5t-50 123.5z" />
<glyph unicode="&#xb1;" horiz-adv-x="1189" d="M66 0h1058v174h-1058v-174zM66 616h442v-385h174v385h442v175h-442v387h-174v-387h-442v-175z" />
<glyph unicode="&#xb2;" horiz-adv-x="624" d="M35 584h553l2 186h-72l-2 -76h-326q37 51 88.5 102.5t124.5 106.5h-2q29 20 60 51t56.5 67t41.5 77t16 82q0 104 -72.5 162.5t-191.5 58.5q-47 0 -90 -12.5t-76.5 -34t-56 -48t-27.5 -57.5v-22l78 -74q8 55 55.5 96t118.5 41q55 0 92 -31.5t37 -82.5t-37.5 -100.5 t-82.5 -84.5q-104 -80 -175 -167t-112 -165v-75z" />
<glyph unicode="&#xb3;" horiz-adv-x="626" d="M29 725q16 -63 85.5 -106.5t170.5 -43.5q141 0 228 66.5t87 177.5q0 74 -34 122t-93 71q51 29 80 72.5t29 101.5q0 100 -73 158.5t-200 58.5q-94 0 -159.5 -39t-81.5 -104l71 -74q16 45 61.5 75.5t106.5 30.5q66 0 108 -29.5t42 -78.5q0 -59 -49.5 -92t-135.5 -33h-16 l-63 4v-113h88q92 0 141 -30.5t49 -96.5q0 -61 -50 -99t-134 -38q-68 0 -118 36t-67 89z" />
<glyph unicode="&#xb4;" horiz-adv-x="491" d="M45 991l133 -2l266 303l-204 2z" />
<glyph unicode="&#xb5;" horiz-adv-x="1140" d="M53 1008h123v-1426h172v441q33 -20 77 -31.5t97 -11.5q92 0 168 35.5t131 99.5v-115h266v94h-98v1008h-299v-94h125v-588q-29 -127 -105.5 -203t-181.5 -76q-86 0 -132 63.5t-46 178.5v719h-297v-94z" />
<glyph unicode="&#xb6;" horiz-adv-x="1187" d="M74 1014q0 -86 28.5 -160t83 -129t130 -88t167.5 -39v-901h176v1556h209v-1556h176v1618h70v108h-579q-104 0 -189.5 -28.5t-146 -81.5t-93 -129t-32.5 -170z" />
<glyph unicode="&#xb8;" horiz-adv-x="522" d="M66 -332q25 -14 64.5 -24.5t82.5 -10.5q117 0 179.5 43t62.5 129q0 63 -44 105.5t-110 42.5h-2l29 98h-103l-61 -213l74 6h8q25 0 40 -13t15 -34q0 -29 -26.5 -43t-67.5 -14q-18 0 -39 5t-38 12t-30.5 14.5t-19.5 9.5z" />
<glyph unicode="&#xb9;" horiz-adv-x="497" d="M88 1296l43 -98l111 55v-600h-45v-69h211v69h-46v738h-65z" />
<glyph unicode="&#xba;" horiz-adv-x="704" d="M23 1087q0 -74 24.5 -137t67.5 -108t103.5 -71t133.5 -26q72 0 132.5 26t104.5 71t68.5 108t24.5 137t-24.5 137.5t-68.5 108.5t-104.5 71t-132.5 26q-74 0 -134 -26t-103 -71t-67.5 -108.5t-24.5 -137.5zM156 1087q0 104 54 168t142 64t141.5 -64t53.5 -168 q0 -102 -53.5 -166.5t-141.5 -64.5t-142 64.5t-54 166.5z" />
<glyph unicode="&#xbb;" horiz-adv-x="899" d="M31 76l178 -2l287 436v25l-287 436l-178 -2l282 -447zM401 76l179 -2l286 436v25l-286 436l-179 -2l283 -447z" />
<glyph unicode="&#xbc;" horiz-adv-x="1488" d="M51 1327l47 -98l121 55v-614h-49v-72h233v72h-49v755h-73zM160 -27h153l922 1469h-156zM778 295l25 -98h373v-125h-41v-72h202v72h-32v125h135v110h-135v524h-131zM932 307l244 340v-340h-244z" />
<glyph unicode="&#xbd;" horiz-adv-x="1607" d="M84 1327l47 -98l121 55v-614h-49v-72h235v72h-51v755h-74zM176 -27h154l921 1469h-155zM940 0h580l2 190h-76l-2 -77h-340q39 53 92 104t131 109h-2q31 23 63.5 54.5t58.5 68t43 77.5t17 84q0 104 -75.5 165t-202.5 61q-49 0 -94 -12.5t-81 -34t-59.5 -49t-27.5 -58.5 v-25l82 -75q10 57 59 99t123 42q59 0 97 -33t38 -84q0 -53 -39 -103t-86 -85q-111 -84 -183.5 -172t-117.5 -168v-78z" />
<glyph unicode="&#xbe;" horiz-adv-x="1595" d="M35 741q16 -66 91 -109.5t179 -43.5q147 0 238.5 68.5t91.5 181.5q0 76 -36 125t-97 71q53 29 82.5 75t29.5 105q0 102 -75.5 162t-208.5 60q-98 0 -168 -40t-86 -106l76 -76q16 45 62 76t112 31q72 0 114.5 -29.5t42.5 -79.5q0 -63 -52 -96t-140 -33h-19l-65 4v-116h92 q98 0 149.5 -32t51.5 -97q0 -61 -53.5 -101.5t-139.5 -40.5q-72 0 -125 39t-69 92zM324 -27h155l924 1469h-156zM899 295l25 -98h372v-125h-39v-72h203v72h-35v125h136v110h-136v524h-131zM1053 307l243 340v-340h-243z" />
<glyph unicode="&#xbf;" horiz-adv-x="792" d="M29 -27q0 -78 24.5 -148.5t74.5 -122.5t125 -83t175 -31q61 0 97 2t68 14.5t68.5 40t100.5 79.5l4 30l-70 101q-72 -37 -111.5 -57.5t-64 -30t-42 -10.5t-42.5 -1q-109 0 -169 59.5t-60 155.5q0 51 13 92t37 72t55.5 55.5t68.5 42.5q86 47 118.5 106.5t35.5 127.5 l-17 211h-143l-8 -223q-2 -23 -11.5 -34t-29.5 -28q-8 -6 -20.5 -17t-35.5 -32q-49 -16 -93 -51t-76.5 -82t-52 -107.5t-19.5 -130.5zM346 799h203v229h-203v-229z" />
<glyph unicode="&#xc0;" d="M14 0h330v96h-65l124 332h592l125 -332h-61v-96h332v96h-76l-467 1237h61v92h-399v-92h59l-479 -1237h-76v-96zM440 1810l291 -340l143 3l-208 339zM465 594l240 637l231 -637h-471z" />
<glyph unicode="&#xc1;" d="M14 0h330v96h-65l124 332h592l125 -332h-61v-96h332v96h-76l-467 1237h61v92h-399v-92h59l-479 -1237h-76v-96zM465 594l240 637l231 -637h-471zM524 1473l144 -3l290 340l-225 2z" />
<glyph unicode="&#xc2;" d="M14 0h330v96h-65l124 332h592l125 -332h-61v-96h332v96h-76l-467 1237h61v92h-399v-92h59l-479 -1237h-76v-96zM383 1473h143l172 188l176 -188h146l-223 335h-193zM465 594l240 637l231 -637h-471z" />
<glyph unicode="&#xc3;" d="M14 0h330v96h-65l124 332h592l125 -332h-61v-96h332v96h-76l-467 1235h61v92h-399v-92h59l-479 -1235h-76v-96zM383 1518l115 -2q16 49 31.5 66t41.5 17q41 0 115 -36q78 -39 148 -39q72 0 121 56t69 155l-23 26l-88 2q-16 -49 -33.5 -66.5t-39.5 -17.5q-41 0 -117 37 q-80 39 -145 39q-74 0 -123 -63.5t-72 -173.5zM465 594l240 637l231 -637h-471z" />
<glyph unicode="&#xc4;" d="M14 0h330v96h-65l124 332h592l125 -332h-61v-96h332v96h-76l-467 1237h61v90h-399v-90h59l-479 -1237h-76v-96zM397 1642q0 -59 41 -98h-2q39 -39 94 -39q25 0 49.5 9.5t43.5 29.5h-2q23 20 33 45t10 53q0 27 -10.5 52.5t-32.5 44.5h2q-18 20 -43 29.5t-50 9.5 q-55 0 -94 -39h2q-23 -18 -32 -44t-9 -53zM465 594l240 637l231 -637h-471zM737 1642q0 -29 10.5 -53t32.5 -45h-2q18 -20 43 -29.5t49 -9.5q55 0 95 39h-2q41 39 41 98q0 27 -9.5 52.5t-31.5 44.5h2q-39 39 -95 39q-25 0 -49 -9.5t-43 -29.5h2q-23 -18 -33 -44t-10 -53z " />
<glyph unicode="&#xc5;" d="M14 0h330v96h-65l124 332h592l125 -332h-61v-96h332v96h-76l-467 1237h61v92h-399v-92h59l-479 -1237h-76v-96zM465 594l240 639l231 -639h-471zM492 1663q0 -43 16 -81t45 -67.5t67.5 -46t81.5 -16.5t81 16.5t68 46t46 67.5t16 81t-16 82t-46 68.5t-68 46t-81 16.5 t-81.5 -16.5t-67.5 -46t-45 -68.5t-16 -82zM604 1663q0 41 29 69.5t69 28.5q41 0 69 -28.5t28 -69.5t-28 -68.5t-69 -27.5t-69.5 27.5t-28.5 68.5z" />
<glyph unicode="&#xc6;" horiz-adv-x="1781" d="M-14 0h338v96h-64l225 387h467v-387h-94v-96h936v270h-96v-104h-555l-2 479h522v166h-522l-2 438h544v-100h97v266h-1073v-96h75l-723 -1221l-73 -4v-94zM578 649l366 604h4l2 -604h-372z" />
<glyph unicode="&#xc7;" horiz-adv-x="1253" d="M37 713q0 -152 42 -277t118.5 -219t187.5 -153.5t246 -77.5l-47 -160l80 6h8q29 0 44 -14.5t15 -36.5q0 -31 -27.5 -47.5t-72.5 -16.5q-20 0 -42 6.5t-41.5 14.5t-33.5 15t-20 11l-15 -122q27 -14 69 -25.5t89 -11.5q125 0 192.5 46t67.5 140q0 66 -48 113t-118 47h-2 l8 26h11q74 0 116.5 2.5t86.5 17.5t101.5 48t157.5 92l7 31l-70 121q-90 -53 -141.5 -81t-88 -41t-72.5 -15t-95 -2q-117 0 -212.5 40.5t-164 114.5t-106.5 177.5t-38 230.5q0 125 38 229.5t106.5 179t164 115.5t212.5 41q106 0 203.5 -45t152.5 -131l94 -2v305h-94v-55 q-74 51 -168 75.5t-197 24.5q-158 0 -287.5 -53.5t-222 -150.5t-143.5 -233t-51 -300z" />
<glyph unicode="&#xc8;" horiz-adv-x="1038" d="M47 0h944v272h-94v-104h-553v481h520v168h-520v440h543v-100h92v268h-932v-96h113v-1233h-113v-96zM274 1810l287 -340l141 3l-206 339z" />
<glyph unicode="&#xc9;" horiz-adv-x="1038" d="M47 0h944v272h-94v-104h-553v481h520v168h-520v440h543v-100h92v268h-932v-96h113v-1233h-113v-96zM356 1473l142 -3l286 340l-221 2z" />
<glyph unicode="&#xca;" horiz-adv-x="1038" d="M47 0h944v272h-94v-104h-553v481h520v168h-520v440h543v-100h92v268h-932v-96h113v-1233h-113v-96zM217 1473h141l170 188l174 -188h144l-219 335h-193z" />
<glyph unicode="&#xcb;" horiz-adv-x="1038" d="M47 0h944v272h-94v-104h-553v481h520v168h-520v438h543v-98h92v266h-932v-94h113v-1233h-113v-96zM231 1642q0 -59 41 -98h-2q18 -20 43 -29.5t49 -9.5q53 0 93 39h-2q41 39 41 98q0 27 -9.5 52.5t-31.5 44.5h2q-39 39 -93 39q-25 0 -49 -9.5t-43 -29.5h2 q-23 -18 -32 -44t-9 -53zM567 1642q0 -59 41 -98h-2q39 -39 92 -39q25 0 49.5 9.5t43.5 29.5h-3q41 39 41 98q0 27 -9 52.5t-32 44.5h3q-18 20 -43 29.5t-50 9.5q-53 0 -92 -39h2q-23 -18 -32 -44t-9 -53z" />
<glyph unicode="&#xcc;" horiz-adv-x="473" d="M37 1810l268 -340l131 3l-192 339zM113 0h313v96h-61v1233h61v96h-313v-96h80v-1233h-80v-96z" />
<glyph unicode="&#xcd;" horiz-adv-x="475" d="M37 0h315v96h-63v1233h63v96h-315v-96h80v-1233h-80v-96zM39 1473l131 -3l270 340l-207 2z" />
<glyph unicode="&#xce;" horiz-adv-x="530" d="M-39 1473h135l166 188l170 -188h137l-213 335h-184zM94 0h326v96h-66v1233h66v96h-326v-96h82v-1233h-82v-96z" />
<glyph unicode="&#xcf;" horiz-adv-x="516" d="M-33 1642q0 -59 41 -98h-2q37 -39 88 -39q53 0 90 39h-2q41 39 41 98q0 27 -9 52.5t-32 44.5h2q-37 39 -90 39q-51 0 -88 -39h2q-23 -18 -32 -44t-9 -53zM88 0h326v96h-64v1233h64v94h-326v-94h82v-1233h-82v-96zM295 1642q0 -29 8 -53t31 -45h-2q37 -39 90 -39t90 39h-2 q23 20 31 45t8 53q0 27 -8.5 52.5t-30.5 44.5h2q-37 39 -90 39t-90 -39h2q-23 -18 -31 -44t-8 -53z" />
<glyph unicode="&#xd0;" horiz-adv-x="1269" d="M-4 637h156v-541h-78v-96h420q197 0 343 49t243.5 141.5t144.5 223.5t47 293q0 166 -46 298t-136.5 223t-225.5 139t-315 48h-475v-92h78v-522h-156v-164zM340 166v471h397v164h-397v448h205q266 0 400 -137t134 -405q0 -270 -144 -405.5t-431 -135.5h-164z" />
<glyph unicode="&#xd1;" horiz-adv-x="1263" d="M12 0h355v96h-82v1053l684 -1155h205v1333h77v96h-336v-96h82v-1038q-111 190 -219 371.5t-219 367.5q-57 96 -117.5 196.5t-119.5 198.5h-310v-96h99v-1231h-99v-96zM319 1518l117 -2q16 49 30.5 66t43.5 17q45 0 115 -34q82 -41 145 -41q72 0 121 56t70 155l-25 26 l-88 2q-16 -49 -32.5 -66.5t-41.5 -17.5q-41 0 -117 37q-78 39 -143 39q-76 0 -124 -63.5t-71 -173.5z" />
<glyph unicode="&#xd2;" horiz-adv-x="1429" d="M45 713q0 -164 48 -299t136 -232.5t211 -151t273 -53.5q152 0 275.5 53.5t210.5 151t135 232.5t48 299t-48 300t-135 233t-211 150.5t-275 53.5q-150 0 -273 -53.5t-211 -150.5t-136 -233t-48 -300zM240 713q0 125 34.5 228t97 178t149.5 117t192 42q106 0 193 -42 t149.5 -117t97.5 -178t35 -228t-35 -228.5t-97.5 -178.5t-149.5 -115.5t-193 -40.5q-104 0 -191.5 40.5t-150 115.5t-97 178.5t-34.5 228.5zM449 1810l290 -340l142 3l-209 339z" />
<glyph unicode="&#xd3;" horiz-adv-x="1429" d="M45 713q0 -164 48 -299t136 -232.5t211 -151t273 -53.5q152 0 275.5 53.5t210.5 151t135 232.5t48 299t-48 300t-135 233t-211 150.5t-275 53.5q-150 0 -273 -53.5t-211 -150.5t-136 -233t-48 -300zM240 713q0 125 34.5 228t97 178t149.5 117t192 42q106 0 193 -42 t149.5 -117t97.5 -178t35 -228t-35 -228.5t-97.5 -178.5t-149.5 -115.5t-193 -40.5q-104 0 -191.5 40.5t-150 115.5t-97 178.5t-34.5 228.5zM530 1473l144 -3l291 340l-224 2z" />
<glyph unicode="&#xd4;" horiz-adv-x="1429" d="M45 713q0 -164 48 -299t136 -232.5t211 -151t273 -53.5q152 0 275.5 53.5t210.5 151t135 232.5t48 299t-48 300t-135 233t-211 150.5t-275 53.5q-150 0 -273 -53.5t-211 -150.5t-136 -233t-48 -300zM240 713q0 125 34.5 228t97 178t149.5 117t192 42q106 0 193 -42 t149.5 -117t97.5 -178t35 -228t-35 -228.5t-97.5 -178.5t-149.5 -115.5t-193 -40.5q-104 0 -191.5 40.5t-150 115.5t-97 178.5t-34.5 228.5zM391 1473h141l173 188l176 -188h145l-221 335h-195z" />
<glyph unicode="&#xd5;" horiz-adv-x="1429" d="M45 713q0 -164 48 -299t136 -232.5t211 -151t273 -53.5q152 0 275.5 53.5t210.5 151t135 232.5t48 299t-48 299t-135 232t-211 150.5t-275 53.5q-150 0 -273 -53.5t-211 -150.5t-136 -232t-48 -299zM240 713q0 125 34.5 228t97 178t149.5 116t192 41q106 0 193 -41 t149.5 -116t97.5 -178t35 -228t-35 -228.5t-97.5 -178.5t-149.5 -115.5t-193 -40.5q-104 0 -191.5 40.5t-150 115.5t-97 178.5t-34.5 228.5zM391 1518l115 -2q16 51 30.5 67t41.5 16q47 0 116 -34q86 -41 146 -41q74 0 122 56t68 157l-22 24l-88 2q-16 -49 -33 -66.5 t-41 -17.5q-20 0 -49 8.5t-68 28.5q-78 39 -145 39q-74 0 -123 -63.5t-70 -173.5z" />
<glyph unicode="&#xd6;" horiz-adv-x="1429" d="M45 713q0 -164 48 -299t136 -232.5t211 -151t273 -53.5q152 0 275.5 53.5t210.5 151t135 232.5t48 299t-48 299t-135 232t-211 150.5t-275 53.5q-150 0 -273 -53.5t-211 -150.5t-136 -232t-48 -299zM240 713q0 125 34.5 228t97 178t149.5 116t192 41q106 0 193 -41 t149.5 -116t97.5 -178t35 -228t-35 -228.5t-97.5 -178.5t-149.5 -115.5t-193 -40.5q-104 0 -191.5 40.5t-150 115.5t-97 178.5t-34.5 228.5zM403 1642q0 -29 10.5 -53t32.5 -45h-2q18 -20 43 -28.5t50 -8.5q57 0 94 37h-2q41 39 41 98q0 27 -9.5 52.5t-31.5 46.5h2 q-41 37 -94 37q-25 0 -49.5 -9.5t-43.5 -27.5h2q-23 -20 -33 -46t-10 -53zM745 1642q0 -59 41 -98h-2q37 -37 95 -37q25 0 48 8.5t44 28.5h-2q23 20 32 45t9 53q0 27 -9.5 52.5t-31.5 46.5h2q-41 37 -92 37q-55 0 -95 -37h2q-23 -20 -32 -46t-9 -53z" />
<glyph unicode="&#xd7;" horiz-adv-x="1124" d="M70 205l123 -123l368 371l371 -371l123 123l-369 370l369 369l-123 125l-371 -371l-368 371l-123 -125l368 -369z" />
<glyph unicode="&#xd8;" horiz-adv-x="1505" d="M84 711q0 -297 154 -490l-148 -170l103 -92l139 160q166 -141 420 -142q152 0 275.5 53.5t210.5 149.5t135 231.5t48 299.5q0 297 -153 487l147 174l-102 92l-144 -164q-166 141 -417 142q-150 0 -273 -53.5t-211 -149.5t-136 -231.5t-48 -296.5zM279 711q0 123 34.5 226 t97 177t149.5 115t192 41q178 0 297 -109l-684 -794q-86 135 -86 344zM455 258l684 793q88 -133 88 -340q0 -125 -35 -228.5t-97.5 -177.5t-149.5 -114.5t-193 -40.5q-180 0 -297 108z" />
<glyph unicode="&#xd9;" horiz-adv-x="1320" d="M82 1329h72v-856q0 -236 135 -366t373 -130q242 0 374.5 130.5t132.5 365.5v856h72v96h-328v-96h70v-854q0 -156 -84 -242t-237 -86q-152 0 -237 86t-85 242v854h70v96h-328v-96zM403 1810l291 -340l142 3l-209 339z" />
<glyph unicode="&#xda;" horiz-adv-x="1320" d="M82 1329h72v-856q0 -236 135 -366t373 -130q242 0 374.5 130.5t132.5 365.5v856h72v96h-328v-96h70v-854q0 -156 -84 -242t-237 -86q-152 0 -237 86t-85 242v854h70v96h-328v-96zM485 1473l144 -3l289 340l-224 2z" />
<glyph unicode="&#xdb;" horiz-adv-x="1320" d="M82 1329h72v-856q0 -236 135 -366t373 -130q242 0 374.5 130.5t132.5 365.5v856h72v96h-328v-96h70v-854q0 -156 -84 -242t-237 -86q-152 0 -237 86t-85 242v854h70v96h-328v-96zM346 1473h141l172 188l177 -188h143l-221 335h-193z" />
<glyph unicode="&#xdc;" horiz-adv-x="1320" d="M82 1329h72v-856q0 -236 135 -366t373 -130q242 0 374.5 130.5t132.5 365.5v856h72v96h-328v-96h70v-854q0 -156 -84 -242t-237 -86q-152 0 -237 86t-85 242v854h70v96h-328v-96zM360 1642q0 -59 41 -98h-2q20 -20 44 -28.5t49 -8.5q57 0 94 37h-2q41 39 41 98 q0 27 -9.5 52.5t-31.5 46.5h2q-41 37 -94 37t-93 -37h2q-23 -20 -32 -46t-9 -53zM698 1642q0 -29 10.5 -53t32.5 -45h-2q18 -20 43 -28.5t49 -8.5q25 0 49.5 8.5t43.5 28.5h-2q23 20 32 45t9 53q0 27 -9.5 52.5t-31.5 46.5h2q-18 18 -43 27.5t-50 9.5t-49 -9.5t-43 -27.5h2 q-23 -20 -33 -46t-10 -53z" />
<glyph unicode="&#xdd;" horiz-adv-x="1271" d="M4 1329h82l461 -711v-522h-78v-96h344v96h-80v522l453 711h82v96h-336v-96h55l-344 -543l-340 543h55v96h-354v-96zM463 1473l143 -3l289 340l-223 2z" />
<glyph unicode="&#xde;" horiz-adv-x="966" d="M25 0h331v96h-73v217h202q104 0 189.5 30t146 84t92 132t31.5 174q0 199 -119.5 309.5t-335.5 110.5h-206v166h73v96h-331v-96h73v-1223h-73v-96zM283 481v506h202q133 0 203 -62.5t70 -187.5q0 -135 -80 -193.5t-240 -60.5z" />
<glyph unicode="&#xdf;" horiz-adv-x="1081" d="M23 0h366v94h-82v922q0 94 18.5 156.5t51.5 100.5t79 53t99 15q43 0 84 -14t72.5 -42t51 -69.5t19.5 -97.5q0 -111 -65.5 -176t-171.5 -65h-47v-154h43q166 0 249.5 -72.5t83.5 -212.5q0 -61 -16 -115.5t-48 -94.5t-79 -62.5t-106 -22.5h-37q-12 0 -27.5 3.5t-37 8.5 t-60.5 15l-4 -166q41 -6 63.5 -10t39 -6t30.5 -2h39q102 0 182 34.5t135.5 96t84 145.5t28.5 180q0 143 -69.5 240.5t-198.5 136.5q94 47 134 131t40 176q0 170 -109.5 271.5t-298.5 101.5q-96 0 -174 -27.5t-135 -84t-88 -143.5t-31 -206v-942l-108 -2v-94z" />
<glyph unicode="&#xe0;" horiz-adv-x="1060" d="M66 315q0 -72 23.5 -133t66.5 -106t105.5 -72t139.5 -27q74 0 152 31t147 98v-106h293v94l-127 2l-4 72v594q0 270 -213 340h27l-209 338l-219 -2l266 -314h-22q-63 0 -100.5 -1t-69 -8t-68.5 -23.5t-98 -44.5l41 -129q61 20 97 30t62.5 15.5t53 6.5t69.5 1 q100 0 154.5 -50.5t54.5 -158.5v-111q-43 16 -84 22.5t-72 6.5q-221 0 -343.5 -99.5t-122.5 -265.5zM246 313q0 98 76.5 154.5t226.5 58.5q43 0 79.5 -12.5t59.5 -28.5v-102q-23 -113 -92.5 -182.5t-173.5 -69.5q-88 0 -132 52.5t-44 129.5z" />
<glyph unicode="&#xe1;" horiz-adv-x="1062" d="M68 315q0 -72 23.5 -133t66.5 -106t105.5 -72t139.5 -27q74 0 152 31t147 98v-106h293v94l-127 2l-4 72v594q0 180 -94 271t-276 91h-2l268 314l-221 2l-199 -322q-35 -6 -74 -22.5t-108 -48.5l41 -129q61 20 97 30t62.5 15.5t53 6.5t69.5 1q100 0 154.5 -50.5 t54.5 -158.5v-111q-43 16 -84 22.5t-71 6.5q-221 0 -344 -99.5t-123 -265.5zM248 313q0 98 76.5 154.5t226.5 58.5q43 0 80 -12t59 -29v-102q-23 -113 -92.5 -182.5t-173.5 -69.5q-88 0 -132 52.5t-44 129.5z" />
<glyph unicode="&#xe2;" horiz-adv-x="1067" d="M70 315q0 -72 23.5 -133t66.5 -106t105.5 -72t140.5 -27q74 0 151.5 31t147.5 98v-106h292v94l-127 2l-4 72v594q0 180 -94 271t-276 91q-53 0 -86 -1t-60 -5l156 172l174 -188h141l-219 334h-190l-217 -334h90q-23 -8 -53.5 -21.5t-71.5 -33.5l41 -129q61 20 97 30 t62.5 15.5t53 6.5t69.5 1q100 0 154.5 -50.5t54.5 -158.5v-111q-43 16 -84 22.5t-71 6.5q-221 0 -344 -99.5t-123 -265.5zM250 313q0 98 76.5 154.5t226.5 58.5q43 0 80 -12t59 -29v-102q-23 -113 -92.5 -182.5t-173.5 -69.5q-88 0 -132 52.5t-44 129.5z" />
<glyph unicode="&#xe3;" horiz-adv-x="1069" d="M70 315q0 -72 23.5 -133t66.5 -106t105.5 -72t140.5 -27q74 0 151.5 31t147.5 98v-106h292v94l-127 2l-4 72v592q0 180 -94 272t-276 92q-63 0 -100.5 -1t-69 -8t-68.5 -23.5t-98 -44.5l41 -129q61 20 97 30t62.5 15.5t53 6.5t69.5 1q100 0 154.5 -50.5t54.5 -160.5v-109 q-43 16 -84 21.5t-71 5.5q-223 0 -345 -98.5t-122 -264.5zM195 1147l112 -2q16 49 30.5 66.5t43.5 17.5q39 0 113 -37q78 -39 143 -39q72 0 121 56.5t67 154.5l-20 25l-88 2q-16 -49 -32.5 -65.5t-41.5 -16.5q-20 0 -48 7t-67 27q-78 39 -143 39q-72 0 -121 -62.5 t-69 -172.5zM250 313q0 98 76.5 154.5t226.5 58.5q43 0 80 -12t59 -31v-100q-23 -113 -92.5 -182.5t-173.5 -69.5q-88 0 -132 52.5t-44 129.5z" />
<glyph unicode="&#xe4;" horiz-adv-x="1069" d="M72 315q0 -72 23.5 -133t66.5 -106t105.5 -72t140.5 -27q74 0 151.5 31t147.5 98v-106h292v94l-127 2l-4 72v592q0 180 -94 272t-276 92q-63 0 -100.5 -1t-69 -8t-68.5 -23.5t-98 -44.5l41 -129q61 20 97 30t62.5 15.5t53 6.5t69.5 1q100 0 154.5 -50.5t54.5 -160.5v-109 q-43 16 -84 22.5t-71 6.5q-221 0 -344 -99.5t-123 -265.5zM211 1270q0 -27 9 -51.5t32 -44.5h-2q37 -39 92 -39q53 0 90 39h-2q23 20 32 44.5t9 51.5q0 29 -9 53.5t-32 44.5h2q-18 20 -41.5 28.5t-48.5 8.5q-57 0 -92 -37h2q-23 -20 -32 -45t-9 -53zM252 313q0 98 77 154.5 t226 58.5q43 0 80 -12t59 -29v-102q-23 -113 -92.5 -182.5t-173.5 -69.5q-88 0 -132 52.5t-44 129.5zM547 1270q0 -27 9 -51.5t32 -44.5h-2q37 -39 92 -39q53 0 90 39h-2q23 20 33 44.5t10 51.5q0 29 -10.5 53.5t-32.5 44.5h2q-18 20 -42 28.5t-48 8.5q-57 0 -92 -37h2 q-23 -20 -32 -45t-9 -53z" />
<glyph unicode="&#xe5;" horiz-adv-x="1056" d="M63 315q0 -72 24 -133t67 -106t105.5 -72t139.5 -27q74 0 152 31t147 98v-106h293v94l-127 2l-4 74v592q0 291 -244 350q43 29 69 75t26 99q0 43 -16.5 82t-45 67.5t-65.5 45t-80 16.5t-82 -16.5t-66.5 -45t-44 -67.5t-16.5 -82q0 -51 21.5 -94t58.5 -72q-31 -2 -53.5 -6 t-45 -12t-51 -20.5t-71.5 -32.5l41 -129q61 20 97 30.5t62.5 15.5t53 6t69.5 1q100 0 154.5 -50.5t54.5 -160.5v-109q-43 14 -84 20.5t-72 6.5q-221 0 -344 -99.5t-123 -265.5zM244 313q0 98 76.5 154.5t226.5 58.5q43 0 79.5 -11.5t59.5 -29.5v-102q-23 -111 -92.5 -181.5 t-173.5 -70.5q-88 0 -132 52.5t-44 129.5zM408 1286q0 41 27.5 69.5t68.5 28.5q39 0 66.5 -28.5t27.5 -69.5t-27.5 -68.5t-66.5 -27.5q-41 0 -68.5 27.5t-27.5 68.5z" />
<glyph unicode="&#xe6;" horiz-adv-x="1669" d="M55 313q0 -70 24.5 -131t70 -106t110 -72t143.5 -27q131 0 228.5 52.5t159.5 136.5q70 -104 170 -148.5t206 -44.5q63 0 101.5 2t76 14.5t90 38t144.5 74.5l-70 138q-72 -41 -111.5 -63.5t-68.5 -33t-56.5 -12.5t-72.5 -2q-154 0 -242 113q-74 96 -90 250h742l6 45 q-2 129 -34 235.5t-89 182t-139 117.5t-187 42q-209 0 -344 -162q-41 76 -120.5 119t-210.5 43q-66 0 -105 -2t-73.5 -11t-76.5 -31.5t-114 -61.5l72 -119q66 27 102.5 42t63 22.5t52 8.5t68.5 1q102 0 159.5 -49.5t57.5 -159.5v-107q-47 14 -89 20.5t-74 6.5 q-227 0 -353.5 -97.5t-126.5 -263.5zM238 311q0 98 79.5 153.5t235.5 57.5q45 0 84 -12t61 -29v-100q-23 -111 -95.5 -181.5t-178.5 -70.5q-92 0 -139 52t-47 130zM872 641q19 131 76 209q78 109 215 108q111 0 180.5 -85t79.5 -232h-551z" />
<glyph unicode="&#xe7;" horiz-adv-x="923" d="M45 551q0 -113 27.5 -209t79 -170t125 -122t163.5 -66l-43 -158l78 6h6q27 0 43.5 -14.5t16.5 -36.5q0 -29 -28 -45.5t-73 -16.5q-18 0 -39.5 6.5t-40 13.5t-33 14t-20.5 11l-16 -120q29 -16 69.5 -26.5t85.5 -10.5q123 0 191 46t68 138q0 68 -48.5 114t-115.5 46h-2 l6 22h4q119 0 202 52.5t126 134.5l-3 20l-71 127q-14 -31 -40 -61.5t-58.5 -55t-70.5 -40t-79 -15.5q-74 0 -134.5 31t-103.5 86t-66.5 132t-23.5 169t23.5 169t66.5 130t103.5 83t134.5 30q37 0 72 -10.5t64.5 -30t52 -45t32.5 -56.5h90v326h-90v-82q-47 27 -106.5 43 t-128.5 16q-109 0 -199 -43t-156.5 -119.5t-103.5 -182t-37 -230.5z" />
<glyph unicode="&#xe8;" horiz-adv-x="1015" d="M43 549q0 -133 34 -239.5t98.5 -181.5t156.5 -115t207 -40q61 0 98 2t74 14.5t87 38t138 74.5l-70 142q-74 -43 -114.5 -65.5t-69.5 -33t-55.5 -12.5t-69.5 -2q-154 0 -242 113q-74 96 -90 252h742l4 47q-4 221 -86 366.5t-230 192.5h23l-207 338l-221 -2l266 -314h-6 q-102 0 -187 -43t-147.5 -119.5t-97.5 -182t-35 -230.5zM229 645q8 66 28.5 118t49.5 93q78 111 215 111q111 0 179.5 -87t84.5 -235h-557z" />
<glyph unicode="&#xe9;" horiz-adv-x="1017" d="M45 549q0 -133 34 -239.5t98.5 -181.5t156.5 -115t207 -40q61 0 98 2t74 14.5t87 38t138 74.5l-70 142q-74 -43 -114.5 -65.5t-69.5 -33t-55.5 -12.5t-69.5 -2q-154 0 -242 113q-74 96 -90 252h742l4 47q-2 135 -35 242.5t-91.5 183t-143.5 115.5t-191 40h-18l268 314 l-221 2l-207 -338l41 -2q-74 -25 -134.5 -76t-104.5 -123t-67.5 -161t-23.5 -191zM231 645q8 66 28.5 118t49.5 93q78 111 215 111q111 0 179.5 -87t84.5 -235h-557z" />
<glyph unicode="&#xea;" horiz-adv-x="1021" d="M47 549q0 -133 34 -239.5t98.5 -181.5t156.5 -115t207 -40q61 0 98 2t74 14.5t87 38t138 74.5l-70 142q-74 -43 -114.5 -65.5t-69.5 -33t-55.5 -12.5t-69.5 -2q-154 0 -242 113q-74 96 -90 252h742l4 47q-2 135 -35 242.5t-91 183t-143 115.5t-192 40q-102 0 -187 -43 t-147.5 -119.5t-97.5 -182t-35 -230.5zM199 1102h139l170 188l174 -188h143l-219 334h-192zM233 645q8 66 28.5 118t49.5 93q78 111 215 111q111 0 179.5 -87t85.5 -235h-558z" />
<glyph unicode="&#xeb;" horiz-adv-x="1024" d="M47 549q0 -133 34 -239.5t98.5 -181.5t156.5 -115t207 -40q61 0 98 2t74 14.5t87 38t138 74.5l-70 142q-74 -43 -114.5 -65.5t-69.5 -33t-55.5 -12.5t-69.5 -2q-154 0 -242 113q-74 94 -90 250h742l4 49q-2 135 -35 242.5t-91 183t-143 115.5t-192 40q-102 0 -187 -44 t-147.5 -120.5t-97.5 -182t-35 -228.5zM211 1270q0 -57 41 -96h-2q20 -20 43.5 -28.5t48.5 -8.5t49.5 8t42.5 29h-2q41 39 41 96q0 59 -41 98h2q-18 20 -42.5 28.5t-49.5 8.5t-48.5 -8t-43.5 -29h2q-41 -39 -41 -98zM233 645q8 66 28.5 118t49.5 93q78 111 215 111 q111 0 179.5 -87t85.5 -235h-558zM547 1270q0 -57 41 -96h-2q20 -20 43.5 -28.5t48.5 -8.5t49.5 8t42.5 29h-2q41 39 41 96q0 59 -41 98h2q-18 20 -43 28.5t-49 8.5q-25 0 -48.5 -8t-43.5 -29h2q-41 -39 -41 -98z" />
<glyph unicode="&#xec;" horiz-adv-x="495" d="M35 1438l270 -338h-170v-86l64 -6v-914h-99v-94h359v94h-99v1006h-55l133 2l-196 338z" />
<glyph unicode="&#xed;" horiz-adv-x="540" d="M63 0h357v94h-96v1006h-117l270 338l-207 2l-196 -338l133 -2h-109v-86l64 -6v-914h-99v-94z" />
<glyph unicode="&#xee;" horiz-adv-x="522" d="M-45 1102h137l164 186l170 -186h139l-213 334h-186zM78 0h368v94h-100v1006h-231v-88l63 -4v-914h-100v-94z" />
<glyph unicode="&#xef;" horiz-adv-x="591" d="M4 1270q0 -27 9.5 -52.5t31.5 -43.5h-2q37 -39 90 -39q51 0 88 39h-2q23 18 32 43.5t9 52.5q0 59 -41 98h2q-37 37 -88 37q-53 0 -90 -37h2q-41 -39 -41 -98zM115 0h368v94h-100v1006h-231v-88l65 -6v-912h-102v-94zM332 1270q0 -27 9 -52.5t32 -43.5h-2q37 -39 88 -39 q53 0 90 39h-2q23 18 32 43.5t9 52.5q0 59 -41 98h2q-37 37 -90 37q-51 0 -88 -37h2q-41 -39 -41 -98z" />
<glyph unicode="&#xf0;" horiz-adv-x="1085" d="M47 543q0 -125 37 -229.5t102.5 -180.5t157.5 -119t201 -43q117 0 209 45t155.5 130t96 206t32.5 273q0 162 -44 299t-130 256q-33 45 -100 106l211 113l-107 108l-229 -121q-104 74 -295 117l-115 -119q162 -41 252 -79l-225 -119l96 -99q-70 -31 -126 -83t-96 -122.5 t-61.5 -156.5t-21.5 -182zM231 545q0 92 22.5 169t62.5 132t97.5 86t129.5 31q70 0 127 -32t98 -86t63.5 -129t22.5 -161q0 -88 -23.5 -165t-65.5 -133t-99.5 -89t-122.5 -33q-68 0 -124.5 31t-98 86t-65.5 130t-24 163zM440 1116l183 98q24 -18 34 -28q82 -78 119 -144 q-109 84 -239 84q-25 0 -48.5 -3t-48.5 -7z" />
<glyph unicode="&#xf1;" horiz-adv-x="1120" d="M82 0h330v94h-86v580q29 135 103.5 213t178.5 78q78 0 125 -64.5t47 -173.5v-633h-82v-94h340v94h-84v635q0 186 -85 289.5t-238 103.5q-193 0 -312 -141v119h-237v-92q29 -2 43 -2h27v-912h-70v-94zM227 1147l115 -2q16 49 30.5 66.5t41.5 17.5q41 0 112 -37 q78 -39 146 -39q72 0 120 55.5t68 153.5l-22 27l-88 2q-16 -49 -33 -66.5t-39 -17.5q-41 0 -115 36q-78 39 -143 39q-74 0 -122 -62.5t-71 -172.5z" />
<glyph unicode="&#xf2;" horiz-adv-x="1028" d="M20 549q0 -125 37 -230.5t102.5 -182.5t156 -120t198.5 -43q109 0 199 43t155.5 120t101.5 182.5t36 230.5q0 102 -25 192t-70 162t-108.5 123t-140.5 76h22l-207 338l-221 -2l266 -314h-8q-109 0 -199 -43t-155.5 -118.5t-102.5 -182t-37 -231.5zM205 549q0 90 22.5 166 t63.5 131t98 86t125 31t125 -31t97 -86t62.5 -131t22.5 -166t-22.5 -166t-62.5 -130t-97 -85t-125 -31t-125 31t-98 85t-63.5 130t-22.5 166z" />
<glyph unicode="&#xf3;" horiz-adv-x="1030" d="M23 549q0 -125 36.5 -230.5t102 -182.5t156 -120t198.5 -43q109 0 199 43t155.5 120t101.5 182.5t36 230.5t-36 231.5t-101.5 182t-155.5 118.5t-199 43h-14l268 314l-221 2l-209 -338h31q-80 -25 -143.5 -76t-109.5 -123t-70.5 -162t-24.5 -192zM207 549q0 90 22.5 166 t63.5 131t98.5 86t124.5 31q68 0 125 -31t97 -86t62.5 -131t22.5 -166t-22.5 -166t-62.5 -130t-97 -85t-125 -31t-125 31t-98 85t-63.5 130t-22.5 166z" />
<glyph unicode="&#xf4;" horiz-adv-x="1034" d="M25 549q0 -125 36.5 -230.5t102 -182.5t156 -120t198.5 -43q109 0 199 43t155.5 120t101.5 182.5t36 230.5t-36 231.5t-101.5 182t-155.5 118.5t-199 43t-199 -43t-155.5 -118.5t-102 -182t-36.5 -231.5zM203 1102h141l170 188l174 -188h143l-219 334h-192zM209 549 q0 90 22.5 166t63.5 131t98.5 86t124.5 31q68 0 125 -31t97 -86t62.5 -131t22.5 -166t-22.5 -166t-62.5 -130t-97 -85t-125 -31t-125 31t-98 85t-63.5 130t-22.5 166z" />
<glyph unicode="&#xf5;" horiz-adv-x="1036" d="M25 547q0 -123 36.5 -228.5t102 -182.5t156 -120t198.5 -43q109 0 199 43t155.5 120t101.5 182.5t36 228.5q0 125 -36 231.5t-101.5 183t-155.5 119.5t-199 43t-199 -43t-155.5 -119.5t-102 -183t-36.5 -231.5zM203 1147l114 -2q16 49 30.5 66.5t41.5 17.5q43 0 115 -37 q78 -39 143 -39q72 0 121 56.5t68 154.5l-21 25l-88 2q-16 -49 -32.5 -65.5t-41.5 -16.5q-43 0 -114 34q-82 41 -144 41q-74 0 -122 -63.5t-70 -173.5zM209 547q0 92 22.5 168t63.5 130t98.5 85t124.5 31q68 0 125 -31t97 -85t62.5 -130t22.5 -168q0 -90 -22.5 -165 t-62.5 -129t-97 -85t-125 -31t-125 31t-98 85t-63.5 129t-22.5 165z" />
<glyph unicode="&#xf6;" horiz-adv-x="1036" d="M27 549q0 -125 36.5 -230.5t102 -182.5t156 -120t198.5 -43q109 0 199 43t155.5 120t101.5 182.5t36 230.5t-36 230.5t-101.5 182t-155.5 119.5t-199 43t-199 -43t-155.5 -119.5t-102 -182t-36.5 -230.5zM211 549q0 90 22.5 166t63.5 130t98.5 85t124.5 31q68 0 125 -31 t97 -85t62.5 -130t22.5 -166t-22.5 -166t-62.5 -130t-97 -85t-125 -31t-125 31t-98 85t-63.5 130t-22.5 166zM219 1270q0 -57 41 -96h-2q20 -20 44 -28.5t48 -8.5q25 0 49.5 8t42.5 29h-2q41 39 41 96q0 59 -41 98h2q-18 20 -42.5 28.5t-49.5 8.5t-48 -8t-44 -29h2 q-41 -39 -41 -98zM555 1270q0 -27 10 -51.5t33 -44.5h-2q35 -37 92 -37q25 0 48.5 8t41.5 29h-2q23 20 33 44.5t10 51.5q0 29 -10 53.5t-33 44.5h2q-18 20 -41.5 28.5t-48.5 8.5q-57 0 -92 -37h2q-23 -20 -33 -45t-10 -53z" />
<glyph unicode="&#xf7;" horiz-adv-x="1091" d="M16 492h1059v170h-1059v-170zM442 68h205v221h-205v-221zM442 866h205v224h-205v-224z" />
<glyph unicode="&#xf8;" horiz-adv-x="1067" d="M20 0l97 -84l123 156q117 -98 295 -99q106 0 197 43t155.5 119t101.5 181.5t37 228.5q0 225 -111 377l134 168l-97 84l-125 -158q-115 102 -292 102q-109 0 -200 -43t-156.5 -118.5t-102.5 -181t-37 -230.5q0 -229 113 -379zM223 545q0 90 22.5 165.5t64.5 130t99.5 85 t125.5 30.5q115 0 186 -75l-453 -568q-23 47 -34 105.5t-11 126.5zM348 207l449 565q23 -47 34 -102t11 -125q0 -90 -22.5 -165t-62.5 -128t-97.5 -84t-124.5 -31q-115 0 -187 70z" />
<glyph unicode="&#xf9;" horiz-adv-x="1124" d="M59 1008h101v-633q0 -193 82 -294t245 -101q94 0 172 36.5t136 100.5v-117h268v94h-98v1006h-281v-92h107v-588q-29 -127 -105 -203t-176 -76q-86 0 -131 63.5t-45 178.5v717h-275v-92zM301 1438l289 -338l141 2l-209 338z" />
<glyph unicode="&#xfa;" horiz-adv-x="1126" d="M61 1008h101v-633q0 -193 82 -294t245 -101q94 0 172 36.5t136 100.5v-117h268v94h-98v1006h-281v-92h107v-588q-29 -127 -105 -203t-176 -76q-86 0 -131 63.5t-45 178.5v717h-275v-92zM385 1102l141 -2l289 338l-221 2z" />
<glyph unicode="&#xfb;" horiz-adv-x="1130" d="M63 1008h101v-633q0 -193 82 -294t246 -101q94 0 171.5 36.5t135.5 100.5v-117h268v94h-98v1006h-281v-92h107v-588q-29 -127 -105 -203t-176 -76q-86 0 -131 63.5t-45 178.5v717h-275v-92zM248 1102h141l172 188l174 -188h144l-222 334h-190z" />
<glyph unicode="&#xfc;" horiz-adv-x="1132" d="M66 1006h100v-631q0 -193 82 -294t246 -101q94 0 171.5 36.5t135.5 100.5v-117h268v94h-98v1006h-281v-94h107v-586q-29 -127 -105 -203t-176 -76q-86 0 -131 62.5t-45 179.5v717h-274v-94zM264 1270q0 -27 9.5 -52.5t31.5 -43.5h-2q39 -39 92 -39q55 0 92 39h-2 q23 18 32 43.5t9 52.5q0 29 -9 53.5t-32 44.5h2q-37 37 -92 37q-53 0 -92 -37h2q-41 -39 -41 -98zM602 1270q0 -27 9.5 -52.5t31.5 -43.5h-2q18 -20 43 -29.5t49 -9.5q53 0 92 39h-2q23 18 32 43.5t9 52.5q0 59 -41 98h2q-41 37 -92 37q-25 0 -49.5 -9.5t-42.5 -27.5h2 q-41 -39 -41 -98z" />
<glyph unicode="&#xfd;" horiz-adv-x="931" d="M-20 1014h69l336 -971l-68 -215q-14 -45 -33.5 -72.5t-45.5 -27.5h-2l-78 4l-74 8l-8 -158l215 -12h6q63 0 103 55.5t65 126.5l422 1262h67v94h-297v-94h50l-236 -735l-242 735h52v94h-301v-94zM293 1110l139 -2l289 340l-221 2z" />
<glyph unicode="&#xfe;" horiz-adv-x="1038" d="M14 -328v-94h318v94h-72v443q61 -78 141 -110t164 -32q106 0 191.5 42t145 119t92 183.5t32.5 237.5t-31.5 238.5t-90 182.5t-144.5 116t-193 41q-82 0 -159.5 -35t-147.5 -123v510h-246v-41q0 -18 9.5 -26.5t29.5 -18.5q4 -2 8.5 -4t6.5 -4h18v-1719h-72zM258 551v2 q0 94 21.5 171t60.5 132t93 86t118 31q68 0 123 -31t93 -86t58.5 -132t20.5 -171t-20.5 -171t-58.5 -132t-93.5 -85t-122.5 -30q-66 0 -120 32t-92 87t-59.5 131t-21.5 166z" />
<glyph unicode="&#xff;" horiz-adv-x="942" d="M-16 1014h69l336 -971l-67 -215q-14 -45 -34 -72.5t-46 -27.5h-2l-78 4l-74 8l-8 -158l215 -12h6q63 0 104 55.5t64 126.5l422 1262h67v94h-296v-94h49l-236 -735l-242 735h52v94h-301v-94zM170 1280q0 -29 10 -53.5t33 -44.5h-2q37 -39 90 -39q55 0 92 39h-2 q23 20 33 44.5t10 53.5q0 27 -10 52.5t-33 45.5h2q-37 37 -92 37q-53 0 -90 -37h2q-23 -20 -33 -45.5t-10 -52.5zM508 1280q0 -59 41 -98h-2q18 -20 42.5 -29.5t49.5 -9.5q53 0 92 39h-2q41 39 41 98q0 27 -9 52.5t-32 45.5h2q-41 37 -92 37q-25 0 -49.5 -9t-42.5 -28h2 q-23 -20 -32 -45.5t-9 -52.5z" />
<glyph unicode="&#x152;" horiz-adv-x="1867" d="M63 715q0 -168 45.5 -302t131.5 -227.5t208.5 -143.5t278.5 -50q59 0 101 1t65 3q27 4 51 4h51h809v270h-96v-104h-559v479h524v168h-524v436h547v-100h96v266l-795 -4l-270 12h-35q-147 0 -263 -51t-197.5 -144t-125 -223.5t-43.5 -289.5zM254 705q0 266 125 408 t366 142q90 0 151.5 1t61.5 4v-1104q0 4 -59 5t-149 1q-242 0 -369 140t-127 403z" />
<glyph unicode="&#x153;" horiz-adv-x="1814" d="M45 545q0 -123 36 -228.5t100.5 -181.5t153.5 -119t195 -43q141 0 239.5 51.5t164.5 143.5q72 -100 173 -147.5t236 -47.5q57 0 93.5 2t73 16.5t86 45.5t137.5 88l-72 137q-72 -49 -112 -76.5t-68.5 -40t-56 -14.5t-72.5 -2q-154 0 -244 113q-74 94 -86 250h737l10 45 q-2 129 -34.5 235.5t-91 182t-141.5 117.5t-187 42q-139 0 -231.5 -55t-149.5 -148q-55 94 -154.5 148.5t-247.5 54.5q-109 0 -198.5 -42t-154 -117.5t-99.5 -180t-35 -229.5zM233 545q0 90 23 164.5t62.5 129t96 85t124.5 30.5t123 -30.5t96 -85t63.5 -129t22.5 -164.5 t-22.5 -165t-63.5 -129t-96.5 -85t-122.5 -31q-68 0 -124.5 31t-96 85t-62.5 129t-23 165zM1026 641q17 127 76 209q82 109 215 108q111 0 180.5 -85t79.5 -232h-551z" />
<glyph unicode="&#x178;" horiz-adv-x="1271" d="M4 1329h82l461 -713v-520h-78v-96h344v96h-80v520l453 713h82v94h-336v-94h55l-344 -543l-340 543h55v94h-354v-94zM336 1642q0 -57 41 -98q37 -39 92 -39q25 0 49.5 9.5t42.5 29.5h-2q23 20 33 45t10 53q0 27 -10 52.5t-33 44.5h2q-18 20 -42.5 29.5t-49.5 9.5 q-55 0 -92 -39q-23 -18 -32 -44t-9 -53zM676 1642q0 -29 10 -53t33 -45h-2q18 -20 42.5 -29.5t49.5 -9.5t49.5 9.5t42.5 29.5h-2q23 20 33 45t10 53q0 27 -10 52.5t-33 44.5h2q-18 20 -42.5 29.5t-49.5 9.5t-49.5 -9.5t-42.5 -29.5h2q-23 -18 -33 -44t-10 -53z" />
<glyph unicode="&#x2c6;" horiz-adv-x="579" d="M-16 987h137l164 168l170 -168h139l-213 299h-186z" />
<glyph unicode="&#x2dc;" horiz-adv-x="591" d="M-12 973h110q16 41 30.5 55t39.5 14q39 0 111 -30q78 -33 141 -33q72 0 119 47t65 131l-20 23l-86 2q-16 -43 -32.5 -57.5t-39.5 -14.5q-39 0 -113 31q-74 33 -139 33q-72 0 -119 -53.5t-67 -147.5z" />
<glyph unicode="&#x2000;" horiz-adv-x="938" />
<glyph unicode="&#x2001;" horiz-adv-x="1876" />
<glyph unicode="&#x2002;" horiz-adv-x="938" />
<glyph unicode="&#x2003;" horiz-adv-x="1876" />
<glyph unicode="&#x2004;" horiz-adv-x="625" />
<glyph unicode="&#x2005;" horiz-adv-x="469" />
<glyph unicode="&#x2006;" horiz-adv-x="312" />
<glyph unicode="&#x2007;" horiz-adv-x="312" />
<glyph unicode="&#x2008;" horiz-adv-x="234" />
<glyph unicode="&#x2009;" horiz-adv-x="375" />
<glyph unicode="&#x200a;" horiz-adv-x="104" />
<glyph unicode="&#x2010;" horiz-adv-x="622" d="M-8 580h540v135h-540v-135z" />
<glyph unicode="&#x2011;" horiz-adv-x="622" d="M-8 580h540v135h-540v-135z" />
<glyph unicode="&#x2012;" horiz-adv-x="622" d="M-8 580h540v135h-540v-135z" />
<glyph unicode="&#x2013;" horiz-adv-x="1040" d="M4 352h1032v140h-1032v-140z" />
<glyph unicode="&#x2014;" horiz-adv-x="2064" d="M4 352h2056v140h-2056v-140z" />
<glyph unicode="&#x2018;" horiz-adv-x="411" d="M84 897q0 -8 2 -13t14.5 -7.5t38.5 -2.5h80h21q0 106 24.5 209t63.5 193l-9 27l-32 18l-49 22q-41 -55 -63.5 -87.5t-35 -56t-20.5 -48.5t-19 -66q-6 -27 -9 -42t-5 -33.5t-2 -42.5v-70z" />
<glyph unicode="&#x2019;" horiz-adv-x="421" d="M84 920l51 -27l49 -25q41 57 63.5 89t35 56.5t19.5 49t17 65.5q6 25 10.5 41.5t5.5 34t2 43t1 70.5q0 8 -2 13t-14.5 7t-40.5 2h-78h-21q0 -109 -28.5 -216t-69.5 -203z" />
<glyph unicode="&#x201a;" horiz-adv-x="466" d="M115 -205l82 -45q29 41 57.5 92.5t50 101.5t34.5 94t13 71q0 111 -43 110h-133v-125h21l-50 -209q0 -31 -6 -43t-16 -12z" />
<glyph unicode="&#x201c;" horiz-adv-x="870" d="M88 897q0 -8 2 -13t16.5 -7.5t45.5 -2.5h86h24q0 106 27.5 209t68.5 193l-8 27l-37 18l-53 22q-47 -55 -71.5 -87.5t-39 -56t-22.5 -48.5t-21 -66q-6 -27 -10 -42t-6 -33.5t-2 -42.5v-70zM512 897q0 -8 2 -13t16.5 -7.5t44.5 -2.5h87h22q0 106 28.5 209t69.5 193l-10 27 l-35 18l-55 22q-45 -55 -70.5 -87.5t-39 -56t-21.5 -48.5t-21 -66q-6 -27 -10 -42t-6 -33.5t-2 -42.5v-70z" />
<glyph unicode="&#x201d;" horiz-adv-x="882" d="M90 920l55 -27l56 -25q45 57 70.5 89t39 56.5t21.5 49t20 65.5q6 25 10.5 41.5t6.5 34t2 41.5v72q0 8 -2 13t-16.5 7t-45.5 2h-86h-22q0 -109 -31 -216t-78 -203zM514 920l55 -27l54 -25q45 57 70.5 89t40 56.5t22.5 49t20 65.5q6 25 10.5 41.5t6.5 34t2 41.5v72 q0 8 -2 13t-16.5 7t-45.5 2h-86h-24q0 -109 -30 -216t-77 -203z" />
<glyph unicode="&#x201e;" horiz-adv-x="917" d="M106 -221l111 -49q45 57 70.5 88.5t39 56.5t21.5 49.5t21 65.5q6 25 10 41t6 33.5t2 41.5v72q0 8 -2 13.5t-16.5 7.5t-44.5 2h-86h-23q0 -109 -30.5 -216.5t-78.5 -205.5zM530 -221l56 -25l53 -24q45 57 70.5 88.5t40 56.5t22.5 49.5t21 65.5q6 25 10 41t6 33.5t2 41.5 v72q0 8 -2 13.5t-16.5 7.5t-44.5 2h-86h-25q0 -109 -29.5 -216.5t-77.5 -205.5z" />
<glyph unicode="&#x2022;" horiz-adv-x="518" d="M88 649q0 -72 50 -122t122 -50t122 50t50 122q0 35 -13 67t-37 55.5t-54.5 36.5t-67.5 13t-67.5 -13t-54 -36.5t-37 -55.5t-13.5 -67z" />
<glyph unicode="&#x2026;" horiz-adv-x="1699" d="M82 0h211v193h-211v-193zM745 0h211v193h-211v-193zM1407 0h211v193h-211v-193z" />
<glyph unicode="&#x202f;" horiz-adv-x="375" />
<glyph unicode="&#x2039;" horiz-adv-x="563" d="M59 510l275 -436l170 2l-271 446l271 447l-170 2l-275 -436v-25z" />
<glyph unicode="&#x203a;" horiz-adv-x="444" d="M2 76l168 -2l274 436v25l-274 436l-168 -2l268 -447z" />
<glyph unicode="&#x205f;" horiz-adv-x="469" />
<glyph unicode="&#x20ac;" horiz-adv-x="1298" d="M-12 406h188q78 -201 250 -315t412 -114q74 0 117.5 2.5t87.5 17.5t101.5 48t160.5 92l6 29l-70 121q-90 -51 -142 -79t-89 -41t-74 -15t-96 -2q-154 0 -269.5 66.5t-179.5 189.5h666v169h-725q-12 63 -13 134q0 33 2.5 62.5t8.5 59.5h727v170h-674q63 125 181 197 t276 72q109 0 207 -45t151 -129l96 -2v303h-96v-56q-74 51 -168 75t-199 24q-240 0 -411.5 -117t-245.5 -322h-186v-170h145q-4 -31 -6 -60.5t-2 -61.5q0 -35 2 -68t6 -66h-145v-169z" />
<glyph unicode="&#x2122;" horiz-adv-x="1961" d="M70 1182h77v94h211v-735h-65v-78h270v78h-65v735h209v-94h77v217h-714v-217zM829 463h238v76h-43v653l301 -729h86l297 727v-651h-45v-76h229v76h-45v782h45v76h-227l-295 -709l-295 709h-246v-76h62v-782h-62v-76z" />
<glyph unicode="&#xe000;" horiz-adv-x="1085" d="M0 0v1085h1085v-1085h-1085z" />
</font>
</defs>
</svg>
