<?xml version="1.0" standalone="no"?>
<!DOCTYPE svg PUBLIC "-//W3C//DTD SVG 1.1//EN" "http://www.w3.org/Graphics/SVG/1.1/DTD/svg11.dtd" >
<svg xmlns="http://www.w3.org/2000/svg">
<metadata>
This is a custom SVG font generated by IcoMoon.
<iconset grid="16"></iconset>
</metadata>
<defs>
<font id="flaticons-social" horiz-adv-x="512" >
<font-face units-per-em="512" ascent="480" descent="-32" />
<missing-glyph horiz-adv-x="512" />
<glyph unicode="&#xe7d0;" d="M 416.00,384.00l-64.00,0.00 c-9.632,0.00-32.00-15.104-32.00-32.00l0.00-64.00 l 96.00,0.00 l0.00-96.00 l-96.00,0.00 l0.00-224.00 L 224.00-32.00 L 224.00,192.00 L 128.00,192.00 L 128.00,288.00 l 96.00,0.00 L 224.00,352.00 c0.00,70.592, 62.752,128.00, 129.984,128.00L 416.00,480.00 L 416.00,384.00 z"  />
<glyph unicode="&#xe7d1;" d="M 511.808,398.752c-18.816-8.384-39.072-14.016-60.32-16.576c 21.696,12.992, 38.304,33.568, 46.176,58.112
		c-20.32-12.064-42.816-20.80-66.688-25.504C 411.808,435.264, 384.512,448.00, 354.304,448.00C 296.32,448.00, 249.28,400.928, 249.28,342.944
		c0.00-8.256, 0.928-16.256, 2.72-23.936c-87.296,4.384-164.704,46.176-216.544,109.76C 26.464,413.248, 21.28,395.20, 21.28,375.936
		c0.00-36.448, 24.32-68.576, 52.512-87.424C 56.576,289.056, 32.00,293.824, 32.00,301.696c0.00-0.512,0.00-0.928,0.00-1.376c0.00-50.88, 30.40-93.312, 78.432-103.008
		C 101.632,194.944, 89.472,193.632, 79.904,193.632c-6.784,0.00-14.784,0.672-21.248,1.952c 13.376-41.76, 51.456-72.128, 97.408-72.992
		c-35.936-28.128-81.632-44.928-130.816-44.928c-8.512,0.00-17.024,0.512-25.248,1.44c 46.496-29.76, 101.60-47.20, 160.928-47.20
		c 193.28,0.00, 298.816,160.064, 298.816,298.88c0.00,4.576-0.128,9.12-0.352,13.632C 479.968,359.20, 497.76,377.696, 511.808,398.752z"  />
<glyph unicode="&#xe7d2;" d="M 447.616,384.00L 330.432,384.00L 192.00,245.568L 192.00,480.00L 96.00,421.376L 96.00-32.00L 192.00-32.00L 192.00,89.312L 245.248,146.752L 330.432-32.00L 447.616-32.00L 335.744,250.592 	z"  />
<glyph unicode="&#xe7d3;" d="M 509.44,340.48c-28.608-161.664-188.48-298.464-236.544-329.792c-48.096-31.20-91.936,12.576-107.84,45.632
		c-18.208,37.824-72.768,242.432-87.104,259.392s-57.184-16.96-57.184-16.96L0.00,326.08c0.00,0.00, 87.104,104.288, 153.344,117.344
		c 70.24,13.824, 70.176-108.192, 87.072-175.936c 16.32-65.536, 27.328-103.008, 41.60-103.008c 14.272,0.00, 41.60,36.48, 71.456,92.544
		c 29.952,56.064-1.28,105.60-59.744,70.40C 317.088,468.192, 538.016,502.016, 509.44,340.48z"  />
<glyph unicode="&#xe7d4;" d="M 32.00,224.00A96.00,96.00 180.00 1 1 224.00,224A96.00,96.00 180.00 1 1 32.00,224zM 288.00,224.00A96.00,96.00 180.00 1 1 480.00,224A96.00,96.00 180.00 1 1 288.00,224z"  />
<glyph unicode="&#xe7d5;" d="M 221.856,141.376c-12.992-70.496-28.80-138.048-75.712-173.376c-14.464,106.528, 21.28,186.528, 37.856,271.488
		C 155.712,288.864, 187.424,388.288, 247.072,363.808C 320.512,333.664, 183.488,180.16, 275.456,160.96c 96.032-20.00, 135.232,172.832, 75.648,235.52
		C 265.12,487.04, 100.704,398.56, 120.928,268.928c 4.928-31.712, 36.48-41.344, 12.608-85.056c-55.04,12.672-71.488,57.728-69.376,117.76
		c 3.392,98.272, 85.152,167.104, 167.136,176.64c 103.68,12.032, 200.992-39.488, 214.432-140.672c 15.136-114.176-46.816-237.856-157.696-228.96
		C 258.016,111.072, 245.376,126.528, 221.856,141.376z"  />
<glyph unicode="&#xe7d6;" d="M 476.576,169.664c 3.52,16.64, 5.44,33.92, 5.44,51.68c0.00,132.96-104.768,240.768-234.048,240.768
		c-13.632,0.00-27.008-1.216-40.00-3.52C 187.008,472.16, 162.272,480.00, 135.712,480.00C 60.768,480.00,0.00,417.504,0.00,340.384c0.00-25.792, 6.848-49.92, 18.656-70.656
		C 15.552,254.08, 13.952,237.92, 13.952,221.344c0.00-132.992, 104.736-240.80, 233.984-240.80c 14.656,0.00, 28.96,1.408, 42.88,4.032
		C 309.92-25.984, 331.744-32.00, 355.008-32.00c 74.944,0.00, 135.68,62.496, 135.68,139.616C 490.688,129.92, 485.60,150.976, 476.576,169.664z M 367.968,106.24
		c-10.816-15.744-26.816-28.256-47.488-37.12c-20.576-8.736-45.184-13.216-73.184-13.216c-33.60,0.00-61.792,6.048-83.744,18.08
		c-15.712,8.672-28.672,20.576-38.56,35.20c-9.952,14.72-14.976,29.376-14.976,43.456c0.00,8.832, 3.296,16.48, 9.792,22.784
		c 6.40,6.176, 14.592,9.344, 24.416,9.344c 8.032,0.00, 14.976-2.496, 20.64-7.392c 5.376-4.704, 9.984-11.648, 13.728-20.64
		c 4.128-9.792, 8.672-17.984, 13.44-24.544c 4.608-6.24, 11.232-11.488, 19.616-15.616c 8.512-4.096, 19.904-6.208, 33.984-6.208
		c 19.328,0.00, 35.232,4.256, 47.136,12.64c 11.648,8.224, 17.344,18.016, 17.344,30.048c0.00,9.504-2.976,16.96-9.024,22.848
		c-6.40,6.112-14.816,10.912-24.992,14.144C 265.408,193.472, 250.944,197.152, 233.088,200.992C 208.80,206.368, 188.16,212.704, 171.744,219.904
		C 155.008,227.264, 141.44,237.408, 131.552,250.176C 121.504,263.136, 116.416,279.328, 116.416,298.432c0.00,18.176, 5.344,34.56, 15.904,48.704
		c 10.464,14.016, 25.728,24.96, 45.408,32.48C 197.152,386.976, 220.256,390.752, 246.40,390.752c 20.864,0.00, 39.296-2.464, 54.624-7.392
		c 15.392-4.928, 28.416-11.584, 38.624-19.84c 10.304-8.256, 17.984-17.088, 22.784-26.272c 4.80-9.312, 7.328-18.56, 7.328-27.456
		c0.00-8.64-3.264-16.448-9.632-23.264c-6.40-6.848-14.464-10.336-24.00-10.336c-8.672,0.00-15.456,2.176-20.192,6.464
		C 311.552,286.624, 307.008,292.80, 301.984,301.76C 296.128,313.152, 289.056,322.144, 280.96,328.512c-7.872,6.144-20.992,9.28-39.072,9.28
		c-16.768,0.00-30.40-3.456-40.544-10.304C 191.584,320.864, 186.848,313.344, 186.848,304.416c0.00-5.504, 1.536-10.08, 4.672-14.016
		c 3.328-4.192, 8.032-7.84, 13.952-10.88c 6.144-3.232, 12.48-5.728, 18.816-7.552C 230.816,270.08, 241.728,267.36, 256.672,263.808
		c 18.944-4.224, 36.352-8.864, 51.712-13.952c 15.584-5.152, 29.088-11.456, 40.096-18.848c 11.168-7.456, 20.064-17.12, 26.336-28.672
		c 6.304-11.52, 9.536-25.824, 9.536-42.40C 384.384,140.16, 378.848,122.08, 367.968,106.24z"  />
<glyph unicode="&#xe7d7;" d="M 256.00,480.00C 114.848,480.00,0.00,365.152,0.00,224.00s 114.848-256.00, 256.00-256.00s 256.00,114.848, 256.00,256.00S 397.152,480.00, 256.00,480.00z M 448.00,224.00
		c0.00-6.624-0.352-13.184-0.992-19.616C 416.608,214.048, 384.80,219.20, 352.00,219.20c-5.248,0.00-11.232-0.80-16.736-1.12
		c-4.48,16.80-10.24,33.344-17.376,49.504c 34.816,17.792, 66.304,41.024, 93.088,69.344C 434.112,305.152, 448.00,266.208, 448.00,224.00z M 372.928,375.936
		c-23.072-24.80-50.40-45.152-80.736-60.544c-23.328,36.16-53.504,67.808-88.32,93.216C 220.512,413.312, 237.952,416.00, 256.00,416.00
		C 300.032,416.00, 340.544,400.928, 372.928,375.936z M 145.696,380.896c 37.28-21.60, 69.568-51.136, 94.176-86.368c-53.12-14.976-109.76-14.784-162.112,0.48
		C 91.68,329.824, 115.456,359.584, 145.696,380.896z M 64.00,224.00c0.00,6.112, 0.384,12.192, 0.928,18.176C 95.616,233.44, 127.424,228.80, 160.00,228.80
		c 36.64,0.00, 72.512,5.984, 107.072,17.184c 5.12-11.52, 9.472-23.296, 12.992-35.328C 211.744,194.752, 151.328,156.80, 107.488,102.464C 80.352,135.584, 64.00,177.92, 64.00,224.00
		z M 147.52,65.728c 36.16,46.08, 86.656,78.272, 143.776,91.808C 292.256,147.968, 292.80,138.08, 292.80,128.00c0.00-32.864-5.632-64.64-16.128-94.848
		C 269.92,32.448, 263.008,32.00, 256.00,32.00C 215.744,32.00, 178.432,44.512, 147.52,65.728z M 338.272,50.784C 344.00,75.872, 347.20,101.632, 347.20,128.00
		c0.00,12.448-0.704,24.576-1.952,36.352C 347.392,164.416, 349.888,164.80, 352.00,164.80c 28.32,0.00, 55.68-4.448, 81.76-13.12
		C 415.616,107.328, 381.344,71.328, 338.272,50.784z"  />
<glyph unicode="&#xe7d8;" d="M 416.00-4.064c-22.144-10.304-42.272-17.568-60.256-21.728C 337.76-29.92, 318.24-32.00, 297.408-32.00
		c-23.744,0.00-44.768,2.976-63.04,8.864c-18.24,5.952-33.824,14.336-46.72,25.248c-12.864,10.976-14.688,18.88-19.648,31.232
		C 163.008,45.664, 160.00,72.608, 160.00,96.00L 160.00,256.00 L 96.00,256.00 L 96.00,352.00 c 96.00,0.00, 96.00,96.00, 96.00,128.00l 96.00,0.00 l0.00-129.44 L 384.00,352.00l0.00-96.00 L 288.00,256.00 l0.00-128.00 c0.00-29.696-3.488-52.00, 10.08-66.432
		c 9.184-9.76, 24.672-10.176, 39.456-10.176c 26.304,0.00, 52.448,8.448, 78.432,25.312L 415.968-4.064 z"  />
<glyph unicode="&#xe7d9;" d="M 29.504,352.352c0.00-43.456, 15.488-74.816, 46.048-93.28c 24.992-15.104, 54.048-17.344, 69.152-17.344
		c 3.648,0.00, 6.592,4.16, 8.672,4.288c0.00,0.00-4.768-22.016, 18.304-54.016L 170.656,192.00 C 130.624,192.00,0.00,180.064,0.00,79.552C0.00-22.752, 119.936-32.00, 144.00-32.00
		c 1.952,0.00, 3.008,0.00, 3.008,0.00c 0.288,0.00, 1.984-0.032, 4.928-0.032c 15.424,0.00, 55.36,1.856, 92.448,18.72c 48.128,21.888, 72.512,59.872, 72.512,113.024
		c0.00,51.328-37.152,81.92-64.32,104.224c-16.576,13.60-30.88,25.376-30.88,36.80c0.00,11.616, 10.432,20.384, 23.68,31.456
		c 21.376,17.92, 41.568,43.424, 41.568,91.648c0.00,42.40-5.888,70.848-42.016,88.896c 3.776,1.792, 18.656,3.136, 25.248,4.00
		C 289.76,459.264, 320.00,462.112, 320.00,477.088L 320.00,480.00 L 174.016,480.00 C 172.576,479.968, 29.504,475.008, 29.504,352.352z M 260.192,90.112c 2.688-40.864-34.688-71.104-90.816-74.912
		c-56.96-3.904-103.904,20.128-106.656,60.96c-1.344,19.616, 7.904,38.912, 25.984,54.208c 18.304,15.52, 43.424,25.12, 70.784,27.008
		c 3.232,0.192, 6.40,0.32, 9.632,0.32C 221.856,157.728, 257.60,128.672, 260.192,90.112z M 222.88,380.352c 14.016-46.176-7.168-94.432-40.896-103.328
		C 178.08,276.00, 174.08,275.456, 170.048,275.456c-30.912,0.00-61.536,29.248-72.864,69.60C 90.88,367.712, 91.36,387.488, 98.624,406.528
		c 7.168,18.752, 19.968,31.36, 36.128,35.616C 138.624,443.20, 142.656,443.712, 146.688,443.712C 184.00,443.712, 208.00,429.248, 222.88,380.352z M 448.00,288.00L 448.00,352.00 l-64.00,0.00 l0.00-64.00 l-64.00,0.00 l0.00-64.00 l 64.00,0.00 l0.00-64.00 
		l 64.00,0.00 L 448.00,224.00 l 64.00,0.00 L 512.00,288.00 L 448.00,288.00 z"  />
<glyph unicode="&#xe7da;" d="M 32.00,352.00L 128.00,352.00L 128.00,0.00L 32.00,0.00zM 384.00,352.00c-59.424,0.00-82.56-32.00-97.12-64.00L 288.00,352.00L 192.992,352.00 C 194.496,320.00, 192.00,0.00, 192.00,0.00l 96.00,0.00 
		L 288.00,187.04 c0.00,9.92, 0.608,19.968, 3.328,27.104c 8.00,19.968, 32.224,40.704, 62.784,40.704C 394.016,254.848, 416.00,224.00, 416.00,179.20L 416.00,0.00 l 96.00,0.00 L 512.00,192.064 
		C 512.00,294.592, 456.224,352.00, 384.00,352.00zM 32.00,432.00A48.00,48.00 180.00 1 1 128.00,432A48.00,48.00 180.00 1 1 32.00,432z"  />
<glyph unicode="&#xe7db;" d="M 416.00,478.464c-32.00-28.608-95.232-4.448-130.336,0.00C 130.432,498.24, 81.44,323.008, 194.528,252.736
		c-29.12-14.592-26.976-88.864, 4.192-99.488c-73.44-8.096-86.976-108.32-47.616-149.184c 47.872-49.728, 195.36-46.40, 238.624,0.00
		c 30.176,32.448, 34.432,99.264, 7.936,130.048c-24.064,28.192-144.928,32.384-143.072,76.48c 1.312,30.88, 45.024,26.08, 71.584,38.304
		c 49.92,23.104, 78.496,92.256, 58.848,145.344C 396.128,396.32, 416.00,399.936, 416.00,401.984L 416.00,478.464 z M 334.112,76.736c 5.12-55.072-109.984-57.472-123.296-19.136
		c-11.168,32.288, 2.752,41.408, 35.808,49.696C 284.128,116.80, 330.72,113.60, 334.112,76.736z M 302.304,317.792c-19.04-13.728-56.64-15.04-75.52,0.00
		C 168.608,440.448, 360.576,431.68, 302.304,317.792z"  />
<glyph unicode="&#xe7dc;" d="M 480.00,226.656c-77.184,0.00-110.944,11.488-146.592,76.064c-21.60,39.136-16.16,74.976-4.896,93.792
		c 5.408,9.088, 15.392,19.904, 32.16,19.904c 24.832,0.00, 51.328-5.888, 51.36-65.408C 412.16,348.128, 412.896,320.00, 407.776,288.00l 64.672,0.00 
		c 4.672,32.00, 3.712,61.888, 3.552,64.544c0.00,80.256-42.016,126.784-115.328,126.784c-36.064,0.00-67.872-18.336-87.232-50.752
		c-26.496-44.32-25.024-104.224, 3.84-156.48c 28.16-51.008, 59.392-78.432, 97.248-93.28c-22.848-48.544-59.488-98.40-118.496-136.96
		C 96.032,148.992, 95.968,414.016, 96.00,416.80L 32.00,417.312C 31.872,404.224, 31.584,95.264, 240.128-23.072l 16.032-9.056l 15.968,9.216
		c 87.744,50.752, 137.632,121.408, 166.144,187.904C 451.488,163.872, 465.184,163.20, 480.00,163.20L 480.00,226.656 z"  />
<glyph unicode="&#xe7dd;" d="M 64.00,480.00L 32.00,480.00 C 14.304,480.00,0.00,465.696,0.00,448.00l0.00-32.00 l0.00-192.00 l0.00-192.00 l0.00-32.00 c0.00-17.696, 14.304-32.00, 32.00-32.00l 32.00,0.00 l 384.00,0.00 l 32.00,0.00 c 17.696,0.00, 32.00,14.304, 32.00,32.00l0.00,32.00 L 512.00,224.00 L 512.00,416.00 L 512.00,448.00 
		c0.00,17.696-14.304,32.00-32.00,32.00l-32.00,0.00 L 64.00,480.00 z M 256.00,288.00c 35.328,0.00, 64.00-28.704, 64.00-64.00s-28.672-64.00-64.00-64.00S 192.00,188.704, 192.00,224.00S 220.672,288.00, 256.00,288.00z M 448.00,32.00L 64.00,32.00 L 64.00,224.00 l 64.00,0.00 c0.00-70.592, 57.44-128.00, 128.00-128.00
		s 128.00,57.408, 128.00,128.00l 64.00,0.00 L 448.00,32.00 z M 448.00,320.00l-96.00,0.00 L 352.00,416.00 l 96.00,0.00 L 448.00,320.00 z"  />
<glyph unicode="&#xe7de;" d="M 503.328,346.304C 432.672,350.016, 352.00,387.616, 320.00,414.048l0.00-158.336 c0.00-54.336-33.44-97.664-69.568-115.68
		C 198.112,113.92, 138.88,130.304, 119.264,176.672s 8.16,105.152, 60.512,131.296C 205.216,320.64, 224.00,322.752, 256.00,316.864L 256.00,443.744 C 256.00,446.272, 228.416,448.00, 214.88,448.00
		C 96.672,448.00, 0.064,347.712, 0.064,224.00s 95.424-224.00, 213.632-224.00c 118.208,0.00, 213.856,100.288, 213.856,224.00c0.00,9.984, 0.096,19.776-1.152,29.376
		C 491.712,273.376, 530.688,344.864, 503.328,346.304z"  />
<glyph unicode="&#xe7df;" d="M 152.224,480.00L0.00,385.28l 104.288-87.328L 256.00,396.352L 152.224,480.00z M 348.032,77.984c-2.688,0.00-5.408,0.896-7.584,2.72
		L 256.00,150.72l-84.48-70.016c-2.176-1.824-4.896-2.72-7.584-2.72c-2.272,0.00-3.968,0.64-5.984,1.952L 96.00,120.736l0.00-51.36 L 256.00-32.00l 160.00,101.376l0.00,51.36 
		l-62.016-40.832C 352.00,78.592, 350.304,77.984, 348.032,77.984z M 512.00,385.28L 359.744,480.00L 256.00,396.352l 151.68-98.40L 512.00,385.28z M 256.00,203.232l 94.048-77.984
		l 150.432,98.24l-92.80,74.432L 256.00,203.232z M 161.92,125.248L 256.00,203.232l-151.712,94.72l-92.80-74.432L 161.92,125.248z"  />
<glyph unicode="&#xe7e0;" d="M 16.064,207.904C 7.264,208.48,0.00,215.584,0.00,224.448L0.00,290.144 c0.00,8.864, 7.264,16.064, 16.064,15.616
		c 86.752-4.064, 164.992-40.992, 222.592-98.688c 57.728-57.76, 94.656-136.128, 98.784-222.88C 337.888-24.64, 330.688-32.00, 321.856-32.00L 255.68-32.00 
		c-8.832,0.00-15.968,7.36-16.576,16.192c-3.872,58.176-28.288,112.544-69.728,153.792C 128.064,179.456, 73.888,204.00, 16.064,207.904z M 128.00,38.816
		C 127.968,21.248, 120.864,0.00, 109.248,0.00L 109.184,0.00 c-11.584-32.00-27.488-24.864-45.216-24.864c-17.696,0.00-33.504,4.064-45.184,15.648
		C 7.232,2.336,0.00,16.64,0.00,34.176s 7.232,32.672, 18.784,44.192c 11.68,11.648, 27.488,18.336, 45.184,18.336c 17.728,0.00, 33.536-4.192, 45.216-15.808
		C 120.864,69.344, 127.968,56.384, 128.00,38.816z M0.00,398.528L0.00,464.224 C0.00,473.088, 7.328,480.256, 16.16,480.00c 134.688-4.224, 256.384-60.672, 345.60-149.984
		c 89.184-89.184, 145.728-211.136, 149.92-345.824C 512.00-24.64, 504.832-32.00, 496.00-32.00l-66.048,0.00 c-8.832,0.00-15.968,7.36-16.32,16.192
		C 405.376,199.808, 231.52,373.728, 16.16,382.112C 7.328,382.496,0.00,389.696,0.00,398.528z"  />
<glyph unicode="&#xe7e1;" d="M 344.16,480.00c 0.704,0.00, 1.472,0.00, 2.176,0.00L 283.904,288.00l 128.48,0.00 l-219.84-322.432L 256.384,160.00L 128.00,160.00 L 344.16,480.00z"  />
<glyph unicode="&#xe7e2;" d="M 288.00,273.024l 39.136-16.672L 384.00,273.024L 384.00,303.20 C 384.00,365.376, 319.168,416.00, 256.00,416.00S 128.00,365.376, 128.00,303.20l0.00-158.368 
		c0.00-14.624-1.184-26.496-16.00-26.496S 96.00,130.176, 96.00,144.80L 96.00,224.00 L0.00,224.00 l0.00-79.20 C0.00,82.592, 48.80,32.00, 112.00,32.00S 224.00,82.592, 224.00,144.80L 224.00,303.20 
		c0.00,14.624, 17.152,26.496, 32.00,26.496s 32.00-11.872, 32.00-26.496L 288.00,273.024 z M 416.00,224.00l0.00-79.20 c0.00-14.624-1.184-26.496-16.00-26.496S 384.00,130.176, 384.00,144.80L 384.00,212.48 
		l-56.864-16.672L 288.00,212.48l0.00-67.648 C 288.00,82.592, 336.80,32.00, 400.00,32.00s 112.00,50.592, 112.00,112.80L 512.00,224.00 L 416.00,224.00 z"  />
<glyph unicode="&#xe7e3;" d="M 460.064,377.76c 8.128-15.296, 12.128-34.208, 12.128-56.896c0.00-51.584-21.76-87.52-65.12-119.136
		C 363.552,170.08, 302.944,160.00, 224.928,160.00l-18.24,0.00 c-13.728,0.00-27.424-16.48-30.528-29.632L 154.24,30.464C 151.168,17.28, 137.408,0.00, 123.744,0.00L 83.808,0.00 
		l-3.552-11.616C 77.152-24.864, 85.824-32.00, 99.552-32.00L 163.52-32.00 c 13.728,0.00, 27.456,10.784, 30.496,24.00l 21.952,86.752C 219.04,91.904, 232.736,96.00, 246.496,96.00
		l 18.24,0.00 c 77.952,0.00, 138.656,22.464, 182.08,54.08C 490.24,181.696, 512.00,226.624, 512.00,278.208c0.00,22.688-4.00,43.296-12.128,58.528
		c-8.064,15.20-19.808,28.416-35.136,37.888C 463.072,375.584, 461.76,376.80, 460.064,377.76z M 110.08,56.80L 131.168,160.32
		C 134.144,173.952, 147.328,192.00, 160.512,192.00l 17.60,0.00 c 75.008,0.00, 133.376,9.376, 175.20,42.048C 395.072,266.688, 416.00,306.208, 416.00,359.552
		c0.00,23.456-3.872,41.312-11.68,57.056c-7.744,15.68-19.072,27.648-33.824,37.408c-15.072,9.92-32.80,16.352-53.312,20.416
		C 296.576,478.432, 272.512,480.00, 244.832,480.00L 116.64,480.00 C 103.424,480.00, 90.24,468.928, 87.232,455.264L 0.608,56.80C-2.40,43.136, 5.984,32.00, 19.168,32.00l 61.568,0.00 
		C 93.92,32.00, 107.104,43.136, 110.08,56.80z M 160.32,284.448l 18.496,79.648C 181.824,377.728, 195.008,384.00, 208.16,384.00l 20.128,0.00 c 23.488,0.00, 41.28,2.432, 53.216-6.048
		c 11.936-8.384, 17.92-17.92, 17.92-35.392c0.00-26.432-9.312-48.768-27.776-63.104C 253.184,265.12, 227.456,256.00, 194.24,256.00L 178.976,256.00 
		C 165.76,256.00, 157.408,270.752, 160.32,284.448z"  />
<glyph unicode="&#xe7e4;" d="M 200.512,244.32c0.00,0.00, 54.464,4.288, 54.464,71.552C 254.976,383.20, 210.40,416.00, 153.92,416.00L-32.00,416.00 l0.00-384.00 l 185.92,0.00 
		c0.00,0.00, 113.44,0.224, 113.44,115.008C 267.328,147.008, 272.32,244.32, 200.512,244.32z M 64.00,352.00l 89.92,0.00 c0.00,0.00, 25.248-6.016, 25.248-45.184
		C 179.168,267.712, 164.32,256.00, 147.424,256.00L 64.00,256.00 L 64.00,352.00 z M 148.64,96.00L 64.00,96.00 L 64.00,192.00 l 89.92,0.00 c0.00,0.00, 37.664,2.784, 37.664-49.376C 191.552,98.592, 163.424,96.00, 148.64,96.00z M 418.688,321.792
		c-137.344,0.00-137.248-145.152-137.248-145.152s-9.408-146.176, 137.248-146.176c0.00,0.00, 122.24,1.568, 122.24,97.568l-62.88,0.00 c0.00,0.00, 2.112-36.896-57.248-36.896
		c0.00,0.00-62.88,4.896-62.88,68.896l 185.088,0.00 C 543.04,160.00, 563.296,321.792, 418.688,321.792z M 474.592,192.00l-117.344,0.00 c0.00,0.00, 7.648,57.984, 62.848,57.984
		C 475.264,249.984, 474.592,192.00, 474.592,192.00z M 512.00,415.328L 320.00,416.00l0.00-64.00 l 192.00-0.672L 512.00,415.328 z"  />
<glyph unicode="&#xe7e5;" d="M 317.568-32.00c-59.808,0.00-84.352,24.384-171.456,174.112c-16.608-13.504-42.752-25.92-58.688-25.92
		C 73.12,116.224, 64.00,126.016, 64.00,161.312c0.00,34.688, 22.816,90.656, 75.808,90.656c 16.544,0.00, 27.904-5.184, 46.144-19.104
		C 233.824,267.008, 300.48,329.216, 326.08,362.88C 274.816,376.864, 233.216,387.776, 206.464,387.776c-10.24,0.00-26.176-4.16-45.568-14.496
		C 146.08,377.408, 136.384,389.344, 136.384,410.56C 136.384,447.904, 169.44,480.00, 209.92,480.00c 43.296,0.00, 82.56-9.792, 166.304-38.848
		c 11.424,16.096, 20.032,25.376, 30.784,25.376c 22.816,0.00, 40.48-24.896, 40.48-43.52c0.00-21.76-17.664-45.568-62.656-72.512
		c-52.448-67.904-92.864-103.68-161.856-157.536c 90.624-121.28, 106.56-132.672, 135.072-132.672c 22.208,0.00, 46.752,7.264, 74.016,20.736
		C 440.064,77.312, 448.00,65.408, 448.00,52.00C 448.00,12.00, 382.56-32.00, 317.568-32.00z"  />
<glyph unicode="&#xe7e6;" d="M 449.888-31.584c-13.728,0.00-14.208,4.352-74.72,4.352s-260.64-1.376-295.552-1.376
		C 66.624-28.64, 64.00-24.864, 64.00-16.576c0.00,8.256, 4.288,14.40, 15.264,14.40S 128.00-2.816, 128.00,58.432L 128.00,376.576 c0.00,32.992-9.76,66.016-48.96,70.176
		C 63.744,448.128, 64.928,455.008, 64.576,462.88C 64.32,470.08, 67.008,475.936, 76.256,475.936c 9.344,0.00, 106.816-3.072, 170.272-3.072
		C 378.112,472.864, 408.992,480.00, 431.584,480.00c 12.64-0.384, 15.328-7.136, 15.328-12.992c0.00-5.824-5.952-18.176-5.952-34.368
		c0.00-16.16, 3.616-33.344, 3.616-47.424c0.00-14.112-11.616-18.944-17.952-18.944c-6.336,0.00-10.272,2.368-10.624,14.432
		c-0.672,23.04, 16.256,57.088-143.52,57.088c-81.44,0.00-83.456-9.60-83.456-36.448c0.00-26.816, 0.672-114.624, 0.672-128.416S 193.728,256.00, 204.384,256.00l 116.608,0.00 
		c 22.592,0.00, 45.536,11.808, 48.224,44.736c 0.96,17.568, 5.632,17.824, 13.952,17.824c 8.288,0.00, 15.936-7.20, 14.656-23.68
		c-1.344-16.512-4.672-34.144-4.672-57.888c0.00-23.648, 4.672-47.136, 4.672-64.32c0.00-17.216-21.984-19.264-26.24-0.672
		C 367.20,190.592, 360.864,224.00, 309.696,224.00L 206.016,224.00 C 194.72,224.00, 192.00,213.248, 192.00,193.952l0.00-137.28 c0.00-23.744, 5.536-49.184, 52.032-49.184
		c 46.528,0.00, 136.512-5.408, 175.008,25.888c 16.672,14.08, 21.248,33.728, 26.912,65.728c 2.656,14.752, 33.376,14.432, 32.032-19.616
		c-0.96-15.84-15.744-49.824-15.744-71.616C 462.24-10.40, 466.176-31.584, 449.888-31.584z"  />
<glyph unicode="&#xe7e7;" d="M 507.072,349.984L 467.20,390.048c-3.232,3.232-7.392,4.96-11.904,4.96c-4.512,0.00-8.704-1.76-11.904-4.928
			L 252.448,198.496L 168.864,282.496C 165.76,285.632, 161.44,287.456, 156.992,287.424S 148.256,285.632, 145.088,282.528L 105.12,242.464
			c-6.56-6.592-6.592-17.248,0.00-23.808l 135.264-135.968c 2.72-2.688, 6.208-11.264, 9.984-11.68C 250.976,70.944, 251.616,64.00, 252.288,64.00
			c 0.032,0.00, 0.064,0.00, 0.128,0.00l0.00,0.00c 4.544,0.00, 8.80,8.672, 12.00,11.84l 242.656,246.88C 513.632,329.312, 513.632,343.392, 507.072,349.984zM 291.584,51.936C 281.12,41.44, 267.232,32.00, 252.48,32.00L 252.288,32.00 L 249.92,32.00 l0.00,0.00c-11.904,0.00-27.872,13.888-36.672,22.688
		L 77.92,191.168C 56.448,212.544, 56.416,247.808, 77.952,269.376l 39.968,40.128C 128.32,319.84, 142.464,325.728, 156.864,325.792
		c 14.688,0.00, 28.928-5.92, 39.232-16.256l 56.384-56.64l 127.072,127.488L 297.728,462.432c-23.36,23.424-61.568,23.424-84.896,0.00L 17.504,266.592
		c-23.328-23.392-23.328-61.76,0.00-85.152l 195.328-195.872c 23.328-23.392, 61.568-23.392, 84.896,0.00l 195.296,195.872c 21.824,21.888, 22.976,54.816, 4.00,78.40
		L 291.584,51.936z"  />
<glyph unicode="&#xe7e8;" d="M 224.00,64.00l 64.00,0.00 L 288.00,192.00 l 64.00,0.00 L 352.00,256.00 L 288.00,256.00 c0.00,64.00, 4.864,64.00, 32.00,64.00l 32.00,0.00 L 352.00,384.00 l-32.00,0.00 C 224.00,384.00, 224.00,306.976, 224.00,256.00L 160.00,256.00 l0.00-64.00 l 64.00,0.00 L 224.00,64.00 zM 480.00,480.00L 32.00,480.00 C 14.304,480.00,0.00,465.696,0.00,448.00l0.00-448.00 c0.00-17.696, 14.304-32.00, 32.00-32.00l 448.00,0.00 
		c 17.696,0.00, 32.00,14.304, 32.00,32.00L 512.00,448.00 C 512.00,465.696, 497.696,480.00, 480.00,480.00z M 448.00,32.00L 64.00,32.00 L 64.00,416.00 l 384.00,0.00 L 448.00,32.00 z"  />
<glyph unicode="&#xe7e9;" d="M 480.00,480.00L 32.00,480.00 C 14.304,480.00,0.00,465.696,0.00,448.00l0.00-448.00 c0.00-17.696, 14.304-32.00, 32.00-32.00l 448.00,0.00 c 17.696,0.00, 32.00,14.304, 32.00,32.00L 512.00,448.00 
		C 512.00,465.696, 497.696,480.00, 480.00,480.00z M 448.00,32.00L 64.00,32.00 L 64.00,416.00 l 384.00,0.00 L 448.00,32.00 zM 95.808,125.024C 124.384,106.752, 158.464,96.00, 194.944,96.00c 118.912,0.00, 183.936,98.464, 183.936,183.872
		c0.00,2.816-0.064,5.632-0.192,8.384c 12.672,9.12, 23.616,20.512, 32.288,33.44c-11.584-5.12-24.032-8.608-37.088-10.176
		c 13.312,8.00, 23.552,20.672, 28.416,35.744c-12.512-7.392-26.336-12.768-41.024-15.68C 349.44,344.16, 332.672,352.00, 314.048,352.00
		c-35.68,0.00-64.64-28.928-64.64-64.64c0.00-5.056, 0.576-9.984, 1.696-14.752C 197.44,275.328, 149.824,301.056, 117.952,340.16
		C 112.384,330.624, 109.184,319.488, 109.184,307.68c0.00-22.432, 5.056-42.176, 22.40-53.824C 120.992,254.208, 128.00,257.12, 96.00,262.016c0.00-0.32,0.00-0.608,0.00-0.864
		c0.00-31.296, 28.608-57.376, 58.144-63.328C 148.736,196.32, 146.176,195.488, 140.32,195.488c-4.192,0.00-6.624,0.448-10.592,1.184
		c 8.224-25.696, 32.864-44.384, 61.152-44.864c-22.112-17.312-49.568-27.68-79.872-27.68C 105.824,124.128, 100.832,124.448, 95.808,125.024z"  />
<glyph unicode="&#xe7ea;" d="M 224.00,170.688L 247.296,197.824L 288.00,96.00L 352.00,96.00L 290.912,248.704L 352.00,320.00L 288.00,320.00L 224.00,256.00L 224.00,384.00L 160.00,352.00L 160.00,96.00L 224.00,96.00 	zM 480.00,480.00L 32.00,480.00 C 14.304,480.00,0.00,465.696,0.00,448.00l0.00-448.00 c0.00-17.696, 14.304-32.00, 32.00-32.00l 448.00,0.00 c 17.696,0.00, 32.00,14.304, 32.00,32.00L 512.00,448.00 
		C 512.00,465.696, 497.696,480.00, 480.00,480.00z M 448.00,32.00L 64.00,32.00 L 64.00,416.00 l 384.00,0.00 L 448.00,32.00 z"  />
<glyph unicode="&#xe7eb;" d="M 480.00,480.00L 32.00,480.00 C 14.304,480.00,0.00,465.696,0.00,448.00l0.00-448.00 c0.00-17.696, 14.304-32.00, 32.00-32.00l 448.00,0.00 c 17.696,0.00, 32.00,14.304, 32.00,32.00L 512.00,448.00 
		C 512.00,465.696, 497.696,480.00, 480.00,480.00z M 448.00,32.00L 64.00,32.00 L 64.00,416.00 l 384.00,0.00 L 448.00,32.00 zM 139.616,257.60c 8.032-8.672, 38.592-113.408, 48.768-132.704c 8.896-16.96, 33.472-39.36, 60.416-23.36
		c 26.88,16.00, 116.416,86.048, 132.448,168.768c 16.00,82.72-107.712,65.408-120.80-6.656c 32.736,18.016, 50.208-7.328, 33.472-36.032
		C 277.184,198.88, 261.888,180.192, 253.888,180.192c-7.968,0.00-14.112,19.232-23.296,52.736C 221.12,267.616, 221.184,330.048, 181.888,323.008
		C 144.736,316.32, 96.00,262.944, 96.00,262.944l 11.616-14.016C 107.616,248.928, 131.616,266.304, 139.616,257.60z"  />
<glyph unicode="&#xe7ec;" d="M 96.00,224.00A64.00,64.00 180.00 1 1 224.00,224A64.00,64.00 180.00 1 1 96.00,224zM 288.00,224.00A64.00,64.00 180.00 1 1 416.00,224A64.00,64.00 180.00 1 1 288.00,224zM 480.00,480.00L 32.00,480.00 C 14.304,480.00,0.00,465.696,0.00,448.00l0.00-448.00 c0.00-17.696, 14.304-32.00, 32.00-32.00l 448.00,0.00 
		c 17.696,0.00, 32.00,14.304, 32.00,32.00L 512.00,448.00 C 512.00,465.696, 497.696,480.00, 480.00,480.00z M 448.00,32.00L 64.00,32.00 L 64.00,416.00 l 384.00,0.00 L 448.00,32.00 z"  />
<glyph unicode="&#xe7ed;" d="M 480.00,480.00L 32.00,480.00 C 14.304,480.00,0.00,465.696,0.00,448.00l0.00-448.00 c0.00-17.696, 14.304-32.00, 32.00-32.00l 448.00,0.00 
		c 17.696,0.00, 32.00,14.304, 32.00,32.00L 512.00,448.00 C 512.00,465.696, 497.696,480.00, 480.00,480.00z M 448.00,32.00L 64.00,32.00 L 64.00,416.00 l 384.00,0.00 L 448.00,32.00 zM 96.00,288.00L 160.00,288.00L 160.00,64.00L 96.00,64.00zM 256.00,64.00l0.00,96.00 c0.00,32.00, 20.00,64.00, 56.00,64.00c 32.00,0.00, 40.00-33.952, 40.00-64.00l0.00-96.00 l 64.00,0.00 L 416.00,192.832 
		c0.00,68.768-38.56,101.632-100.672,93.152C 286.016,281.984, 265.76,261.472, 256.00,240.00L 256.00,288.00 L 192.992,288.00 c 0.992,0.00-0.512-224.00-0.512-224.00L 256.00,64.00 zM 96.00,352.00A32.00,32.00 180.00 1 1 160.00,352A32.00,32.00 180.00 1 1 96.00,352z"  />
<glyph unicode="&#xe7ee;" d="M 256.00,480.00C 114.624,480.00,0.00,365.376,0.00,224.00s 114.624-256.00, 256.00-256.00c 141.376,0.00, 256.00,114.624, 256.00,256.00
		S 397.376,480.00, 256.00,480.00z M 352.00,320.00l-32.00,0.00 C 292.80,320.00, 288.00,320.00, 288.00,256.00l 64.00,0.00 l0.00-64.00 L 288.00,192.00 l0.00-128.00 L 224.00,64.00 L 224.00,192.00 L 160.00,192.00 L 160.00,256.00 l 64.00,0.00 c0.00,48.992,0.00,128.00, 96.00,128.00l 32.00,0.00 L 352.00,320.00 z"  />
<glyph unicode="&#xe7ef;" d="M 256.00,480.00C 114.624,480.00,0.00,365.376,0.00,224.00s 114.624-256.00, 256.00-256.00
	c 141.376,0.00, 256.00,114.624, 256.00,256.00S 397.376,480.00, 256.00,480.00z M 383.776,288.256c 0.128-2.752, 0.256-5.568, 0.256-8.384c0.00-85.408-64.96-183.872-183.84-183.872
	c-36.48,0.00-70.336,10.752-98.944,29.024c 5.056-0.608, 10.432-0.896, 15.648-0.896c 30.272,0.00, 58.592,10.368, 80.704,27.68
	c-28.288,0.512-51.264,19.20-59.456,44.864C 142.08,195.936, 147.904,195.488, 152.064,195.488c 5.888,0.00, 15.168,0.80, 20.608,2.272
	C 143.136,203.744, 128.00,229.856, 128.00,261.12c0.00,0.288,0.00,0.576,0.00,0.864c0.00-4.864, 11.52-7.776, 22.112-8.128c-17.344,11.616-35.904,31.36-35.904,53.824
	c0.00,11.808, 3.20,22.944, 8.736,32.48c 31.872-39.104, 79.488-64.832, 133.216-67.52C 255.04,277.376, 254.496,282.304, 254.496,287.36C 254.496,323.072, 283.392,352.00, 319.104,352.00
	c 18.592,0.00, 35.36-7.84, 47.20-20.448c 14.688,2.912, 28.544,8.288, 41.024,15.68c-4.832-15.104-15.104-27.744-28.416-35.744
	c 13.056,1.60, 25.504,5.056, 37.088,10.176C 407.328,308.736, 396.448,297.376, 383.776,288.256z"  />
<glyph unicode="&#xe7f0;" d="M 256.00,480.00C 114.624,480.00,0.00,365.376,0.00,224.00s 114.624-256.00, 256.00-256.00c 141.376,0.00, 256.00,114.624, 256.00,256.00S 397.376,480.00, 256.00,480.00z M 352.00,96.00L 288.00,96.00 L 247.296,197.824
		L 224.00,170.688L 224.00,96.00 L 160.00,96.00 L 160.00,352.00 l 64.00,32.00l0.00-128.00 l 64.00,64.00l 64.00,0.00 L 290.912,248.704L 352.00,96.00z"  />
<glyph unicode="&#xe7f1;" d="M 256.00,480.00C 114.624,480.00,0.00,365.376,0.00,224.00s 114.624-256.00, 256.00-256.00s 256.00,114.624, 256.00,256.00S 397.376,480.00, 256.00,480.00z M 381.248,270.272
		c-16.032-82.72-105.568-152.768-132.448-168.768c-26.944-16.00-51.488,6.40-60.416,23.36C 178.208,144.192, 147.648,248.928, 139.616,257.60
		c-8.00,8.704-32.00-8.672-32.00-8.672L 96.00,262.944c0.00,0.00, 48.736,53.376, 85.888,60.064c 39.328,7.072, 39.264-55.36, 48.704-90.048
		c 9.152-33.536, 15.328-52.736, 23.296-52.736c 8.00,0.00, 23.328,18.688, 40.032,47.392c 16.736,28.672-0.704,54.048-33.472,36.032
		C 273.536,335.68, 397.248,352.992, 381.248,270.272z"  />
<glyph unicode="&#xe7f2;" d="M 256.00,480.00C 114.624,480.00,0.00,365.376,0.00,224.00s 114.624-256.00, 256.00-256.00s 256.00,114.624, 256.00,256.00S 397.376,480.00, 256.00,480.00z M 160.00,160.00c-35.328,0.00-64.00,28.672-64.00,64.00
		s 28.672,64.00, 64.00,64.00s 64.00-28.672, 64.00-64.00S 195.328,160.00, 160.00,160.00z M 352.00,160.00c-35.328,0.00-64.00,28.672-64.00,64.00s 28.672,64.00, 64.00,64.00s 64.00-28.672, 64.00-64.00S 387.328,160.00, 352.00,160.00z"  />
<glyph unicode="&#xe7f3;" d="M 256.00,480.00C 114.624,480.00,0.00,365.376,0.00,224.00s 114.624-256.00, 256.00-256.00s 256.00,114.624, 256.00,256.00S 397.376,480.00, 256.00,480.00z M 277.376,151.936
		c-20.032,1.472-28.448,11.168-44.128,20.448C 224.576,128.32, 214.016,86.048, 182.752,64.00C 173.12,130.592, 196.928,180.608, 208.00,233.696
		C 189.12,264.576, 210.272,326.688, 250.048,311.36C 299.008,292.544, 207.68,196.64, 268.96,184.64c 64.032-12.512, 90.144,108.00, 50.464,147.20
		C 262.048,388.384, 152.48,333.12, 165.952,252.096c 3.328-19.84, 24.352-25.856, 8.448-53.152c-36.672,7.904-47.68,36.064-46.24,73.60
		c 2.24,61.408, 56.736,104.448, 111.392,110.40c 69.152,7.488, 134.016-24.672, 142.976-87.936C 392.576,223.616, 351.328,146.336, 277.376,151.936z"  />
<glyph unicode="&#xe7f4;" d="M 323.296,228.416c-7.20,4.608-16.00,8.544-26.112,11.776C 287.072,243.328, 275.744,246.24, 263.392,248.864
		C 253.664,251.136, 246.496,252.80, 242.24,253.984C 238.112,255.136, 234.016,256.672, 229.984,258.688c-3.84,1.92-6.912,4.192-9.088,6.816
		C 218.88,267.936, 217.856,270.816, 217.856,274.24c0.00,5.568, 3.104,10.304, 9.504,14.40c 6.592,4.288, 15.456,6.464, 26.432,6.464
		c 11.744,0.00, 20.32-1.952, 25.44-5.824c 5.28-3.936, 9.92-9.568, 13.696-16.704c 3.328-5.60, 6.24-9.472, 9.12-11.968
		C 305.12,257.952, 309.536,256.64, 315.232,256.64c 6.208,0.00, 11.456,2.176, 15.648,6.432c 4.128,4.256, 6.24,9.12, 6.24,14.528
		c0.00,5.60-1.632,11.328-4.736,17.152c-3.136,5.76-8.16,11.296-14.848,16.448S 302.368,320.512, 292.288,323.552
		C 282.304,326.688, 270.272,328.224, 256.704,328.224c-17.088,0.00-32.128-2.368-44.80-6.976C 199.04,316.576, 189.088,309.76, 182.272,300.992
		C 175.392,292.128, 171.936,281.888, 171.936,270.528c0.00-11.968, 3.296-22.08, 9.856-30.144C 188.256,232.384, 197.088,226.016, 208.00,221.44
		c 10.72-4.512, 24.16-8.448, 40.00-11.808c 11.648-2.368, 21.088-4.704, 28.00-6.848c 6.688-2.016, 12.16-4.992, 16.288-8.832
		C 296.288,190.272, 298.176,185.60, 298.176,179.648c0.00-7.488-3.68-13.664-11.296-18.784c-7.776-5.248-18.112-7.872-30.752-7.872
		c-9.184,0.00-16.64,1.312-22.144,3.872c-5.504,2.56-9.824,5.856-12.80,9.76C 218.048,170.72, 215.168,175.84, 212.416,181.984
		C 209.984,187.552, 207.008,191.936, 203.456,194.88c-3.648,3.072-8.192,4.64-13.44,4.64c-6.368,0.00-11.712-1.984-15.936-5.856
		C 169.856,189.696, 167.744,184.928, 167.744,179.424c0.00-8.832, 3.264-17.984, 9.728-27.20c 6.464-9.152, 14.912-16.576, 25.152-22.016
		c 14.336-7.52, 32.736-11.328, 54.624-11.328c 18.24,0.00, 34.336,2.816, 47.712,8.256c 13.536,5.568, 23.968,13.376, 30.976,23.232
		c 7.136,9.92, 10.752,21.216, 10.752,33.568c0.00,10.368-2.08,19.296-6.24,26.528C 336.352,217.696, 330.56,223.712, 323.296,228.416zM 256.00,480.00C 114.624,480.00,0.00,365.376,0.00,224.00s 114.624-256.00, 256.00-256.00s 256.00,114.624, 256.00,256.00S 397.376,480.00, 256.00,480.00z M 327.488,64.00
		c-15.168,0.00-29.376,3.776-41.888,10.336c-9.024-1.632-18.368-2.496-27.936-2.496c-84.288,0.00-152.608,67.328-152.608,150.464
		c0.00,10.368, 1.024,20.512, 3.104,30.24C 100.48,265.536, 96.00,280.64, 96.00,296.736C 96.00,344.928, 135.616,384.00, 184.544,384.00c 17.28,0.00, 33.408-4.864, 47.104-13.376
		C 240.096,372.064, 248.768,372.80, 257.696,372.80c 84.32,0.00, 152.64-67.36, 152.64-150.496c0.00-11.104-1.216-21.888-3.52-32.256
		C 412.672,178.336, 416.00,165.184, 416.00,151.264C 416.00,103.072, 376.384,64.00, 327.488,64.00z"  />
<glyph unicode="&#xe7f5;" d="M 262.944,237.76C 241.312,230.752, 218.88,227.008, 196.00,227.008c-20.384,0.00-40.256,2.88-59.424,8.384
		C 136.256,231.616, 136.00,227.808, 136.00,224.00c0.00-28.80, 10.176-55.264, 27.20-75.968C 190.56,182.016, 228.352,205.728, 271.072,215.68
		C 268.832,223.20, 266.112,230.528, 262.944,237.76zM 278.624,281.12C 297.60,290.752, 314.688,303.424, 329.056,318.944C 308.832,334.56, 283.52,344.00, 256.00,344.00
		c-11.328,0.00-22.176-1.696-32.576-4.64C 245.184,323.488, 264.064,303.744, 278.624,281.12zM 188.224,125.056C 207.488,111.808, 230.848,104.00, 256.00,104.00c 4.384,0.00, 8.672,0.256, 12.928,0.736
		c 6.56,18.88, 10.048,38.688, 10.048,59.264c0.00,6.304-0.352,12.48-0.928,18.464C 242.368,174.016, 210.816,153.888, 188.224,125.056zM 245.952,268.096c-15.392,22.016-35.584,40.48-58.88,53.984C 168.16,308.736, 153.312,290.112, 144.608,268.384
		C 177.312,258.848, 212.704,258.752, 245.952,268.096zM 294.688,251.264c 4.448-10.112, 8.064-20.448, 10.848-30.944c 3.456,0.192, 7.20,0.672, 10.464,0.672
		c 20.512,0.00, 40.384-3.20, 59.36-9.248C 375.808,215.744, 376.00,219.872, 376.00,224.00c0.00,26.368-8.672,50.752-23.168,70.56
		C 336.128,276.864, 316.448,262.304, 294.688,251.264zM 311.776,186.688c 0.736-7.328, 1.216-14.944, 1.216-22.688c0.00-16.512-1.984-32.576-5.568-48.256
		c 26.88,12.80, 48.32,35.328, 59.648,63.072c-16.288,5.44-33.408,8.192-51.104,8.192C 314.688,187.008, 313.12,186.752, 311.776,186.688zM 256.00,480.00C 114.624,480.00,0.00,365.376,0.00,224.00s 114.624-256.00, 256.00-256.00s 256.00,114.624, 256.00,256.00S 397.376,480.00, 256.00,480.00z M 256.00,64.00c-88.256,0.00-160.00,71.744-160.00,160.00
		s 71.744,160.00, 160.00,160.00s 160.00-71.744, 160.00-160.00S 344.256,64.00, 256.00,64.00z"  />
<glyph unicode="&#xe7f6;" d="M 428.384,416.00L 83.936,416.00 C 37.952,416.00,0.00,375.456,0.00,326.528l0.00-204.992 C0.00,72.192, 37.952,32.00, 83.936,32.00l 344.448,0.00 
		C 474.464,32.00, 512.00,72.192, 512.00,121.536L 512.00,326.528 C 512.00,375.456, 474.464,416.00, 428.384,416.00z M 346.016,215.232l-139.584-85.088C 198.464,125.28, 192.00,128.992, 192.00,138.464
		L 192.00,309.568 c0.00,9.472, 6.464,13.152, 14.432,8.32l 139.584-85.056C 353.984,227.968, 353.984,220.064, 346.016,215.232z"  />
<glyph unicode="&#xe7f7;" d="M 480.00,480.00L 32.00,480.00 C 14.40,480.00,0.00,465.60,0.00,448.00l0.00-448.00 c0.00-17.60, 14.40-32.00, 32.00-32.00l 448.00,0.00 
		c 17.60,0.00, 32.00,14.40, 32.00,32.00L 512.00,448.00 C 512.00,465.60, 497.60,480.00, 480.00,480.00z M 352.00,320.00l-32.00,0.00 C 292.80,320.00, 288.00,320.00, 288.00,256.00l 64.00,0.00 l0.00-64.00 L 288.00,192.00 l0.00-128.00 L 224.00,64.00 L 224.00,192.00 L 160.00,192.00 L 160.00,256.00 l 64.00,0.00 c0.00,48.992,0.00,128.00, 96.00,128.00l 32.00,0.00 L 352.00,320.00 z"  />
<glyph unicode="&#xe7f8;" d="M 480.00,480.00L 32.00,480.00 C 14.40,480.00,0.00,465.60,0.00,448.00l0.00-448.00 c0.00-17.60, 14.40-32.00, 32.00-32.00
	l 448.00,0.00 c 17.60,0.00, 32.00,14.40, 32.00,32.00L 512.00,448.00 C 512.00,465.60, 497.60,480.00, 480.00,480.00z M 383.776,288.256c 0.128-2.752, 0.256-5.568, 0.256-8.384c0.00-85.408-64.96-183.872-183.84-183.872
	c-36.48,0.00-70.336,10.752-98.944,29.024c 5.056-0.608, 10.432-0.896, 15.648-0.896c 30.272,0.00, 58.592,10.368, 80.704,27.68
	c-28.288,0.512-51.264,19.20-59.456,44.864C 142.08,195.936, 147.904,195.488, 152.064,195.488c 5.888,0.00, 15.168,0.80, 20.608,2.272
	C 143.136,203.744, 128.00,229.856, 128.00,261.12c0.00,0.288,0.00,0.576,0.00,0.864c0.00-4.864, 11.52-7.776, 22.112-8.128c-17.344,11.616-35.904,31.36-35.904,53.824
	c0.00,11.808, 3.20,22.944, 8.736,32.48c 31.872-39.104, 79.488-64.832, 133.216-67.52C 255.04,277.376, 254.496,282.304, 254.496,287.36C 254.496,323.072, 283.392,352.00, 319.104,352.00
	c 18.592,0.00, 35.36-7.84, 47.20-20.448c 14.688,2.912, 28.544,8.288, 41.024,15.68c-4.832-15.104-15.104-27.744-28.416-35.744
	c 13.056,1.60, 25.504,5.056, 37.088,10.176C 407.328,308.736, 396.448,297.376, 383.776,288.256z"  />
<glyph unicode="&#xe7f9;" d="M 480.00,480.00L 32.00,480.00 C 14.336,480.00,0.00,465.696,0.00,448.00l0.00-448.00 c0.00-17.696, 14.336-32.00, 32.00-32.00l 448.00,0.00 c 17.696,0.00, 32.00,14.304, 32.00,32.00L 512.00,448.00 
		C 512.00,465.696, 497.696,480.00, 480.00,480.00z M 352.00,96.00L 288.00,96.00 L 247.296,197.824L 224.00,170.688L 224.00,96.00 L 160.00,96.00 L 160.00,352.00 l 64.00,32.00l0.00-128.00 l 64.00,64.00l 64.00,0.00 L 290.912,248.704L 352.00,96.00z"  />
<glyph unicode="&#xe7fa;" d="M 512.00,448.00c0.00,17.696-14.304,32.00-32.00,32.00L 32.00,480.00 C 14.336,480.00,0.00,465.696,0.00,448.00l0.00-448.00 c0.00-17.696, 14.336-32.00, 32.00-32.00l 448.00,0.00 c 17.696,0.00, 32.00,14.304, 32.00,32.00L 512.00,448.00 z
		 M 446.08,307.20c-21.472-115.424-141.344-213.184-177.408-235.52c-36.064-22.304-68.928,8.96-80.896,32.608c-13.632,26.976-54.592,173.152-65.312,185.248
		c-10.72,12.128-42.88-12.096-42.88-12.096L 64.00,296.928c0.00,0.00, 65.312,74.496, 115.008,83.808c 52.672,9.888, 52.64-77.312, 65.28-125.696
		c 12.256-46.784, 20.512-73.568, 31.20-73.568c 10.688,0.00, 31.20,26.048, 53.632,66.112c 22.432,40.032-0.992,75.424-44.832,50.24
		C 301.824,398.432, 467.488,422.624, 446.08,307.20z"  />
<glyph unicode="&#xe7fb;" d="M 480.00,480.00L 32.00,480.00 C 14.304,480.00,0.00,465.696,0.00,448.00l0.00-448.00 c0.00-17.696, 14.304-32.00, 32.00-32.00l 448.00,0.00 c 17.696,0.00, 32.00,14.304, 32.00,32.00L 512.00,448.00 
		C 512.00,465.696, 497.696,480.00, 480.00,480.00z M 160.00,160.00c-35.328,0.00-64.00,28.672-64.00,64.00s 28.672,64.00, 64.00,64.00s 64.00-28.672, 64.00-64.00S 195.328,160.00, 160.00,160.00z M 352.00,160.00c-35.328,0.00-64.00,28.672-64.00,64.00
		s 28.672,64.00, 64.00,64.00s 64.00-28.672, 64.00-64.00S 387.328,160.00, 352.00,160.00z"  />
<glyph unicode="&#xe7fc;" d="M 480.00,480.00L 32.00,480.00 C 14.304,480.00,0.00,465.696,0.00,448.00l0.00-448.00 c0.00-17.696, 14.304-32.00, 32.00-32.00l 448.00,0.00 c 17.696,0.00, 32.00,14.304, 32.00,32.00L 512.00,448.00 
		C 512.00,465.696, 497.696,480.00, 480.00,480.00z M 282.72,137.504c-25.024,1.824-35.552,13.408-55.168,24.544C 216.736,109.152, 203.552,58.496, 164.448,32.00
		c-12.032,79.904, 17.76,139.904, 31.552,203.616C 172.448,272.672, 198.848,347.20, 248.576,328.832C 309.76,306.24, 195.552,191.136, 272.224,176.736
		c 80.032-15.008, 112.672,129.60, 63.072,176.64c-71.648,67.872-208.672,1.568-191.84-95.68c 4.128-23.744, 30.40-31.008, 10.496-63.776
		C 108.064,203.424, 94.368,237.184, 96.128,282.24c 2.88,73.696, 70.976,125.312, 139.328,132.448c 86.368,9.056, 167.488-29.60, 178.688-105.504
		C 426.752,223.552, 375.136,130.816, 282.72,137.504z"  />
<glyph unicode="&#xe7fd;" d="M 323.296,228.416c-7.20,4.608-16.00,8.544-26.112,11.776
		C 287.072,243.328, 275.744,246.24, 263.392,248.864C 253.664,251.136, 246.496,252.80, 242.24,253.984C 238.112,255.136, 234.016,256.672, 229.984,258.688
		c-3.84,1.92-6.912,4.192-9.088,6.816C 218.88,267.936, 217.856,270.816, 217.856,274.24c0.00,5.568, 3.104,10.304, 9.504,14.40
		c 6.592,4.288, 15.456,6.464, 26.432,6.464c 11.744,0.00, 20.32-1.952, 25.44-5.824c 5.28-3.936, 9.92-9.568, 13.696-16.704
		c 3.328-5.60, 6.24-9.472, 9.12-11.968C 305.12,257.952, 309.536,256.64, 315.232,256.64c 6.208,0.00, 11.456,2.176, 15.648,6.432
		c 4.128,4.256, 6.24,9.12, 6.24,14.528c0.00,5.60-1.632,11.328-4.736,17.152c-3.136,5.76-8.16,11.296-14.848,16.448
		S 302.368,320.512, 292.288,323.552C 282.304,326.688, 270.272,328.224, 256.704,328.224c-17.088,0.00-32.128-2.368-44.80-6.976C 199.04,316.576, 189.088,309.76, 182.272,300.992
		C 175.392,292.128, 171.936,281.888, 171.936,270.528c0.00-11.968, 3.296-22.08, 9.856-30.144C 188.256,232.384, 197.088,226.016, 208.00,221.44
		c 10.72-4.512, 24.16-8.448, 40.00-11.808c 11.648-2.368, 21.088-4.704, 28.00-6.848c 6.688-2.016, 12.16-4.992, 16.288-8.832
		C 296.288,190.272, 298.176,185.60, 298.176,179.648c0.00-7.488-3.68-13.664-11.296-18.784c-7.776-5.248-18.112-7.872-30.752-7.872
		c-9.184,0.00-16.64,1.312-22.144,3.872c-5.504,2.56-9.824,5.856-12.80,9.76C 218.048,170.72, 215.168,175.84, 212.416,181.984
		C 209.984,187.552, 207.008,191.936, 203.456,194.88c-3.648,3.072-8.192,4.64-13.44,4.64c-6.368,0.00-11.712-1.984-15.936-5.856
		C 169.856,189.696, 167.744,184.928, 167.744,179.424c0.00-8.832, 3.264-17.984, 9.728-27.20c 6.464-9.152, 14.912-16.576, 25.152-22.016
		c 14.336-7.52, 32.736-11.328, 54.624-11.328c 18.24,0.00, 34.336,2.816, 47.712,8.256c 13.536,5.568, 23.968,13.376, 30.976,23.232
		c 7.136,9.92, 10.752,21.216, 10.752,33.568c0.00,10.368-2.08,19.296-6.24,26.528C 336.352,217.696, 330.56,223.712, 323.296,228.416zM 480.00,480.00L 32.00,480.00 C 14.304,480.00,0.00,465.696,0.00,448.00l0.00-448.00 c0.00-17.696, 14.304-32.00, 32.00-32.00l 448.00,0.00 
		c 17.696,0.00, 32.00,14.304, 32.00,32.00L 512.00,448.00 C 512.00,465.696, 497.696,480.00, 480.00,480.00z M 327.488,64.00c-15.168,0.00-29.376,3.776-41.888,10.336
		c-9.024-1.632-18.368-2.496-27.936-2.496c-84.288,0.00-152.608,67.328-152.608,150.464c0.00,10.368, 1.024,20.512, 3.104,30.24
		C 100.48,265.536, 96.00,280.64, 96.00,296.736C 96.00,344.928, 135.616,384.00, 184.544,384.00c 17.28,0.00, 33.408-4.864, 47.104-13.376C 240.096,372.064, 248.768,372.80, 257.696,372.80
		c 84.32,0.00, 152.64-67.36, 152.64-150.496c0.00-11.104-1.216-21.888-3.52-32.256C 412.672,178.336, 416.00,165.184, 416.00,151.264C 416.00,103.072, 376.384,64.00, 327.488,64.00z"  />
<glyph unicode="&#xe7fe;" d="M 283.136,292.576C 305.92,304.096, 326.40,319.328, 343.68,337.952C 319.392,356.672, 289.024,368.00, 256.00,368.00
		c-13.568,0.00-26.624-1.984-39.104-5.536C 243.008,343.392, 265.664,319.68, 283.136,292.576zM 174.656,105.28C 197.824,89.376, 225.824,80.00, 256.00,80.00c 5.248,0.00, 10.432,0.32, 15.488,0.864
		c 7.872,22.656, 12.128,46.464, 12.128,71.136c0.00,7.552-0.448,14.976-1.12,22.144C 239.616,164.00, 201.76,139.872, 174.656,105.28zM 243.904,276.896C 225.44,303.328, 201.216,325.504, 173.248,341.696c-22.656-16.00-40.512-38.304-50.944-64.448
		C 161.60,265.824, 204.064,265.696, 243.904,276.896zM 264.32,240.512C 238.368,232.096, 211.456,227.616, 184.00,227.616c-24.448,0.00-48.288,3.424-71.328,9.984
		C 112.288,233.12, 112.00,228.608, 112.00,224.00c0.00-34.56, 12.256-66.304, 32.64-91.168c 32.864,40.768, 78.176,69.216, 129.44,81.152
		C 271.392,223.04, 268.128,231.84, 264.32,240.512zM 480.00,480.00L 32.00,480.00 C 14.304,480.00,0.00,465.696,0.00,448.00l0.00-448.00 c0.00-17.696, 14.304-32.00, 32.00-32.00l 448.00,0.00 c 17.696,0.00, 32.00,14.304, 32.00,32.00L 512.00,448.00 
		C 512.00,465.696, 497.696,480.00, 480.00,480.00z M 256.00,32.00c-105.888,0.00-192.00,86.112-192.00,192.00s 86.112,192.00, 192.00,192.00s 192.00-86.112, 192.00-192.00S 361.888,32.00, 256.00,32.00zM 302.40,256.672c 5.344-12.128, 9.696-24.544, 13.024-37.12c 4.16,0.224, 8.64,0.80, 12.576,0.80
		c 24.64,0.00, 48.448-3.808, 71.264-11.104C 399.744,214.112, 400.00,219.04, 400.00,224.00c0.00,31.648-10.40,60.864-27.776,84.672
		C 352.128,287.424, 328.512,270.016, 302.40,256.672zM 322.944,179.264c 0.896-8.80, 1.44-17.952, 1.44-27.264c0.00-19.776-2.368-39.104-6.656-57.92
		c 32.288,15.392, 57.984,42.40, 71.584,75.648c-19.552,6.528-40.064,9.888-61.312,9.888C 326.40,179.616, 324.576,179.328, 322.944,179.264z"  />
<glyph unicode="&#xe7ff;" d="M 480.00,480.00L 32.00,480.00 C 14.304,480.00,0.00,465.696,0.00,448.00l0.00-448.00 c0.00-17.696, 14.304-32.00, 32.00-32.00l 448.00,0.00 
		c 17.696,0.00, 32.00,14.304, 32.00,32.00L 512.00,448.00 C 512.00,465.696, 497.696,480.00, 480.00,480.00z M 384.00,52.928c-27.328-9.632-35.712-13.152-49.184-16.288C 321.312,33.568, 304.672,32.00, 289.056,32.00
		c-17.824,0.00-34.56,2.208-48.256,6.656c-13.728,4.48-19.808,10.464-29.504,18.656c-9.632,8.256-12.256,14.08-16.00,23.36
		C 191.584,89.92, 192.00,106.432, 192.00,124.00L 192.00,256.00 L 128.00,256.00 L 128.00,312.992 c 32.00,4.896, 35.104,10.496, 46.016,19.68c 10.912,9.12, 19.008,21.536, 25.60,34.368
		C 206.208,379.872, 212.736,396.192, 215.264,416.00L 288.00,416.00 l0.00-97.056 L 352.00,320.00l0.00-64.00 L 288.00,256.00 l0.00-64.00 c0.00-22.24-4.864-82.624, 6.656-92.00c 10.688-8.672, 17.408-5.472, 28.544-5.472
		c 19.712,0.00, 28.80,6.336, 60.80,18.976L 384.00,52.928 z"  />
<glyph unicode="&#xe800;" d="M 192.192,174.272c-2.40,0.00-4.80-0.096-7.232-0.224c-20.544-1.44-39.328-8.64-53.088-20.256
		c-13.504-11.488-20.448-25.952-19.456-40.672c 2.048-30.624, 37.28-48.64, 80.00-45.696c 42.08,2.848, 70.112,25.504, 68.096,56.16
		C 258.56,152.512, 231.744,174.272, 192.192,174.272zM 232.512,341.248C 221.376,377.952, 203.36,388.768, 175.36,388.768c-3.008,0.00-6.016-0.416-8.928-1.152
		c-12.128-3.20-21.76-12.672-27.072-26.752C 133.92,346.624, 133.504,331.776, 138.24,314.784c 8.512-30.24, 31.488-52.192, 54.656-52.192
		c 3.04,0.00, 6.016,0.416, 8.928,1.152C 227.168,270.432, 243.008,306.624, 232.512,341.248zM 480.00,480.00L 32.00,480.00 C 14.304,480.00,0.00,465.696,0.00,448.00l0.00-448.00 c0.00-17.696, 14.304-32.00, 32.00-32.00l 448.00,0.00 c 17.696,0.00, 32.00,14.304, 32.00,32.00L 512.00,448.00 
		C 512.00,465.696, 497.696,480.00, 480.00,480.00z M 248.64,46.016C 220.832,33.376, 190.912,32.00, 179.328,32.00c-2.176,0.00-3.488,0.00-3.68,0.00c0.00,0.00-0.80,0.00-2.24,0.00
		c-18.016,0.00-108.00,2.944-108.00,79.68c0.00,75.36, 97.984,80.32, 128.00,80.32l 0.736,0.00 C 176.80,224.00, 180.416,236.512, 180.416,236.512
		C 178.88,236.416, 176.672,237.28, 173.92,237.28c-11.328,0.00-33.088,1.696-51.84,13.024c-22.944,13.824-34.56,37.344-34.56,69.952
		C 87.488,412.256, 194.816,416.00, 195.872,416.00L 320.00,416.00 l0.00-2.176 c0.00-11.264-30.016-13.376-44.672-15.264c-4.928-0.64-23.424-1.664-26.24-3.008
		c 27.136-13.536, 31.488-34.88, 31.488-66.688c0.00-36.128-15.136-55.296-31.20-68.704c-9.92-8.32-17.76-14.88-17.76-23.584
		c0.00-8.576, 10.752-17.44, 23.168-27.616C 275.168,192.224, 303.04,169.312, 303.04,130.816C 303.04,90.944, 284.704,62.432, 248.64,46.016z M 448.00,224.00l-64.00,0.00 l0.00-64.00 l-32.00,0.00 L 352.00,224.00 L 288.00,224.00 L 288.00,256.00 
		l 64.00,0.00 L 352.00,320.00 l 32.00,0.00 l0.00-64.00 l 64.00,0.00 L 448.00,224.00 z"  />
<glyph unicode="&#xe801;" d="M 480.00,480.00L 32.00,480.00 C 14.304,480.00,0.00,465.696,0.00,448.00l0.00-448.00 c0.00-17.696, 14.304-32.00, 32.00-32.00l 448.00,0.00 
		c 17.696,0.00, 32.00,14.304, 32.00,32.00L 512.00,448.00 C 512.00,465.696, 497.696,480.00, 480.00,480.00z M 160.00,96.00L 96.00,96.00 L 96.00,320.00 l 64.00,0.00 L 160.00,96.00 z M 128.00,352.00C 110.304,352.00, 96.00,366.304, 96.00,384.00s 14.304,32.00, 32.00,32.00s 32.00-14.304, 32.00-32.00S 145.696,352.00, 128.00,352.00z
		 M 416.00,96.00l-64.00,0.00 L 352.00,192.00 c0.00,30.048-8.00,64.00-40.00,64.00C 276.00,256.00, 256.00,224.00, 256.00,192.00l0.00-96.00 L 192.512,96.00 c0.00,0.00, 1.504,224.00, 0.512,224.00L 256.00,320.00 l0.00-48.00 c 9.76,21.472, 30.016,41.984, 59.328,46.016
		C 377.44,326.464, 416.00,293.632, 416.00,224.832L 416.00,96.00 z"  />
<glyph unicode="&#xe802;" d="M 480.00,480.00L 32.00,480.00 C 14.304,480.00,0.00,465.696,0.00,448.00l0.00-448.00 c0.00-17.696, 14.304-32.00, 32.00-32.00l 448.00,0.00 
		c 17.696,0.00, 32.00,14.304, 32.00,32.00L 512.00,448.00 C 512.00,465.696, 497.696,480.00, 480.00,480.00z M 144.00,64.00C 117.504,64.00, 96.00,85.504, 96.00,112.00S 117.504,160.00, 144.00,160.00S 192.00,138.496, 192.00,112.00
		S 170.496,64.00, 144.00,64.00z M 256.00,64.00l0.00,0.224 c0.00,40.032-20.768,77.824-49.056,105.984C 178.784,198.496, 128.00,214.112, 96.00,214.144L 96.00,275.264 c 64.00,0.00, 110.944-23.744, 149.12-62.016
		C 283.36,174.944, 307.104,128.00, 307.168,64.00L 256.00,64.00 z M 354.688,64.00C 354.688,192.00, 224.00,322.88, 96.00,322.976L 96.00,384.032 C 192.00,384.00, 264.064,348.064, 322.048,290.08
		C 380.00,232.16, 415.936,160.00, 416.00,64.00L 354.688,64.00 z"  />
<glyph unicode="&#xe803;" d="M 480.00,480.00L 32.00,480.00 C 14.304,480.00,0.00,465.696,0.00,448.00l0.00-448.00 c0.00-17.696, 14.304-32.00, 32.00-32.00l 448.00,0.00 c 17.696,0.00, 32.00,14.304, 32.00,32.00L 512.00,448.00 
	C 512.00,465.696, 497.696,480.00, 480.00,480.00z M 256.00,319.264c-11.136,0.00-32.00-8.864-32.00-19.872l0.00-118.752 C 224.00,133.952, 191.36,96.00, 144.00,96.00S 64.00,133.952, 64.00,180.64L 64.00,224.00 l 64.00,0.00 l0.00-43.36 
	c0.00-11.008, 4.864-19.872, 16.00-19.872S 160.00,169.632, 160.00,180.64L 160.00,299.36 C 160.00,346.048, 208.64,384.00, 256.00,384.00s 96.00-37.952, 96.00-84.64l0.00-22.592 L 313.344,264.288L 288.00,276.768L 288.00,299.36 
	C 288.00,310.368, 267.136,319.264, 256.00,319.264z M 448.00,180.64C 448.00,133.952, 415.36,96.00, 368.00,96.00S 288.00,133.952, 288.00,180.64L 288.00,231.328 l 25.344-12.48L 352.00,231.328l0.00-50.72 
	c0.00-11.008, 4.864-19.872, 16.00-19.872S 384.00,169.632, 384.00,180.64L 384.00,224.00 l 64.00,0.00 L 448.00,180.64 z"  />
<glyph unicode="&#x20;" horiz-adv-x="256" />
<glyph class="hidden" unicode="&#xf000;" d="M0,480L 512 -32L0 -32 z" horiz-adv-x="0" />
</font>
</defs>
</svg>
