<?xml version="1.0" standalone="no"?>
<!DOCTYPE svg PUBLIC "-//W3C//DTD SVG 1.1//EN" "http://www.w3.org/Graphics/SVG/1.1/DTD/svg11.dtd" >
<svg xmlns="http://www.w3.org/2000/svg">
<metadata></metadata>
<defs>
<font id="verbregular" horiz-adv-x="1241" >
<font-face units-per-em="2048" ascent="1638" descent="-410" />
<missing-glyph horiz-adv-x="567" />
<glyph unicode="ff" horiz-adv-x="1447" d="M66 944v131h151v148q0 147 63 208.5t177 61.5q70 0 164 -24t153 -48l-61 -125q-46 15 -119 32.5t-109 17.5q-48 0 -75 -25.5t-27 -89.5v-156h281v-131h-281v-944h-166v944h-151zM786 944v131h152v148q0 147 63 208.5t177 61.5q70 0 164 -24t153 -48l-61 -125 q-46 15 -119 32.5t-109 17.5q-48 0 -75 -25.5t-27 -89.5v-156h291v-131h-291v-944h-166v944h-152z" />
<glyph unicode="fi" horiz-adv-x="1226" d="M66 944v131h151v148q0 270 234 270q98 0 260 -55l-52 -127q-123 35 -174 35q-48 0 -75 -25.5t-27 -89.5v-156h291v-131h-291v-944h-166v944h-151zM885 1288v199h188v-199h-188zM891 0v1075h170v-1075h-170z" />
<glyph unicode="fl" horiz-adv-x="1247" d="M66 944v131h151v148q0 270 234 270q98 0 260 -55l-52 -127q-123 35 -174 35q-48 0 -75 -25.5t-27 -89.5v-156h291v-131h-291v-944h-166v944h-151zM903 0v1493h168v-1493h-168z" />
<glyph unicode="ffi" horiz-adv-x="1949" d="M66 944v131h151v148q0 147 63 208.5t177 61.5q70 0 164 -24t153 -48l-61 -125q-46 15 -119 32.5t-109 17.5q-48 0 -75 -25.5t-27 -89.5v-156h281v-131h-281v-944h-166v944h-151zM786 944v131h152v148q0 270 233 270q99 0 261 -55l-52 -127q-123 35 -174 35 q-48 0 -75 -25.5t-27 -89.5v-156h291v-131h-291v-944h-166v944h-152zM1606 1288v199h188v-199h-188zM1612 0v1075h170v-1075h-170z" />
<glyph unicode="ffl" horiz-adv-x="1968" d="M66 944v131h151v148q0 147 63 208.5t177 61.5q70 0 164 -24t153 -48l-61 -125q-46 15 -119 32.5t-109 17.5q-48 0 -75 -25.5t-27 -89.5v-156h281v-131h-281v-944h-166v944h-151zM786 944v131h152v148q0 270 233 270q99 0 261 -55l-52 -127q-123 35 -174 35 q-48 0 -75 -25.5t-27 -89.5v-156h291v-131h-291v-944h-166v944h-152zM1624 0v1493h168v-1493h-168z" />
<glyph unicode="ffk" horiz-adv-x="2529" d="M66 944v131h151v148q0 147 63 208.5t177 61.5q70 0 164 -24t153 -48l-61 -125q-46 15 -119 32.5t-109 17.5q-48 0 -75 -25.5t-27 -89.5v-156h281v-131h-281v-944h-166v944h-151zM786 944v131h152v148q0 270 233 270q99 0 261 -55l-52 -127q-123 35 -174 35 q-48 0 -75 -25.5t-27 -89.5v-156h291v-131h-291v-944h-166v944h-152zM1614 0v1493h170v-985l450 567h195l-363 -434l431 -641h-185l-348 520l-180 -217v-303h-170z" />
<glyph unicode="ffj" horiz-adv-x="1953" d="M66 944v131h151v148q0 147 63 208.5t177 61.5q70 0 164 -24t153 -48l-61 -125q-46 15 -119 32.5t-109 17.5q-48 0 -75 -25.5t-27 -89.5v-156h281v-131h-281v-944h-166v944h-151zM786 944v131h152v148q0 270 233 270q99 0 261 -55l-52 -127q-123 35 -174 35 q-48 0 -75 -25.5t-27 -89.5v-156h291v-131h-291v-944h-166v944h-152zM1378 -307q38 12 65.5 21.5t52.5 20.5t41 17.5t30.5 19t22.5 19.5t14.5 23t9 25t4.5 31.5t2 36v44.5v1124h170v-1116q0 -71 -1.5 -102.5t-11.5 -78t-31 -68.5t-61 -51.5t-100 -50.5t-149 -44zM1610 1288 v199h188v-199h-188z" />
<glyph unicode="fft" horiz-adv-x="2226" d="M66 944v131h151v148q0 147 63 208.5t177 61.5q70 0 164 -24t153 -48l-61 -125q-46 15 -119 32.5t-109 17.5q-48 0 -75 -25.5t-27 -89.5v-156h281v-131h-281v-944h-166v944h-151zM786 944v131h152v148q0 147 63 208.5t177 61.5q70 0 164 -24t153 -48l-61 -125 q-46 15 -119 32.5t-109 17.5q-48 0 -75 -25.5t-27 -89.5v-156h282v-131h-282v-944h-166v944h-152zM1509 944v131h152v271l166 40v-311h297v-131h-297v-704q0 -63 27 -88t75 -25q40 0 102 18.5t103 36.5l64 -129q-56 -26 -139 -51t-158 -25q-240 0 -240 271v696h-152z" />
<glyph unicode="fh" horiz-adv-x="1968" d="M66 944v131h151v148q0 270 234 270q98 0 260 -55l-52 -127q-123 35 -174 35q-48 0 -75 -25.5t-27 -89.5v-156h291v-131h-291v-944h-166v944h-151zM893 0v1493h170v-569q85 64 203.5 119t238.5 55q86 0 147.5 -26t95 -73t49 -104.5t15.5 -128.5v-766h-170v735 q0 104 -41.5 163.5t-144.5 59.5q-100 0 -211 -56.5t-182 -119.5v-782h-170z" />
<glyph unicode="fj" horiz-adv-x="1232" d="M66 944v131h151v148q0 270 234 270q98 0 260 -55l-52 -127q-123 35 -174 35q-48 0 -75 -25.5t-27 -89.5v-156h291v-131h-291v-944h-166v944h-151zM657 -307q38 12 65.5 21.5t52.5 20.5t41 17.5t30.5 19t22.5 19.5t14.5 23t9 25t4.5 31.5t2 36v44.5v1124h170v-1116 q0 -71 -1.5 -102.5t-11.5 -78t-31 -68.5t-61 -51.5t-100 -50.5t-149 -44zM889 1288v199h188v-199h-188z" />
<glyph unicode="fk" horiz-adv-x="1806" d="M66 944v131h151v148q0 270 234 270q98 0 260 -55l-52 -127q-123 35 -174 35q-48 0 -75 -25.5t-27 -89.5v-156h291v-131h-291v-944h-166v944h-151zM893 0v1493h170v-985l450 567h195l-362 -434l430 -641h-185l-348 520l-180 -217v-303h-170z" />
<glyph unicode="ft" horiz-adv-x="1505" d="M66 944v131h151v148q0 147 63 208.5t177 61.5q70 0 164 -24t153 -48l-61 -125q-46 15 -119 32.5t-109 17.5q-48 0 -75 -25.5t-27 -89.5v-156h281v-131h-281v-944h-166v944h-151zM788 944v131h152v271l166 40v-311h297v-131h-297v-704q0 -63 27 -88t75 -25q40 0 102 18.5 t103 36.5l64 -129q-56 -26 -139 -51t-158 -25q-240 0 -240 271v696h-152z" />
<glyph unicode="ffh" horiz-adv-x="2689" d="M66 944v131h151v148q0 147 63 208.5t177 61.5q70 0 164 -24t153 -48l-61 -125q-46 15 -119 32.5t-109 17.5q-48 0 -75 -25.5t-27 -89.5v-156h281v-131h-281v-944h-166v944h-151zM786 944v131h152v148q0 270 233 270q99 0 261 -55l-52 -127q-123 35 -174 35 q-48 0 -75 -25.5t-27 -89.5v-156h291v-131h-291v-944h-166v944h-152zM1614 0v1493h170v-569q85 64 203.5 119t238.5 55q86 0 147.5 -26t95 -73t49 -104.5t15.5 -128.5v-766h-170v735q0 104 -41.5 163.5t-144.5 59.5q-100 0 -211 -56.5t-182 -119.5v-782h-170z" />
<glyph unicode="ffb" horiz-adv-x="2684" d="M66 944v131h151v148q0 147 63 208.5t177 61.5q70 0 164 -24t153 -48l-61 -125q-46 15 -119 32.5t-109 17.5q-48 0 -75 -25.5t-27 -89.5v-156h281v-131h-281v-944h-166v944h-151zM786 944v131h152v148q0 270 233 270q99 0 261 -55l-52 -127q-123 35 -174 35 q-48 0 -75 -25.5t-27 -89.5v-156h291v-131h-291v-944h-166v944h-152zM1614 0v1493h170v-557q179 162 379 162q87 0 160 -32.5t129.5 -98.5t88 -175.5t31.5 -254.5q0 -144 -31.5 -253.5t-88 -175.5t-129.5 -98.5t-160 -32.5q-205 0 -379 162v-139h-170zM1784 291 q68 -76 158.5 -124t187.5 -48q132 0 201 110t69 308q0 199 -69 309t-201 110q-98 0 -188 -48.5t-158 -125.5v-491z" />
<glyph unicode="fb" horiz-adv-x="1964" d="M66 944v131h151v148q0 270 234 270q98 0 260 -55l-52 -127q-123 35 -174 35q-48 0 -75 -25.5t-27 -89.5v-156h291v-131h-291v-944h-166v944h-151zM893 0v1493h170v-557q179 162 379 162q87 0 160 -32.5t129.5 -98.5t88 -175.5t31.5 -254.5q0 -144 -31.5 -253.5 t-88 -175.5t-129.5 -98.5t-160 -32.5q-205 0 -379 162v-139h-170zM1063 291q68 -76 158.5 -124t187.5 -48q132 0 201 110t69 308q0 199 -69 309t-201 110q-98 0 -188 -48.5t-158 -125.5v-491z" />
<glyph unicode=" "  horiz-adv-x="567" />
<glyph unicode="&#x09;" horiz-adv-x="567" />
<glyph unicode="&#xa0;" horiz-adv-x="567" />
<glyph unicode="!" horiz-adv-x="542" d="M170 1434h205l-51 -1006h-105zM174 0v236h197v-236h-197z" />
<glyph unicode="&#x22;" horiz-adv-x="933" d="M135 1434h180l-30 -531h-117zM522 1434h180l-30 -531h-117z" />
<glyph unicode="#" horiz-adv-x="1525" d="M94 367v135h295l68 428h-277v135h299l58 369h139l-58 -369h396l57 369h139l-57 -369h277v-135h-297l-68 -428h278v-135h-299l-57 -367h-139l57 367h-395l-57 -367h-142l58 367h-275zM530 502h396l67 428h-395z" />
<glyph unicode="$" d="M94 152l82 131q191 -109 387 -144v529l-24 8q-49 16 -85 29t-82 34t-78.5 42t-66.5 51.5t-54.5 65t-34 80t-13.5 97.5q0 171 122.5 273t315.5 108v184h131v-192q105 -13 214 -48t192 -79l-82 -131q-155 79 -324 104v-485q52 -17 91.5 -31t90.5 -37t88 -46.5t75.5 -57.5 t62.5 -72t39.5 -87.5t15.5 -106.5q0 -122 -65.5 -212t-168 -134t-229.5 -48v-182h-131v191q-127 16 -251.5 62.5t-217.5 103.5zM309 1085q0 -47 17.5 -83.5t55.5 -63.5t78 -45.5t103 -40.5v451q-111 -6 -182.5 -61t-71.5 -157zM694 129q119 5 200 64t81 165q0 94 -71 153.5 t-210 111.5v-494z" />
<glyph unicode="%" horiz-adv-x="2023" d="M86 1071q0 185 100.5 285t268.5 100q170 0 271 -100t101 -285t-101 -284t-271 -99q-169 0 -269 99t-100 284zM227 1071q0 -128 60 -196t168 -68q110 0 169.5 68t59.5 196q0 129 -60 198.5t-169 69.5q-108 0 -168 -70t-60 -198zM561 0l754 1434h145l-753 -1434h-146z M1196 360q0 185 99.5 285t269.5 100q171 0 271.5 -100t100.5 -285t-100.5 -284t-271.5 -99q-170 0 -269.5 99t-99.5 284zM1337 360q0 -127 60.5 -195.5t167.5 -68.5q110 0 169.5 68t59.5 196q0 129 -60 199t-169 70q-107 0 -167.5 -70.5t-60.5 -198.5z" />
<glyph unicode="&#x26;" horiz-adv-x="1419" d="M141 352q0 72 24 134.5t71.5 114.5t93.5 89t114 82q-45 46 -74 81t-60.5 83t-47.5 100t-16 107q0 78 32 140t85 98.5t115.5 55.5t129.5 19q144 0 242 -82.5t98 -220.5q0 -63 -22 -120t-65 -107t-86 -87.5t-105 -82.5l352 -359q96 167 119 359h174q-14 -109 -59 -236 t-121 -237l280 -283h-211l-164 166q-186 -189 -448 -189q-194 0 -322.5 102t-128.5 273zM311 365q0 -41 15.5 -82t46.5 -80t89 -63.5t134 -24.5q193 0 338 159l-387 396q-55 -39 -91.5 -69t-73 -69t-54 -80.5t-17.5 -86.5zM408 1139q0 -54 27.5 -109.5t57 -90t78.5 -83.5 q105 71 161 137t56 152q0 76 -45.5 127t-136.5 51q-93 0 -145.5 -52.5t-52.5 -131.5z" />
<glyph unicode="'" horiz-adv-x="483" d="M135 1434h180l-30 -531h-117z" />
<glyph unicode="(" horiz-adv-x="647" d="M150 88v1249q0 38 0.5 60t3 52t7.5 47.5t14 40.5t22.5 37t33 32t45 30.5t59.5 27.5t76 27.5t95 26.5l49 -112q-36 -12 -62 -21t-49 -20t-38.5 -18t-29 -19t-21 -19.5t-14 -22.5t-9 -24.5t-4.5 -30.5t-2 -35v-42v-1282v-42t2 -35t4.5 -30.5t9 -24.5t14 -22.5t21 -19.5 t29 -19t38.5 -18t49 -20t62 -21l-49 -113q-53 14 -95 26.5t-76 27.5t-59.5 27.5t-45 30.5t-33 32t-22.5 37t-14 40.5t-7.5 47.5t-3 52t-0.5 60z" />
<glyph unicode=")" horiz-adv-x="647" d="M92 -180q45 15 75.5 26t56 24.5t41 22.5t27.5 25t17 27t8.5 34.5t4 40.5t0.5 52v1282q0 35 -0.5 52t-4 40.5t-8.5 34.5t-17 27t-27.5 25t-41 22.5t-56 24.5t-75.5 26l49 112q53 -14 95 -26.5t76 -27.5t59.5 -27.5t45.5 -30.5t33 -32t22.5 -37t14.5 -40.5t7.5 -47t3 -52 t0.5 -60.5v-1249q0 -38 -0.5 -60.5t-3 -52t-7.5 -47t-14.5 -40.5t-22.5 -37t-33 -32t-45.5 -30.5t-59.5 -27.5t-76 -27.5t-95 -26.5z" />
<glyph unicode="*" horiz-adv-x="976" d="M117 920l303 122l-303 125l78 133l260 -202l-43 319h153l-43 -317l258 198l78 -133l-301 -123l301 -124l-78 -132l-256 195l41 -313h-153l43 317l-260 -199z" />
<glyph unicode="+" horiz-adv-x="1308" d="M139 614v136h445v397h137v-397h446v-136h-446v-395h-137v395h-445z" />
<glyph unicode="," horiz-adv-x="512" d="M152 -211l102 211h-90v246h192l23 -260l-170 -262z" />
<glyph unicode="-" horiz-adv-x="888" d="M154 510v147h581v-147h-581z" />
<glyph unicode="." horiz-adv-x="499" d="M152 0v246h196v-246h-196z" />
<glyph unicode="/" horiz-adv-x="921" d="M51 -184l682 1802h139l-682 -1802h-139z" />
<glyph unicode="0" horiz-adv-x="1341" d="M131 717q0 356 138 547.5t403 191.5t401.5 -191t136.5 -548q0 -358 -136.5 -549t-401.5 -191t-403 191.5t-138 548.5zM309 717q0 -286 89.5 -441t273.5 -155q358 0 358 596t-358 596q-184 0 -273.5 -155t-89.5 -441z" />
<glyph unicode="1" horiz-adv-x="745" d="M43 1243l346 191h162v-1434h-176v1255l-256 -133z" />
<glyph unicode="2" horiz-adv-x="1185" d="M100 0v113q0 60 12.5 115t32.5 98.5t53.5 87t66 76t80.5 69.5t86.5 64t93.5 64q20 13 30 20q54 37 75 51t66 47.5t64 51.5t49 49t42.5 56t23 56.5t10.5 64.5q0 98 -75 160t-204 62q-108 0 -209.5 -40t-171.5 -89l-86 120q231 160 479 160q203 0 324 -101t121 -268 q0 -40 -8 -78t-20 -70t-34.5 -65.5t-42 -58.5t-54 -55.5t-58 -50.5t-65.5 -49.5t-66.5 -46t-71.5 -47.5t-70 -46q-73 -48 -115.5 -81t-83 -78t-58 -95.5t-17.5 -113.5h766v-152h-965z" />
<glyph unicode="3" horiz-adv-x="1200" d="M72 125l82 129q77 -46 189 -85.5t220 -39.5q148 0 244 74.5t96 199.5q0 80 -43.5 141.5t-113.5 94.5t-145 49.5t-152 16.5h-64v153h74q97 0 181 25.5t142 83.5t58 139q0 93 -72 146t-193 53q-180 0 -360 -119l-78 117q27 20 60 39t94 48.5t142 47.5t165 18 q197 0 307.5 -97.5t110.5 -238.5q0 -104 -68 -192.5t-207 -136.5q149 -36 244.5 -141t95.5 -247q0 -65 -18.5 -126t-58 -116t-96.5 -95.5t-140.5 -64.5t-183.5 -24q-107 0 -219.5 29t-177.5 58.5t-115 60.5z" />
<glyph unicode="4" horiz-adv-x="1280" d="M66 317v132l690 985h229v-967h219v-150h-219v-317h-178v317h-741zM252 467h555v805z" />
<glyph unicode="5" horiz-adv-x="1179" d="M94 123l82 133q23 -15 54.5 -32.5t81.5 -40.5t111.5 -37.5t117.5 -14.5q144 0 247 89t103 231q0 132 -90 221.5t-246 89.5q-148 0 -305 -90l-94 55l77 707h781v-152h-639l-37 -426q113 55 252 55q147 0 258 -63.5t167 -167.5t56 -229q0 -73 -20 -142t-62 -129.5 t-101.5 -105.5t-143.5 -71t-183 -26q-225 0 -467 146z" />
<glyph unicode="6" horiz-adv-x="1253" d="M123 575q-1 169 39.5 313t111.5 247.5t166 176.5t204.5 108.5t227.5 35.5q48 0 96 -5.5t72 -10.5l23 -6l-41 -144q-65 17 -145 17q-93 0 -180 -31.5t-165 -95.5t-135 -172.5t-80 -249.5q57 61 152.5 109t228.5 48q107 0 195 -35.5t145 -97.5t88 -144t31 -175 q0 -98 -35 -186t-98 -154.5t-158.5 -106t-208.5 -39.5q-107 0 -196 34t-150.5 91.5t-104 134.5t-62.5 162.5t-21 175.5zM303 561q0 -119 38.5 -216t120 -157.5t193.5 -60.5q79 0 143 29t103 76.5t59.5 106t20.5 120.5q0 60 -18.5 115t-55.5 101t-99 73.5t-142 27.5 q-128 0 -226.5 -63t-136.5 -138v-14z" />
<glyph unicode="7" horiz-adv-x="1028" d="M59 1282v152h928v-134q-11 -14 -30 -38.5t-74 -105t-104.5 -164.5t-110.5 -207.5t-105 -243.5t-74 -264.5t-30 -276.5h-187q0 94 17 196.5t41.5 192t64.5 189.5t74.5 174t83 161t77.5 135.5t72 112.5t52.5 77.5t31.5 43.5h-727z" />
<glyph unicode="8" horiz-adv-x="1277" d="M109 371q0 78 29.5 144t82.5 114.5t108.5 81.5t125.5 63q-262 118 -262 336q0 157 123.5 251.5t322.5 94.5q198 0 322 -94.5t124 -251.5q0 -218 -262 -336q70 -30 125.5 -63t109.5 -81.5t83.5 -114.5t29.5 -144q0 -122 -70 -212.5t-189.5 -136t-272.5 -45.5 q-233 0 -381.5 105.5t-148.5 288.5zM289 377q0 -117 100 -187.5t250 -70.5t250 70.5t100 187.5q0 50 -21 95t-52.5 77.5t-80.5 63t-94 51t-102 41.5q-74 -27 -129 -54.5t-109 -67t-83 -92t-29 -114.5zM367 1096q0 -42 18 -79.5t44.5 -63t65.5 -49t71.5 -37t72.5 -27.5 q51 18 91 37t85 49.5t70.5 74t25.5 95.5q0 91 -76.5 156t-195.5 65q-118 0 -195 -65t-77 -156z" />
<glyph unicode="9" horiz-adv-x="1255" d="M96 971q0 131 59 240.5t175 177t268 67.5q132 0 236.5 -51.5t167 -137.5t95 -190.5t33.5 -218.5q1 -169 -39 -313t-111 -247.5t-166 -176.5t-205 -108.5t-228 -35.5q-48 0 -96 5.5t-71 11.5l-24 6l43 143q64 -16 144 -16q73 0 143.5 19t138.5 62t123 106t96.5 156.5 t59.5 207.5q-24 -26 -55 -51t-78.5 -51.5t-112.5 -43t-137 -16.5q-142 0 -248 62.5t-158.5 164.5t-52.5 228zM274 973q0 -47 11 -91.5t36 -85.5t61 -71.5t89.5 -49t118.5 -18.5q89 0 168 35t125 79.5t69 90.5v8q0 90 -22.5 168t-65.5 138.5t-111 95.5t-153 35 q-154 0 -240 -100t-86 -234z" />
<glyph unicode=":" horiz-adv-x="509" d="M156 0v246h196v-246h-196zM156 698v246h196v-246h-196z" />
<glyph unicode=";" horiz-adv-x="542" d="M166 -211l102 211h-90v246h193l22 -260l-170 -262zM178 698v246h197v-246h-197z" />
<glyph unicode="&#x3c;" horiz-adv-x="1308" d="M111 621v127l1026 430v-160l-840 -336l840 -334v-158z" />
<glyph unicode="=" horiz-adv-x="1308" d="M139 432v135h1028v-135h-1028zM139 801v135h1028v-135h-1028z" />
<glyph unicode="&#x3e;" horiz-adv-x="1308" d="M170 190v160l840 336l-840 334v158l1026 -430v-127z" />
<glyph unicode="?" horiz-adv-x="1038" d="M70 1305q88 59 207.5 105t250.5 46q84 0 159 -22.5t134 -64.5t94 -109.5t35 -151.5q0 -302 -446 -418l-12 -262h-123l-15 360q211 45 316.5 112t105.5 187q0 101 -76 159.5t-192 58.5q-154 0 -354 -119zM332 0v236h196v-236h-196z" />
<glyph unicode="@" horiz-adv-x="1978" d="M115 518q0 150 40 285t117.5 244.5t186 189.5t252.5 124t309 44q206 0 369.5 -66t269.5 -184t162 -279.5t57 -355.5q0 -161 -43 -287t-132.5 -202t-213.5 -76q-70 0 -121.5 23t-78.5 61.5t-40.5 76t-17.5 79.5q-161 -148 -344 -148q-57 0 -109 16.5t-96.5 50.5t-71 94.5 t-26.5 139.5q0 78 26 138.5t70.5 97t100 55t118.5 18.5q47 0 104 -8t140.5 -25.5t85.5 -17.5v113q0 107 -41.5 154t-153.5 47q-138 0 -332 -84l-57 106q231 92 408 92q154 0 233.5 -73.5t79.5 -233.5v-418q0 -39 1 -61.5t4.5 -57t13 -54.5t24.5 -41t40.5 -30.5t59.5 -9.5 t69.5 14t73.5 48.5t67 86t48 134t19 184.5q0 135 -29.5 253.5t-91 218t-151 171t-216.5 111t-280 39.5q-191 0 -346 -63.5t-254.5 -173t-153 -253.5t-53.5 -307q0 -166 54 -312.5t151.5 -253.5t240.5 -169t312 -62q111 0 209.5 23.5t141.5 46.5l42 23l55 -72 q-6 -4 -18 -11.5t-54 -26.5t-90 -33t-125.5 -26t-160.5 -12q-189 0 -349.5 68t-270.5 186.5t-172 281.5t-62 349zM725 354q0 -97 53.5 -144.5t139.5 -47.5q160 0 311 147v211q-17 3 -75.5 14.5t-111.5 19t-96 7.5q-114 0 -167.5 -59t-53.5 -148z" />
<glyph unicode="A" horiz-adv-x="1396" d="M47 0l555 1434h193l555 -1434h-193l-127 350h-663l-127 -350h-193zM418 496h559l-279 774z" />
<glyph unicode="B" horiz-adv-x="1368" d="M193 0v1434h499q238 0 367 -91t129 -260q0 -73 -25 -134t-63.5 -99t-79.5 -61t-80 -29q39 -5 79 -19t86 -43.5t80.5 -69.5t57.5 -104t23 -141q0 -181 -121 -282t-354 -101h-598zM371 143h401q158 0 239 73t81 194q0 136 -101.5 205t-294.5 69h-325v-541zM371 821h311 q149 0 240.5 60t91.5 178q0 106 -80.5 168.5t-241.5 62.5h-321v-469z" />
<glyph unicode="C" horiz-adv-x="1314" d="M125 717q0 151 30 274.5t81.5 209t123.5 143.5t154 85t174 27q142 0 275 -57.5t276 -153.5l-92 -127q-60 39 -99.5 62t-103 54t-124 46.5t-118.5 15.5q-177 0 -286 -154.5t-109 -424.5t109 -425t286 -155q58 0 118.5 15.5t124 46.5t103 54t99.5 62l92 -127 q-143 -96 -276 -153.5t-275 -57.5q-92 0 -174 27t-154 85t-123.5 143.5t-81.5 209.5t-30 275z" />
<glyph unicode="D" horiz-adv-x="1437" d="M193 0v1434h444q676 0 676 -717t-676 -717h-444zM371 154h254q261 0 383 134.5t122 428.5q0 293 -122 428t-383 135h-254v-1126z" />
<glyph unicode="E" horiz-adv-x="1218" d="M193 0v1434h909v-154h-731v-487h604v-152h-604v-487h743v-154h-921z" />
<glyph unicode="F" horiz-adv-x="1163" d="M193 0v1434h909v-154h-731v-487h583v-152h-583v-641h-178z" />
<glyph unicode="G" horiz-adv-x="1433" d="M125 717q0 151 30 274.5t82 209t124 143.5t155 85t176 27q152 0 292 -61.5t282 -161.5l-95 -129q-150 96 -223 130q-133 62 -243 62q-178 0 -288 -154.5t-110 -424.5q0 -269 109 -427.5t289 -158.5q50 0 104 16t94.5 36.5t88 53.5t71 52.5t57.5 48.5v297h-395v147h565 v-782h-170v170q-221 -193 -442 -193q-89 0 -169.5 26.5t-151 85t-122 143.5t-81 209.5t-29.5 275.5z" />
<glyph unicode="H" horiz-adv-x="1456" d="M193 0v1434h178v-607h714v607h177v-1434h-177v676h-714v-676h-178z" />
<glyph unicode="I" horiz-adv-x="563" d="M193 0v1434h178v-1434h-178z" />
<glyph unicode="J" horiz-adv-x="569" d="M-43 -166q48 16 80 26.5t59.5 24.5t43.5 22t28.5 25t18 26.5t8.5 34.5t3.5 41t0.5 52v1348h176v-1342q0 -70 -1.5 -102t-12 -78.5t-31.5 -68.5t-61 -51.5t-100.5 -50.5t-150.5 -44z" />
<glyph unicode="K" horiz-adv-x="1339" d="M193 0v1434h178v-805l669 805h213l-585 -686l647 -748h-215l-537 625l-192 -226v-399h-178z" />
<glyph unicode="L" horiz-adv-x="1126" d="M193 0v1434h178v-1280h708v-154h-886z" />
<glyph unicode="M" horiz-adv-x="1722" d="M193 0v1434h184l483 -1002l481 1002h187v-1434h-176v1143l-434 -903h-113l-434 897v-1137h-178z" />
<glyph unicode="N" horiz-adv-x="1488" d="M193 0v1434h182l743 -1174v1174h176v-1434h-182l-741 1171v-1171h-178z" />
<glyph unicode="O" horiz-adv-x="1511" d="M125 717q0 126 21 234t69 202t120 160.5t178.5 104.5t240.5 38t241 -38t179 -104.5t120 -160.5t69 -202t21 -234q0 -125 -21 -233t-69 -202.5t-119.5 -161t-179 -105t-241.5 -38.5t-240.5 38.5t-178.5 105t-120 161t-69 202.5t-21 233zM307 717q0 -128 23.5 -230t74 -184 t139.5 -127t210 -45q123 0 212 45t139.5 127t73.5 184t23 230t-23 230t-73.5 184t-139.5 127t-212 45q-121 0 -210 -45t-139.5 -127t-74 -184t-23.5 -230z" />
<glyph unicode="P" horiz-adv-x="1314" d="M193 0v1434h514q120 0 214.5 -23.5t167.5 -74t112.5 -137t39.5 -204.5t-39.5 -204.5t-112.5 -136.5t-167.5 -73.5t-214.5 -23.5h-336v-557h-178zM371 707h338q350 0 350 288q0 78 -26.5 135t-75 89.5t-110 47.5t-138.5 15h-338v-575z" />
<glyph unicode="Q" horiz-adv-x="1511" d="M125 717q0 126 21 234t69 202t120 160.5t178.5 104.5t240.5 38t241 -38t179 -104.5t120 -160.5t69 -202t21 -234q0 -132 -24.5 -245.5t-75.5 -209t-136.5 -163.5t-199.5 -99l242 -193l-121 -122l-315 292q-134 0 -240.5 38.5t-178.5 105t-120 161t-69 202.5t-21 233z M307 717q0 -128 23.5 -230t74 -184t139.5 -127t210 -45q123 0 212 45t139.5 127t73.5 184t23 230t-23 230t-73.5 184t-139.5 127t-212 45q-121 0 -210 -45t-139.5 -127t-74 -184t-23.5 -230z" />
<glyph unicode="R" horiz-adv-x="1398" d="M193 0v1434h557q536 0 536 -414q0 -183 -103.5 -281t-285.5 -123l391 -616h-196l-371 608h-350v-608h-178zM371 754h372q363 0 363 266q0 140 -95 204t-257 64h-383v-534z" />
<glyph unicode="S" horiz-adv-x="1236" d="M92 152l82 131q109 -62 246 -108t250 -46q81 0 148 24t111 77t44 128q0 117 -125 193q-74 45 -271 112h-1h-1l-1 1h-1h-1l-1 1h-1h-1l-1 1h-1h-1l-1 1h-1h-1l-1 1h-1h-2l-1 1h-1h-1l-1 1h-1h-1l-1 1h-1l-1 1h-1h-1l-1 1h-1h-1l-1 1h-1h-1l-1 1h-1h-1l-1 1h-1 q-49 16 -85 29t-82 34t-78.5 42t-66.5 51.5t-54.5 65t-34 80t-13.5 97.5q0 177 130 279t331 102q125 0 266.5 -39.5t247.5 -95.5l-82 -131q-95 49 -215.5 82t-210.5 33q-120 0 -201.5 -55.5t-81.5 -164.5q0 -28 6 -52t20 -44t28 -35.5t41 -31t46.5 -25.5t56.5 -23.5 t60 -21.5t67.5 -22.5t69.5 -22.5q53 -18 89 -31.5t87.5 -37t87 -46t74 -57t61.5 -71.5t38.5 -86.5t15.5 -106.5q0 -125 -69 -216.5t-177 -134.5t-239 -43q-149 0 -305 52t-273 123z" />
<glyph unicode="T" horiz-adv-x="1167" d="M45 1280v154h1077v-154h-450v-1280h-176v1280h-451z" />
<glyph unicode="U" horiz-adv-x="1433" d="M178 524v910h178v-916q0 -69 9 -123.5t33 -105.5t63.5 -84.5t104 -53.5t151.5 -20q86 0 150.5 20t104 53.5t63.5 84.5t33 105.5t9 123.5v916h176v-910q0 -96 -15.5 -175t-54 -149.5t-98.5 -118.5t-153.5 -76t-214.5 -28q-122 0 -215.5 28t-154 76t-99 118.5t-54.5 149.5 t-16 175z" />
<glyph unicode="V" horiz-adv-x="1392" d="M45 1434h201l448 -1250l453 1250h199l-553 -1434h-193z" />
<glyph unicode="W" horiz-adv-x="1935" d="M70 1434h198l301 -1223l316 1223h164l315 -1221l303 1221h197l-398 -1434h-188l-311 1184l-312 -1184h-188z" />
<glyph unicode="X" horiz-adv-x="1271" d="M41 0l494 713l-469 721h204l365 -609l366 609h203l-471 -721l496 -713h-211l-383 592l-383 -592h-211z" />
<glyph unicode="Y" horiz-adv-x="1296" d="M35 1434h201l413 -727l412 727h201l-527 -867v-567h-176v569z" />
<glyph unicode="Z" horiz-adv-x="1255" d="M78 0v141l854 1139h-807v154h1028v-140l-854 -1140h864v-154h-1085z" />
<glyph unicode="[" horiz-adv-x="694" d="M176 -295v2013h451v-119h-273v-1775h273v-119h-451z" />
<glyph unicode="\" horiz-adv-x="921" d="M49 1618h139l682 -1802h-139z" />
<glyph unicode="]" horiz-adv-x="694" d="M68 -176h272v1775h-272v119h450v-2013h-450v119z" />
<glyph unicode="^" horiz-adv-x="1302" d="M174 711l391 723h172l391 -723h-190l-287 575l-291 -575h-186z" />
<glyph unicode="_" horiz-adv-x="1443" d="M154 -170h1138v-129h-1138v129z" />
<glyph unicode="`" horiz-adv-x="438" d="M-23 1493h230l254 -266h-144z" />
<glyph unicode="a" horiz-adv-x="1181" d="M96 322q0 71 20 129.5t54.5 99t82 68.5t102 40.5t114.5 12.5q56 0 128.5 -10.5t158 -27.5t100.5 -20v121q0 119 -49 172.5t-176 53.5q-56 0 -127.5 -14t-124.5 -30t-148 -47l-61 125q284 103 483 103q184 0 278.5 -84.5t94.5 -272.5v-741h-170v143q-179 -166 -399 -166 q-54 0 -105 12t-98 38.5t-81.5 65.5t-55.5 98t-21 131zM270 330q0 -109 61.5 -160t166.5 -51q187 0 358 157v236q-6 1 -63 12.5t-88 17t-82.5 11.5t-90.5 6q-138 0 -200 -63.5t-62 -165.5z" />
<glyph unicode="b" horiz-adv-x="1236" d="M166 0v1493h170v-557q179 162 379 162q87 0 160 -32.5t129.5 -98.5t88 -175.5t31.5 -254.5q0 -144 -31.5 -253.5t-88 -175.5t-129.5 -98.5t-160 -32.5q-205 0 -379 162v-139h-170zM336 291q68 -76 158.5 -124t187.5 -48q132 0 201 110t69 308q0 199 -69 309t-201 110 q-98 0 -188 -48.5t-158 -125.5v-491z" />
<glyph unicode="c" horiz-adv-x="1064" d="M109 539q0 136 38.5 245t104 176t148.5 102.5t175 35.5q60 0 122 -14t123.5 -41.5t91.5 -43t79 -43.5l-78 -127q-4 2 -27.5 16t-38.5 22t-42.5 22.5t-51 23t-52 18.5t-56.5 14.5t-55 4.5q-133 0 -219 -112t-86 -299t86 -300.5t219 -113.5q36 0 75.5 8.5t80 26t65.5 29.5 t61.5 32.5t40.5 22.5l78 -125q-49 -28 -79 -43.5t-91.5 -43t-123.5 -41.5t-122 -14q-92 0 -175 36t-148.5 104t-104 177t-38.5 245z" />
<glyph unicode="d" horiz-adv-x="1236" d="M113 537q0 145 31.5 254.5t88 175.5t129.5 98.5t160 32.5q200 0 379 -162v557h170v-1493h-170v139q-174 -162 -379 -162q-87 0 -160 32.5t-129.5 98.5t-88 175.5t-31.5 253.5zM285 537q0 -198 69 -308t201 -110q96 0 186 48t160 124v491q-69 77 -159.5 125.5t-186.5 48.5 q-132 0 -201 -110t-69 -309z" />
<glyph unicode="e" horiz-adv-x="1177" d="M109 537q0 265 137.5 413t361.5 148q219 0 338 -128.5t119 -336.5q0 -36 -3.5 -70.5t-7.5 -51.5l-3 -17h-768q10 -176 94 -278.5t215 -102.5q155 0 401 145l78 -113q-54 -31 -71 -41t-80 -41t-105.5 -45t-107.5 -27.5t-125 -13.5q-98 0 -183 35.5t-150 104t-102.5 176.5 t-37.5 244zM285 604h610v18q0 170 -72 256q-76 90 -217 89q-138 0 -222.5 -97t-98.5 -266z" />
<glyph unicode="f" horiz-adv-x="727" d="M66 944v131h151v148q0 147 63 208.5t177 61.5q70 0 164 -24t153 -48l-61 -125q-46 15 -119 32.5t-109 17.5q-48 0 -75 -25.5t-27 -89.5v-156h291v-131h-291v-944h-166v944h-151z" />
<glyph unicode="g" horiz-adv-x="1236" d="M113 537q0 145 31.5 254.5t88 175.5t129.5 98.5t160 32.5q200 0 379 -162v139h170v-1136q0 -377 -409 -377q-105 0 -242 21.5t-260 56.5l37 141q274 -80 442 -80q133 0 197.5 54.5t64.5 176.5v207q-174 -162 -379 -162q-87 0 -160 32.5t-129.5 98.5t-88 175.5 t-31.5 253.5zM285 537q0 -198 69 -308t201 -110q96 0 186 48t160 124v491q-69 77 -159.5 125.5t-186.5 48.5q-132 0 -201 -110t-69 -309z" />
<glyph unicode="h" d="M166 0v1493h170v-569q85 64 203.5 119t238.5 55q86 0 147.5 -26t95 -73t49 -104.5t15.5 -128.5v-766h-170v735q0 104 -41.5 163.5t-144.5 59.5q-100 0 -211 -56.5t-182 -119.5v-782h-170z" />
<glyph unicode="i" horiz-adv-x="501" d="M158 1288v199h188v-199h-188zM164 0v1075h170v-1075h-170z" />
<glyph unicode="j" horiz-adv-x="505" d="M-70 -307q38 12 65.5 21.5t52.5 20.5t41 17.5t30.5 19t22.5 19.5t14.5 23t9 25t4.5 31.5t2 36v44.5v1124h170v-1116q0 -71 -1.5 -102.5t-11.5 -78t-31 -68.5t-61 -51.5t-100 -50.5t-149 -44zM162 1288v199h188v-199h-188z" />
<glyph unicode="k" horiz-adv-x="1081" d="M166 0v1493h170v-985l450 567h195l-363 -434l431 -641h-185l-348 520l-180 -217v-303h-170z" />
<glyph unicode="l" horiz-adv-x="520" d="M176 0v1493h168v-1493h-168z" />
<glyph unicode="m" horiz-adv-x="1882" d="M166 0v1075h170v-157q79 71 182 125.5t213 54.5q225 0 283 -201q44 44 99 84.5t144.5 78.5t172.5 38q82 0 141.5 -26t92 -73t47.5 -104.5t15 -128.5v-766h-170v735q0 49 -8 86.5t-27 69.5t-54.5 49.5t-86.5 17.5q-93 0 -188.5 -58t-163.5 -132v-768h-168v735 q0 103 -39.5 163t-138.5 60q-89 0 -181 -54.5t-165 -127.5v-776h-170z" />
<glyph unicode="n" d="M166 0v1075h170v-151q85 64 203.5 119t238.5 55q86 0 147.5 -26t95 -73t49 -104.5t15.5 -128.5v-766h-170v735q0 104 -41.5 163.5t-144.5 59.5q-100 0 -211 -56.5t-182 -119.5v-782h-170z" />
<glyph unicode="o" horiz-adv-x="1234" d="M111 537q0 264 131 412.5t376 148.5q243 0 374.5 -148.5t131.5 -412.5t-131 -412t-375 -148q-245 0 -376 148t-131 412zM285 537q0 -200 81 -311t252 -111q169 0 250.5 111t81.5 311t-81.5 312t-250.5 112q-171 0 -252 -111.5t-81 -312.5z" />
<glyph unicode="p" horiz-adv-x="1236" d="M166 -418v1493h170v-139q179 162 379 162q87 0 160 -32.5t129.5 -98.5t88 -175.5t31.5 -254.5q0 -144 -31.5 -253.5t-88 -175.5t-129.5 -98.5t-160 -32.5q-205 0 -379 162v-557h-170zM336 291q68 -76 158.5 -124t187.5 -48q132 0 201 110t69 308q0 199 -69 309t-201 110 q-98 0 -188 -48.5t-158 -125.5v-491z" />
<glyph unicode="q" horiz-adv-x="1236" d="M113 537q0 145 31.5 254.5t88 175.5t129.5 98.5t160 32.5q200 0 379 -162v139h170v-1493h-170v557q-174 -162 -379 -162q-87 0 -160 32.5t-129.5 98.5t-88 175.5t-31.5 253.5zM285 537q0 -198 69 -308t201 -110q96 0 186 48t160 124v491q-69 77 -159.5 125.5t-186.5 48.5 q-132 0 -201 -110t-69 -309z" />
<glyph unicode="r" horiz-adv-x="792" d="M166 0v1075h170v-229q7 18 20 42t47.5 64t77 70t112.5 50q54 16 114 16q18 0 36 -1v-161q-75 0 -138 -18.5t-103.5 -48.5t-72.5 -66t-48.5 -72t-27.5 -66t-14 -49l-3 -18v-588h-170z" />
<glyph unicode="s" horiz-adv-x="1048" d="M92 109l76 124q89 -47 199 -82.5t196 -35.5q94 0 162 41t68 114q0 30 -11.5 55.5t-36.5 45.5t-49 34.5t-63.5 28t-65 21t-68.5 19.5q-6 2 -9 2.5t-8 2t-9 2.5q-59 16 -102 30.5t-95 42t-84 59t-54.5 81t-22.5 109.5q0 137 104 216t273 79q201 0 423 -109l-73 -119 q-194 91 -346 91q-94 0 -153.5 -40.5t-59.5 -109.5q0 -43 22.5 -75.5t72 -55.5t80 -32.5t92.5 -25.5q5 -1 8 -2t7 -2l8 -2q190 -50 290 -128.5t100 -211.5q0 -98 -55.5 -167t-142 -100.5t-194.5 -31.5q-127 0 -255.5 39.5t-223.5 92.5z" />
<glyph unicode="t" horiz-adv-x="784" d="M68 944v131h151v271l166 40v-311h297v-131h-297v-704q0 -63 27 -88t75 -25q40 0 102 18.5t103 36.5l64 -129q-56 -26 -139 -51t-158 -25q-240 0 -240 271v696h-151z" />
<glyph unicode="u" d="M156 307v768h170v-735q0 -104 41.5 -163.5t144.5 -59.5q99 0 211 56.5t182 119.5v782h170v-1075h-170v150q-87 -64 -205.5 -118.5t-238.5 -54.5q-84 0 -145 25.5t-95 72.5t-49.5 104t-15.5 128z" />
<glyph unicode="v" horiz-adv-x="1142" d="M55 1075h187l329 -901l330 901h186l-434 -1075h-164z" />
<glyph unicode="w" horiz-adv-x="1675" d="M70 1075h180l248 -899l262 899h155l263 -899l247 899h181l-340 -1075h-166l-262 870l-265 -870h-167z" />
<glyph unicode="x" horiz-adv-x="1185" d="M43 0l449 541l-426 534h200l328 -438l324 438h202l-428 -534l451 -541h-209l-342 444l-340 -444h-209z" />
<glyph unicode="y" horiz-adv-x="1144" d="M57 1075h185l329 -874l330 874h186l-602 -1493h-186l188 424z" />
<glyph unicode="z" horiz-adv-x="1050" d="M88 0v131l655 801h-634v143h845v-131l-651 -801h651v-143h-866z" />
<glyph unicode="{" horiz-adv-x="804" d="M53 639v145q113 0 165.5 59t33.5 193l-25 191q-33 236 86.5 363.5t386.5 127.5h37v-116h-37q-78 0 -136 -19t-90 -52t-51.5 -77.5t-20.5 -95t4 -105.5l24 -186q20 -153 -34 -239.5t-183 -116.5q129 -28 183 -114.5t34 -238.5l-24 -186q-44 -348 294 -348h37v-117h-37 q-267 0 -386.5 127.5t-86.5 364.5l27 190q18 134 -35 192t-166 58z" />
<glyph unicode="|" horiz-adv-x="491" d="M178 -252v1927h135v-1927h-135z" />
<glyph unicode="}" horiz-adv-x="804" d="M68 -176h36q78 0 136 19t90.5 51.5t52 77t20.5 95t-4 105.5l-24 186q-20 154 34 240.5t183 116.5q-129 28 -183 114t-34 238l24 186q5 55 4 105.5t-20.5 95t-52 77.5t-90.5 52t-136 19h-36v116h36q267 0 387 -127t87 -364l-27 -191q-18 -134 35 -192t166 -58v-145 q-113 0 -165.5 -59t-33.5 -193l25 -190q33 -236 -87 -364t-387 -128h-36v117z" />
<glyph unicode="~" horiz-adv-x="1310" d="M96 469q111 240 316 240q56 0 112 -15.5t102.5 -38t91.5 -45t95.5 -38t97.5 -15.5q54 0 101 28.5t92 108.5l115 -45q-112 -241 -318 -241q-67 0 -138 23.5t-122 52t-116.5 52t-121.5 23.5t-100.5 -28t-91.5 -109z" />
<glyph unicode="&#xa1;" horiz-adv-x="542" d="M168 0l51 1006h105l49 -1006h-205zM172 1198v236h197v-236h-197z" />
<glyph unicode="&#xa2;" horiz-adv-x="1134" d="M123 719q0 130 35.5 235.5t97 173t138.5 105.5t165 43v158h133v-166q26 -5 53 -13t48.5 -15.5t48.5 -20t43 -19.5t43 -21.5t36.5 -20t35 -20t28.5 -16.5l-80 -125q-5 3 -44 25.5t-64.5 36t-68 32t-79.5 27.5v-803q22 6 44.5 14t45 18.5t40 19t39.5 20.5t33 18.5 t30.5 18.5t23.5 14l80 -125q-2 -1 -32.5 -19t-42 -24t-42.5 -22.5t-51.5 -25t-50.5 -20.5t-59 -20t-58 -14v-168h-133v158q-88 6 -165 44.5t-138.5 107t-97 174t-35.5 235.5zM299 719q0 -170 72 -280.5t188 -129.5v817q-116 -19 -188 -128t-72 -279z" />
<glyph unicode="&#xa3;" horiz-adv-x="1130" d="M121 0v125q10 7 25.5 19.5t56.5 54t73.5 86t60.5 111.5t32 134h-226v119h211q-14 51 -47.5 110.5t-63 104t-52.5 110t-23 134.5q0 158 108.5 253t292.5 95q66 0 131.5 -12.5t129.5 -38.5t101 -43.5t95 -48.5l-84 -123q-218 115 -352 115q-118 0 -183 -63.5t-65 -156.5 q0 -54 24 -111t54 -100t62.5 -105t45.5 -120h336v-119h-327q-5 -63 -28.5 -127.5t-55.5 -113.5t-59 -82.5t-50 -54.5h657v-152h-880z" />
<glyph unicode="&#xa5;" horiz-adv-x="1357" d="M66 1434h200l414 -727l412 727h200l-428 -705h299v-117h-370l-27 -45v-106h397v-117h-397v-344h-176v344h-397v117h397v108l-27 43h-370v117h301z" />
<glyph unicode="&#xa6;" horiz-adv-x="495" d="M180 -252v846h135v-846h-135zM180 829v846h135v-846h-135z" />
<glyph unicode="&#xa7;" horiz-adv-x="1071" d="M123 668q0 182 199 245q-158 86 -158 248q0 137 105 216t274 79q199 0 424 -108l-76 -119q-80 38 -173.5 64t-170.5 26q-95 0 -156 -40.5t-61 -109.5q0 -35 19.5 -64t40 -45.5t69 -35t67.5 -23.5t74 -19q18 -5 27 -7q189 -47 288 -128.5t99 -205.5q0 -94 -53.5 -156.5 t-147.5 -91.5q158 -86 158 -246q0 -137 -104.5 -215.5t-274.5 -78.5q-208 0 -424 108l76 119q196 -92 346 -92q94 0 153.5 40t59.5 109q0 19 -5.5 37t-13.5 31.5t-23 26.5t-27.5 22.5t-33.5 19.5t-36 15.5t-39.5 13.5t-38.5 11.5t-39 10t-35 9.5q-91 24 -157.5 52.5t-121 68 t-82.5 93t-28 120.5zM287 684q0 -37 19.5 -67.5t47.5 -50.5t71.5 -38.5t79 -29t82.5 -23.5q16 -4 23 -6l29 -8q95 9 153 52t58 110q0 46 -24 80.5t-81.5 61t-88.5 37t-108 31.5q-16 5 -24 7l-28 6q-94 -9 -151.5 -51.5t-57.5 -110.5z" />
<glyph unicode="&#xa8;" horiz-adv-x="473" d="M-20 1247v191h170v-191h-170zM326 1247v191h168v-191h-168z" />
<glyph unicode="&#xa9;" horiz-adv-x="1699" d="M121 717q0 156 49 290.5t140 234.5t230.5 157t311.5 57t311 -57t230 -157t139.5 -234.5t48.5 -290.5t-48.5 -290.5t-139.5 -234.5t-230 -157.5t-311 -57.5t-311.5 57.5t-230.5 157.5t-140 234.5t-49 290.5zM199 717q0 -190 74 -339t223.5 -238t353.5 -89t354 89 t224.5 238t74.5 339q0 141 -43.5 262t-125 210t-206 140t-278.5 51t-278.5 -51t-205.5 -140t-124 -210t-43 -262zM481 715q0 212 102 329t255 117q72 0 143 -23t109 -45.5t90 -58.5l-56 -65q-41 31 -71 50t-90.5 40.5t-120.5 21.5q-119 0 -193 -100.5t-74 -265.5 q0 -164 74 -263.5t193 -99.5q46 0 88.5 9.5t83 30.5t58 32t52.5 35l56 -62q-52 -36 -90 -58.5t-109 -45.5t-143 -23q-73 0 -137 29t-113.5 83.5t-78 140t-28.5 192.5z" />
<glyph unicode="&#xaa;" horiz-adv-x="765" d="M63 983q0 101 68 156t172 55q26 0 64 -4.5t61 -8.5t66.5 -12.5t46.5 -9.5v64q0 65 -30.5 95t-104.5 30q-73 0 -252 -54l-43 92q189 62 313 62q122 0 184 -53t62 -170v-437h-129v84q-106 -98 -250 -98q-94 0 -161 54t-67 155zM197 991q0 -57 35.5 -84.5t95.5 -27.5 q114 0 213 86v122q-152 27 -191 27q-80 0 -116.5 -33.5t-36.5 -89.5z" />
<glyph unicode="&#xab;" horiz-adv-x="1398" d="M76 516v111l624 454v-170l-473 -340l473 -338v-170zM649 516v111l625 454v-170l-473 -340l473 -338v-170z" />
<glyph unicode="&#xac;" horiz-adv-x="1308" d="M57 614v136h1182v-566h-152v430h-1030z" />
<glyph unicode="&#xad;" horiz-adv-x="888" d="M154 510v147h581v-147h-581z" />
<glyph unicode="&#xae;" horiz-adv-x="1038" d="M115 1065q0 178 108 294t297 116q188 0 296 -116t108 -294t-108 -294t-296 -116q-189 0 -297 116t-108 294zM188 1065q0 -152 85 -247t247 -95q161 0 245.5 95t84.5 247t-84.5 247t-245.5 95q-162 0 -247 -95t-85 -247zM369 864v412h190q64 0 101.5 -33t37.5 -86 q0 -41 -28.5 -72.5t-73.5 -42.5l96 -178h-76l-90 174h-90v-174h-67zM436 1102h121q72 0 72 55q0 57 -68 57h-125v-112z" />
<glyph unicode="&#xaf;" horiz-adv-x="598" d="M0 1278v113h598v-113h-598z" />
<glyph unicode="&#xb0;" horiz-adv-x="1054" d="M100 1094q0 140 100.5 240t241.5 100q140 0 240 -100t100 -240q0 -141 -100 -241.5t-240 -100.5q-141 0 -241.5 100.5t-100.5 241.5zM213 1094q0 -95 67 -162.5t162 -67.5q94 0 162 67.5t68 162.5q0 94 -68 161.5t-162 67.5q-95 0 -162 -67.5t-67 -161.5z" />
<glyph unicode="&#xb1;" horiz-adv-x="1308" d="M139 0v123h1028v-123h-1028zM139 618v136h441v331h139v-331h448v-136h-448v-331h-139v331h-441z" />
<glyph unicode="&#xb2;" horiz-adv-x="772" d="M66 788v74q0 43 10 81t33 71.5t44 58t61 54t64.5 46t71.5 46.5q55 34 81.5 52t61 47t48.5 56t14 58q0 53 -43.5 85.5t-120.5 32.5q-64 0 -128.5 -25t-108.5 -55l-64 89q155 104 316 104q133 0 209.5 -62.5t76.5 -164.5q0 -55 -20.5 -101.5t-70 -89t-81.5 -64.5t-103 -64 q-19 -11 -28 -17q-87 -52 -127.5 -94.5t-40.5 -104.5h473v-113h-628z" />
<glyph unicode="&#xb3;" horiz-adv-x="780" d="M47 870l64 93q54 -31 124 -53.5t136 -22.5q87 0 141.5 39.5t54.5 107.5q0 44 -26 77.5t-68.5 51t-87.5 25.5t-92 8h-43v115h49q91 0 160 33.5t69 99.5q0 49 -40 77.5t-111 28.5q-112 0 -232 -71l-55 84q22 18 56 37t105.5 41t143.5 22q128 0 198.5 -60t70.5 -145 q0 -62 -42 -114t-124 -80q92 -24 149.5 -85.5t57.5 -144.5q0 -107 -81 -183.5t-237 -76.5q-171 0 -340 96z" />
<glyph unicode="&#xb4;" horiz-adv-x="438" d="M-23 1227l250 266h234l-342 -266h-142z" />
<glyph unicode="&#xb5;" horiz-adv-x="1236" d="M174 1075h170v-735q0 -104 41.5 -163.5t144.5 -59.5q99 0 211.5 56.5t182.5 119.5v782h170v-1075h-170v150q-87 -64 -206 -118.5t-239 -54.5q-72 0 -133 23v-418h-170z" />
<glyph unicode="&#xb6;" horiz-adv-x="1306" d="M72 991q0 220 130.5 331.5t381.5 111.5h149v-1813h-153v930q-233 0 -370.5 113t-137.5 327zM958 -381v1815h154v-1815h-154z" />
<glyph unicode="&#xb7;" horiz-adv-x="503" d="M154 459v246h196v-246h-196z" />
<glyph unicode="&#xb8;" horiz-adv-x="354" d="M-8 -313l43 102q62 -29 104 -29q53 0 84 23t31 72q0 34 -16 71t-32 58l-16 20h89q9 -10 22.5 -27t36 -66t22.5 -93q0 -80 -56.5 -125t-149.5 -45q-85 0 -162 39z" />
<glyph unicode="&#xb9;" horiz-adv-x="501" d="M29 1530l227 119h125v-861h-135v732l-160 -80z" />
<glyph unicode="&#xba;" horiz-adv-x="798" d="M72 1110q0 160 84.5 249t242.5 89q157 0 242.5 -89.5t85.5 -248.5q0 -158 -85.5 -247t-242.5 -89q-158 0 -242.5 88.5t-84.5 247.5zM203 1110q0 -233 196 -233q100 0 148.5 61t48.5 172t-48.5 173.5t-148.5 62.5q-196 0 -196 -236z" />
<glyph unicode="&#xbb;" horiz-adv-x="1398" d="M123 63v170l473 340l-473 338v170l625 -452v-111zM698 63v170l473 340l-473 338v170l625 -452v-111z" />
<glyph unicode="&#xbc;" horiz-adv-x="1660" d="M57 1315l228 119h125v-861h-136v732l-159 -80zM324 0l684 1434h143l-684 -1434h-143zM836 182v97l426 581h178v-567h139v-111h-139v-182h-135v182h-469zM977 293h328v455z" />
<glyph unicode="&#xbd;" horiz-adv-x="1710" d="M57 1315l228 119h125v-861h-136v732l-159 -80zM324 0l684 1434h143l-684 -1434h-143zM969 0v74q0 43 10 81t33 71.5t44 57.5t61 54t64 46t72 46q55 34 81.5 52t61 47t48.5 56t14 58q0 53 -43.5 86t-120.5 33q-64 0 -128.5 -25t-108.5 -55l-64 88q155 104 316 104 q133 0 209.5 -62.5t76.5 -164.5q0 -55 -20.5 -101.5t-70 -89t-81.5 -64.5t-103 -64q-7 -4 -10 -6t-8.5 -5t-9.5 -6q-87 -52 -127.5 -94t-40.5 -104h473v-113h-628z" />
<glyph unicode="&#xbe;" horiz-adv-x="1888" d="M84 655l63 93q53 -31 124 -53.5t137 -22.5q87 0 141.5 39.5t54.5 107.5q0 44 -26 77.5t-68.5 51t-87.5 25.5t-92 8h-43v115h49q91 0 160 33.5t69 99.5q0 49 -40 77.5t-111 28.5q-112 0 -232 -71l-55 84q22 18 56 37t105.5 41t143.5 22q128 0 198 -60t70 -145 q0 -63 -41.5 -114.5t-123.5 -79.5q92 -24 149 -85.5t57 -144.5q0 -107 -80.5 -183.5t-236.5 -76.5q-171 0 -340 96zM555 0l684 1434h143l-684 -1434h-143zM1065 182v97l426 581h178v-567h139v-111h-139v-182h-135v182h-469zM1206 293h328v455z" />
<glyph unicode="&#xbf;" horiz-adv-x="1032" d="M90 326q0 301 447 417l12 263h123l14 -361q-211 -45 -316.5 -112t-105.5 -187q0 -101 76 -159t192 -58q155 0 355 119l84 -119q-88 -60 -208.5 -106t-250.5 -46q-113 0 -207 38t-154.5 119t-60.5 192zM512 1198v236h197v-236h-197z" />
<glyph unicode="&#xc0;" horiz-adv-x="1396" d="M47 0l555 1434h193l555 -1434h-193l-127 350h-663l-127 -350h-193zM377 1802h229l254 -266h-143zM418 496h559l-279 774z" />
<glyph unicode="&#xc1;" horiz-adv-x="1396" d="M47 0l555 1434h193l555 -1434h-193l-127 350h-663l-127 -350h-193zM418 496h559l-279 774zM539 1536l249 266h234l-342 -266h-141z" />
<glyph unicode="&#xc2;" horiz-adv-x="1396" d="M47 0l555 1434h193l555 -1434h-193l-127 350h-663l-127 -350h-193zM397 1536l203 266h195l204 -266h-127l-174 174l-174 -174h-127zM418 496h559l-279 774z" />
<glyph unicode="&#xc3;" horiz-adv-x="1396" d="M47 0l555 1434h193l555 -1434h-193l-127 350h-663l-127 -350h-193zM377 1597q44 86 85 129t105 43q44 0 94.5 -25t93.5 -50t70 -25q26 0 49 18.5t54 75.5l92 -39q-41 -86 -83.5 -130t-107.5 -44q-34 0 -73.5 16t-69 34.5t-61.5 34.5t-54 16q-26 0 -48.5 -19t-53.5 -76z M418 496h559l-279 774z" />
<glyph unicode="&#xc4;" horiz-adv-x="1396" d="M47 0l555 1434h193l555 -1434h-193l-127 350h-663l-127 -350h-193zM418 496h559l-279 774zM442 1559v190h170v-190h-170zM788 1559v190h168v-190h-168z" />
<glyph unicode="&#xc5;" horiz-adv-x="1396" d="M47 0l555 1434h193l555 -1434h-193l-127 350h-663l-127 -350h-193zM418 496h559l-279 774zM489 1726q0 89 61.5 152.5t149.5 63.5q89 0 152 -63.5t63 -152.5q0 -88 -63 -149t-152 -61q-88 0 -149.5 61t-61.5 149zM586 1726q0 -47 33.5 -80.5t80.5 -33.5q49 0 83 33.5 t34 80.5q0 50 -33.5 83.5t-83.5 33.5q-47 0 -80.5 -34t-33.5 -83z" />
<glyph unicode="&#xc6;" horiz-adv-x="2072" d="M2 0l985 1434h967v-154h-731v-487h604v-152h-604v-487h743v-154h-922v350h-600l-233 -350h-209zM545 500h499v747z" />
<glyph unicode="&#xc7;" horiz-adv-x="1314" d="M125 717q0 151 30 274.5t81.5 209t123.5 143.5t154 85t174 27q142 0 275 -57.5t276 -153.5l-92 -127q-60 39 -99.5 62t-103 54t-124 46.5t-118.5 15.5q-177 0 -286 -154.5t-109 -424.5t109 -425t286 -155q58 0 118.5 15.5t124 46.5t103 54t99.5 62l92 -127 q-126 -85 -244.5 -139.5t-244.5 -66.5q63 -83 63 -164q0 -80 -57 -125t-150 -45q-85 0 -162 39l43 102q62 -29 105 -29q53 0 84 23t31 72q0 55 -45 122q-88 4 -166.5 33t-147 88t-118 144t-77.5 206.5t-28 268.5z" />
<glyph unicode="&#xc8;" horiz-adv-x="1218" d="M193 0v1434h909v-154h-731v-487h604v-152h-604v-487h743v-154h-921zM332 1802h229l254 -266h-143z" />
<glyph unicode="&#xc9;" horiz-adv-x="1218" d="M193 0v1434h909v-154h-731v-487h604v-152h-604v-487h743v-154h-921zM494 1536l249 266h234l-342 -266h-141z" />
<glyph unicode="&#xca;" horiz-adv-x="1218" d="M193 0v1434h909v-154h-731v-487h604v-152h-604v-487h743v-154h-921zM352 1536l203 266h195l204 -266h-127l-174 174l-174 -174h-127z" />
<glyph unicode="&#xcb;" horiz-adv-x="1218" d="M193 0v1434h909v-154h-731v-487h604v-152h-604v-487h743v-154h-921zM395 1556v191h170v-191h-170zM741 1556v191h168v-191h-168z" />
<glyph unicode="&#xcc;" horiz-adv-x="567" d="M-37 1802h230l253 -266h-143zM197 0v1434h178v-1434h-178z" />
<glyph unicode="&#xcd;" horiz-adv-x="567" d="M123 1536l250 266h233l-342 -266h-141zM193 0v1434h178v-1434h-178z" />
<glyph unicode="&#xce;" horiz-adv-x="569" d="M-16 1536l202 266h195l205 -266h-127l-174 174l-174 -174h-127zM195 0v1434h178v-1434h-178z" />
<glyph unicode="&#xcf;" horiz-adv-x="569" d="M27 1554v191h170v-191h-170zM195 0v1434h178v-1434h-178zM373 1554v191h168v-191h-168z" />
<glyph unicode="&#xd0;" horiz-adv-x="1449" d="M53 643v148h152v643h444q676 0 676 -717t-676 -717h-444v643h-152zM383 154h254q261 0 383.5 134.5t122.5 428.5q0 293 -122.5 428t-383.5 135h-254v-489h344v-148h-344v-489z" />
<glyph unicode="&#xd1;" horiz-adv-x="1488" d="M193 0v1434h182l743 -1174v1174h176v-1434h-182l-741 1171v-1171h-178zM434 1602q44 86 85.5 129t105.5 43q34 0 73.5 -16t69 -34.5t61.5 -34.5t54 -16q26 0 48.5 18.5t53.5 75.5l92 -38q-41 -86 -83.5 -130.5t-106.5 -44.5q-34 0 -73.5 16t-69 34.5t-61.5 34.5t-54 16 q-26 0 -49 -18.5t-54 -75.5z" />
<glyph unicode="&#xd2;" horiz-adv-x="1511" d="M125 717q0 126 21 234t69 202t120 160.5t178.5 104.5t240.5 38t241 -38t179 -104.5t120 -160.5t69 -202t21 -234q0 -125 -21 -233t-69 -202.5t-119.5 -161t-179 -105t-241.5 -38.5t-240.5 38.5t-178.5 105t-120 161t-69 202.5t-21 233zM307 717q0 -128 23.5 -230t74 -184 t139.5 -127t210 -45q123 0 212 45t139.5 127t73.5 184t23 230t-23 230t-73.5 184t-139.5 127t-212 45q-121 0 -210 -45t-139.5 -127t-74 -184t-23.5 -230zM432 1802h230l253 -266h-143z" />
<glyph unicode="&#xd3;" horiz-adv-x="1511" d="M125 717q0 126 21 234t69 202t120 160.5t178.5 104.5t240.5 38t241 -38t179 -104.5t120 -160.5t69 -202t21 -234q0 -125 -21 -233t-69 -202.5t-119.5 -161t-179 -105t-241.5 -38.5t-240.5 38.5t-178.5 105t-120 161t-69 202.5t-21 233zM307 717q0 -128 23.5 -230t74 -184 t139.5 -127t210 -45q123 0 212 45t139.5 127t73.5 184t23 230t-23 230t-73.5 184t-139.5 127t-212 45q-121 0 -210 -45t-139.5 -127t-74 -184t-23.5 -230zM594 1536l250 266h233l-342 -266h-141z" />
<glyph unicode="&#xd4;" horiz-adv-x="1511" d="M125 717q0 126 21 234t69 202t120 160.5t178.5 104.5t240.5 38t241 -38t179 -104.5t120 -160.5t69 -202t21 -234q0 -125 -21 -233t-69 -202.5t-119.5 -161t-179 -105t-241.5 -38.5t-240.5 38.5t-178.5 105t-120 161t-69 202.5t-21 233zM307 717q0 -128 23.5 -230t74 -184 t139.5 -127t210 -45q123 0 212 45t139.5 127t73.5 184t23 230t-23 230t-73.5 184t-139.5 127t-212 45q-121 0 -210 -45t-139.5 -127t-74 -184t-23.5 -230zM455 1536l202 266h195l205 -266h-127l-174 174l-174 -174h-127z" />
<glyph unicode="&#xd5;" horiz-adv-x="1511" d="M125 717q0 126 21 234t69 202t120 160.5t178.5 104.5t240.5 38t241 -38t179 -104.5t120 -160.5t69 -202t21 -234q0 -125 -21 -233t-69 -202.5t-119.5 -161t-179 -105t-241.5 -38.5t-240.5 38.5t-178.5 105t-120 161t-69 202.5t-21 233zM307 717q0 -128 23.5 -230t74 -184 t139.5 -127t210 -45q123 0 212 45t139.5 127t73.5 184t23 230t-23 230t-73.5 184t-139.5 127t-212 45q-121 0 -210 -45t-139.5 -127t-74 -184t-23.5 -230zM432 1597q44 86 85.5 129t105.5 43q44 0 94.5 -25t93.5 -50t70 -25q26 0 48.5 18.5t53.5 75.5l92 -39 q-41 -86 -83 -130t-107 -44q-34 0 -73.5 16t-69 34.5t-61.5 34.5t-54 16q-26 0 -49 -19t-54 -76z" />
<glyph unicode="&#xd6;" horiz-adv-x="1511" d="M125 717q0 126 21 234t69 202t120 160.5t178.5 104.5t240.5 38t241 -38t179 -104.5t120 -160.5t69 -202t21 -234q0 -125 -21 -233t-69 -202.5t-119.5 -161t-179 -105t-241.5 -38.5t-240.5 38.5t-178.5 105t-120 161t-69 202.5t-21 233zM307 717q0 -128 23.5 -230t74 -184 t139.5 -127t210 -45q123 0 212 45t139.5 127t73.5 184t23 230t-23 230t-73.5 184t-139.5 127t-212 45q-121 0 -210 -45t-139.5 -127t-74 -184t-23.5 -230zM498 1556v191h170v-191h-170zM844 1556v191h168v-191h-168z" />
<glyph unicode="&#xd7;" horiz-adv-x="1306" d="M238 967l98 98l315 -287l312 283l100 -98l-307 -279l309 -278l-98 -97l-316 283l-309 -281l-100 99l305 276z" />
<glyph unicode="&#xd8;" horiz-adv-x="1503" d="M121 717q0 126 21 234t69 202t120 160.5t178.5 104.5t240.5 38q238 0 391 -121l73 99h146l-135 -181q155 -192 155 -536q0 -125 -21 -233t-69 -202.5t-119.5 -161t-179 -105t-241.5 -38.5q-240 0 -390 119l-71 -96h-144l131 176q-155 192 -155 541zM303 717 q0 -245 84 -393l653 878q-109 101 -290 101q-121 0 -210 -45t-139.5 -127t-74 -184t-23.5 -230zM461 231q108 -100 289 -100q123 0 212 45t139.5 127t73.5 184t23 230q0 244 -84 389z" />
<glyph unicode="&#xd9;" horiz-adv-x="1433" d="M178 524v910h178v-916q0 -69 9 -123.5t33 -105.5t63.5 -84.5t104 -53.5t151.5 -20q86 0 150.5 20t104 53.5t63.5 84.5t33 105.5t9 123.5v916h176v-910q0 -96 -15.5 -175t-54 -149.5t-98.5 -118.5t-153.5 -76t-214.5 -28q-122 0 -215.5 28t-154 76t-99 118.5t-54.5 149.5 t-16 175zM395 1802h230l254 -266h-144z" />
<glyph unicode="&#xda;" horiz-adv-x="1433" d="M178 524v910h178v-916q0 -69 9 -123.5t33 -105.5t63.5 -84.5t104 -53.5t151.5 -20q86 0 150.5 20t104 53.5t63.5 84.5t33 105.5t9 123.5v916h176v-910q0 -96 -15.5 -175t-54 -149.5t-98.5 -118.5t-153.5 -76t-214.5 -28q-122 0 -215.5 28t-154 76t-99 118.5t-54.5 149.5 t-16 175zM557 1536l250 266h233l-342 -266h-141z" />
<glyph unicode="&#xdb;" horiz-adv-x="1433" d="M178 524v910h178v-916q0 -69 9 -123.5t33 -105.5t63.5 -84.5t104 -53.5t151.5 -20q86 0 150.5 20t104 53.5t63.5 84.5t33 105.5t9 123.5v916h176v-910q0 -96 -15.5 -175t-54 -149.5t-98.5 -118.5t-153.5 -76t-214.5 -28q-122 0 -215.5 28t-154 76t-99 118.5t-54.5 149.5 t-16 175zM418 1536l203 266h194l205 -266h-127l-174 174l-174 -174h-127z" />
<glyph unicode="&#xdc;" horiz-adv-x="1433" d="M178 524v910h178v-916q0 -69 9 -123.5t33 -105.5t63.5 -84.5t104 -53.5t151.5 -20q86 0 150.5 20t104 53.5t63.5 84.5t33 105.5t9 123.5v916h176v-910q0 -96 -15.5 -175t-54 -149.5t-98.5 -118.5t-153.5 -76t-214.5 -28q-122 0 -215.5 28t-154 76t-99 118.5t-54.5 149.5 t-16 175zM459 1556v191h170v-191h-170zM805 1556v191h168v-191h-168z" />
<glyph unicode="&#xdd;" horiz-adv-x="1296" d="M35 1434h201l413 -727l412 727h201l-527 -867v-567h-176v569zM489 1536l250 266h234l-342 -266h-142z" />
<glyph unicode="&#xde;" horiz-adv-x="1337" d="M193 0v1434h178v-256h336q120 0 214.5 -23t167.5 -73t112.5 -136.5t39.5 -204.5t-39.5 -204.5t-112.5 -137.5t-167.5 -74.5t-214.5 -23.5h-336v-301h-178zM371 451h323q365 0 365 290q0 79 -26.5 135.5t-76.5 88.5t-114.5 46.5t-147.5 14.5h-323v-575z" />
<glyph unicode="&#xdf;" horiz-adv-x="1312" d="M166 0v995q0 133 34 231t97.5 156.5t147.5 86.5t190 28q208 0 333.5 -95t125.5 -251q0 -53 -15.5 -97.5t-30.5 -62.5l-16 -18q-31 -9 -54.5 -18t-55.5 -25.5t-52.5 -35t-35.5 -47t-15 -61.5q0 -15 4.5 -29.5t9.5 -25.5t18.5 -25t23 -23t31.5 -24.5t35 -24.5t43 -28.5 t46 -30.5q103 -68 157 -137.5t54 -169.5q0 -134 -95.5 -212.5t-240.5 -78.5q-99 0 -210 34.5t-199 80.5l75 125q76 -39 167.5 -68.5t160.5 -29.5q74 0 124 40t50 109q0 60 -38.5 100.5t-133.5 100.5q-8 5 -37 22t-42 25t-40 27t-41 33.5t-33.5 37.5t-29.5 45.5t-17.5 52.5 t-7.5 62q0 65 26 117t71.5 86.5t82 53.5t82.5 36q15 43 15 78q0 97 -78 156t-209 59q-69 0 -122 -18t-96 -59t-66 -114.5t-23 -177.5v-991h-170z" />
<glyph unicode="&#xe0;" horiz-adv-x="1181" d="M96 322q0 71 20 129.5t54.5 99t82 68.5t102 40.5t114.5 12.5q56 0 128.5 -10.5t158 -27.5t100.5 -20v121q0 119 -49 172.5t-176 53.5q-56 0 -127.5 -14t-124.5 -30t-148 -47l-61 125q284 103 483 103q184 0 278.5 -84.5t94.5 -272.5v-741h-170v143q-179 -166 -399 -166 q-54 0 -105 12t-98 38.5t-81.5 65.5t-55.5 98t-21 131zM270 330q0 -109 61.5 -160t166.5 -51q187 0 358 157v236q-6 1 -63 12.5t-88 17t-82.5 11.5t-90.5 6q-138 0 -200 -63.5t-62 -165.5zM279 1493h229l254 -266h-144z" />
<glyph unicode="&#xe1;" horiz-adv-x="1181" d="M96 322q0 71 20 129.5t54.5 99t82 68.5t102 40.5t114.5 12.5q56 0 128.5 -10.5t158 -27.5t100.5 -20v121q0 119 -49 172.5t-176 53.5q-56 0 -127.5 -14t-124.5 -30t-148 -47l-61 125q284 103 483 103q184 0 278.5 -84.5t94.5 -272.5v-741h-170v143q-179 -166 -399 -166 q-54 0 -105 12t-98 38.5t-81.5 65.5t-55.5 98t-21 131zM270 330q0 -109 61.5 -160t166.5 -51q187 0 358 157v236q-6 1 -63 12.5t-88 17t-82.5 11.5t-90.5 6q-138 0 -200 -63.5t-62 -165.5zM438 1227l250 266h234l-342 -266h-142z" />
<glyph unicode="&#xe2;" horiz-adv-x="1181" d="M96 322q0 71 20 129.5t54.5 99t82 68.5t102 40.5t114.5 12.5q56 0 128.5 -10.5t158 -27.5t100.5 -20v121q0 119 -49 172.5t-176 53.5q-56 0 -127.5 -14t-124.5 -30t-148 -47l-61 125q284 103 483 103q184 0 278.5 -84.5t94.5 -272.5v-741h-170v143q-179 -166 -399 -166 q-54 0 -105 12t-98 38.5t-81.5 65.5t-55.5 98t-21 131zM270 330q0 -109 61.5 -160t166.5 -51q187 0 358 157v236q-6 1 -63 12.5t-88 17t-82.5 11.5t-90.5 6q-138 0 -200 -63.5t-62 -165.5zM297 1227l203 266h194l205 -266h-127l-174 174l-174 -174h-127z" />
<glyph unicode="&#xe3;" horiz-adv-x="1181" d="M96 322q0 71 20 129.5t54.5 99t82 68.5t102 40.5t114.5 12.5q56 0 128.5 -10.5t158 -27.5t100.5 -20v121q0 119 -49 172.5t-176 53.5q-56 0 -127.5 -14t-124.5 -30t-148 -47l-61 125q284 103 483 103q184 0 278.5 -84.5t94.5 -272.5v-741h-170v143q-179 -166 -399 -166 q-54 0 -105 12t-98 38.5t-81.5 65.5t-55.5 98t-21 131zM270 330q0 -109 61.5 -160t166.5 -51q187 0 358 157v236q-6 1 -63 12.5t-88 17t-82.5 11.5t-90.5 6q-138 0 -200 -63.5t-62 -165.5zM276 1288q44 86 85.5 129t105.5 43q44 0 94 -25t93.5 -50t70.5 -25q26 0 48.5 18.5 t53.5 75.5l93 -39q-41 -86 -83.5 -130t-107.5 -44q-44 0 -94.5 25t-93.5 50t-70 25q-26 0 -48.5 -18.5t-53.5 -75.5z" />
<glyph unicode="&#xe4;" horiz-adv-x="1181" d="M96 322q0 71 20 129.5t54.5 99t82 68.5t102 40.5t114.5 12.5q56 0 128.5 -10.5t158 -27.5t100.5 -20v121q0 119 -49 172.5t-176 53.5q-56 0 -127.5 -14t-124.5 -30t-148 -47l-61 125q284 103 483 103q184 0 278.5 -84.5t94.5 -272.5v-741h-170v143q-179 -166 -399 -166 q-54 0 -105 12t-98 38.5t-81.5 65.5t-55.5 98t-21 131zM270 330q0 -109 61.5 -160t166.5 -51q187 0 358 157v236q-6 1 -63 12.5t-88 17t-82.5 11.5t-90.5 6q-138 0 -200 -63.5t-62 -165.5zM340 1247v191h170v-191h-170zM686 1247v191h168v-191h-168z" />
<glyph unicode="&#xe5;" horiz-adv-x="1181" d="M96 322q0 71 20 129.5t54.5 99t82 68.5t102 40.5t114.5 12.5q56 0 128.5 -10.5t158 -27.5t100.5 -20v121q0 119 -49 172.5t-176 53.5q-56 0 -127.5 -14t-124.5 -30t-148 -47l-61 125q284 103 483 103q184 0 278.5 -84.5t94.5 -272.5v-741h-170v143q-179 -166 -399 -166 q-54 0 -105 12t-98 38.5t-81.5 65.5t-55.5 98t-21 131zM270 330q0 -109 61.5 -160t166.5 -51q187 0 358 157v236q-6 1 -63 12.5t-88 17t-82.5 11.5t-90.5 6q-138 0 -200 -63.5t-62 -165.5zM387 1417q0 89 61.5 152t149.5 63q89 0 152 -63t63 -152q0 -88 -63 -149.5 t-152 -61.5q-88 0 -149.5 61.5t-61.5 149.5zM483 1417q0 -47 34 -80.5t81 -33.5q49 0 83 33.5t34 80.5q0 49 -33.5 83t-83.5 34q-48 0 -81.5 -34t-33.5 -83z" />
<glyph unicode="&#xe6;" horiz-adv-x="1888" d="M96 322q0 71 20 129.5t54.5 99t82 68.5t102 40.5t114.5 12.5q35 0 74 -4t82 -13t71 -15.5t72.5 -18t54.5 -13.5q9 82 31 160q-5 100 -55 146.5t-168 46.5q-56 0 -127.5 -14t-124.5 -30t-148 -47l-61 125q284 103 483 103q235 0 320 -135q135 135 348 135 q219 0 338 -128.5t119 -336.5q0 -36 -4 -70.5t-8 -51.5l-3 -17h-768q10 -176 94.5 -278.5t215.5 -102.5q155 0 401 145l78 -113q-52 -30 -70.5 -41t-81 -41.5t-105.5 -44.5t-108 -27.5t-125 -13.5q-123 0 -224.5 54t-164.5 159q-203 -213 -448 -213q-54 0 -105 12t-98 38.5 t-81.5 65.5t-55.5 98t-21 131zM270 330q0 -109 61.5 -160t166.5 -51q184 0 362 168q-36 111 -39 213q-13 3 -62.5 17t-78.5 21t-72 14t-76 7q-138 0 -200 -63.5t-62 -165.5zM997 604h611q4 184 -72 273.5t-217 89.5q-138 0 -223 -97t-99 -266z" />
<glyph unicode="&#xe7;" horiz-adv-x="1064" d="M109 539q0 136 38.5 245t104 176t148.5 102.5t175 35.5q60 0 122 -14t123.5 -41.5t91.5 -43t79 -43.5l-78 -127q-4 2 -27.5 16t-38.5 22t-42.5 22.5t-51 23t-52 18.5t-56.5 14.5t-55 4.5q-133 0 -219 -112t-86 -299t86 -300.5t219 -113.5q36 0 75.5 8.5t80 26t65.5 29.5 t61.5 32.5t40.5 22.5l78 -125q-64 -36 -101 -55.5t-120 -49t-154 -34.5q62 -82 62 -162t-57 -125t-150 -45q-85 0 -162 39l43 102q62 -29 105 -29q114 0 114 95q0 57 -45 125q-85 9 -159.5 48.5t-132.5 107.5t-91.5 172t-33.5 231z" />
<glyph unicode="&#xe8;" horiz-adv-x="1177" d="M109 537q0 265 137.5 413t361.5 148q219 0 338 -128.5t119 -336.5q0 -36 -3.5 -70.5t-7.5 -51.5l-3 -17h-768q10 -176 94 -278.5t215 -102.5q155 0 401 145l78 -113q-54 -31 -71 -41t-80 -41t-105.5 -45t-107.5 -27.5t-125 -13.5q-98 0 -183 35.5t-150 104t-102.5 176.5 t-37.5 244zM285 604h610q4 184 -72 273.5t-217 89.5q-138 0 -222.5 -97t-98.5 -266zM287 1493h229l254 -266h-143z" />
<glyph unicode="&#xe9;" horiz-adv-x="1177" d="M109 537q0 265 137.5 413t361.5 148q219 0 338 -128.5t119 -336.5q0 -36 -3.5 -70.5t-7.5 -51.5l-3 -17h-768q10 -176 94 -278.5t215 -102.5q155 0 401 145l78 -113q-54 -31 -71 -41t-80 -41t-105.5 -45t-107.5 -27.5t-125 -13.5q-98 0 -183 35.5t-150 104t-102.5 176.5 t-37.5 244zM285 604h610q4 184 -72 273.5t-217 89.5q-138 0 -222.5 -97t-98.5 -266zM449 1227l249 266h234l-342 -266h-141z" />
<glyph unicode="&#xea;" horiz-adv-x="1177" d="M109 537q0 265 137.5 413t361.5 148q219 0 338 -128.5t119 -336.5q0 -36 -3.5 -70.5t-7.5 -51.5l-3 -17h-768q10 -176 94 -278.5t215 -102.5q155 0 401 145l78 -113q-54 -31 -71 -41t-80 -41t-105.5 -45t-107.5 -27.5t-125 -13.5q-98 0 -183 35.5t-150 104t-102.5 176.5 t-37.5 244zM285 604h610q4 184 -72 273.5t-217 89.5q-138 0 -222.5 -97t-98.5 -266zM307 1227l203 266h195l204 -266h-127l-174 174l-174 -174h-127z" />
<glyph unicode="&#xeb;" horiz-adv-x="1177" d="M109 537q0 265 137.5 413t361.5 148q219 0 338 -128.5t119 -336.5q0 -36 -3.5 -70.5t-7.5 -51.5l-3 -17h-768q10 -176 94 -278.5t215 -102.5q155 0 401 145l78 -113q-54 -31 -71 -41t-80 -41t-105.5 -45t-107.5 -27.5t-125 -13.5q-98 0 -183 35.5t-150 104t-102.5 176.5 t-37.5 244zM285 604h610q4 184 -72 273.5t-217 89.5q-138 0 -222.5 -97t-98.5 -266zM350 1247v191h170v-191h-170zM696 1247v191h168v-191h-168z" />
<glyph unicode="&#xec;" horiz-adv-x="505" d="M-66 1493h230l254 -266h-144zM172 0v1075h170v-1075h-170z" />
<glyph unicode="&#xed;" horiz-adv-x="507" d="M92 1227l250 266h233l-342 -266h-141zM166 0v1075h170v-1075h-170z" />
<glyph unicode="&#xee;" horiz-adv-x="509" d="M-45 1227l203 266h194l205 -266h-127l-174 174l-174 -174h-127zM170 0v1075h170v-1075h-170z" />
<glyph unicode="&#xef;" horiz-adv-x="507" d="M-4 1247v191h170v-191h-170zM168 0v1075h170v-1075h-170zM342 1247v191h168v-191h-168z" />
<glyph unicode="&#xf0;" horiz-adv-x="1251" d="M113 475q0 225 130 362.5t341 137.5q74 0 139 -16.5t104.5 -40.5t69 -48t41.5 -40l12 -17q-34 138 -118.5 257.5t-213.5 178.5l-133 -108h-172l179 147q-40 6 -86 6q-39 0 -78 -4.5t-58 -9.5l-20 -4l-29 133q76 25 189 25q107 0 219 -33l114 92h177l-177 -143 q185 -100 289.5 -303.5t104.5 -468.5q0 -131 -26.5 -234.5t-73 -171.5t-112 -112.5t-139.5 -63.5t-161 -19q-238 0 -375 135.5t-137 362.5zM289 475q0 -164 87.5 -262t250.5 -98q160 0 249 96t89 266q0 169 -87 265t-251 96q-165 0 -251.5 -100t-86.5 -263z" />
<glyph unicode="&#xf1;" d="M166 0v1075h170v-151q85 64 203.5 119t238.5 55q86 0 147.5 -26t95 -73t49 -104.5t15.5 -128.5v-766h-170v735q0 104 -41.5 163.5t-144.5 59.5q-100 0 -211 -56.5t-182 -119.5v-782h-170zM301 1288q44 86 85.5 129t105.5 43q44 0 94 -25t93.5 -50t70.5 -25 q26 0 48.5 18.5t53.5 75.5l92 -39q-41 -86 -83 -130t-107 -44q-44 0 -94 25t-93.5 50t-70.5 25q-26 0 -49 -18.5t-54 -75.5z" />
<glyph unicode="&#xf2;" horiz-adv-x="1234" d="M111 537q0 264 131 412.5t376 148.5q243 0 374.5 -148.5t131.5 -412.5t-131 -412t-375 -148q-245 0 -376 148t-131 412zM285 537q0 -200 81 -311t252 -111q169 0 250.5 111t81.5 311t-81.5 312t-250.5 112q-171 0 -252 -111.5t-81 -312.5zM295 1493h229l254 -266h-143z " />
<glyph unicode="&#xf3;" horiz-adv-x="1234" d="M111 537q0 264 131 412.5t376 148.5q243 0 374.5 -148.5t131.5 -412.5t-131 -412t-375 -148q-245 0 -376 148t-131 412zM285 537q0 -200 81 -311t252 -111q169 0 250.5 111t81.5 311t-81.5 312t-250.5 112q-171 0 -252 -111.5t-81 -312.5zM457 1227l250 266h233 l-342 -266h-141z" />
<glyph unicode="&#xf4;" horiz-adv-x="1234" d="M111 537q0 264 131 412.5t376 148.5q243 0 374.5 -148.5t131.5 -412.5t-131 -412t-375 -148q-245 0 -376 148t-131 412zM285 537q0 -200 81 -311t252 -111q169 0 250.5 111t81.5 311t-81.5 312t-250.5 112q-171 0 -252 -111.5t-81 -312.5zM317 1227l203 266h195l205 -266 h-127l-175 174l-174 -174h-127z" />
<glyph unicode="&#xf5;" horiz-adv-x="1234" d="M111 537q0 264 131 412.5t376 148.5q243 0 374.5 -148.5t131.5 -412.5t-131 -412t-375 -148q-245 0 -376 148t-131 412zM285 537q0 -200 81 -311t252 -111q169 0 250.5 111t81.5 311t-81.5 312t-250.5 112q-171 0 -252 -111.5t-81 -312.5zM297 1288q44 86 85 129t105 43 q44 0 94.5 -25t93.5 -50t70 -25q26 0 49 18.5t54 75.5l92 -39q-41 -86 -83 -130t-107 -44q-44 0 -94 25t-93.5 50t-70.5 25q-26 0 -49 -18.5t-54 -75.5z" />
<glyph unicode="&#xf6;" horiz-adv-x="1234" d="M111 537q0 264 131 412.5t376 148.5q243 0 374.5 -148.5t131.5 -412.5t-131 -412t-375 -148q-245 0 -376 148t-131 412zM285 537q0 -200 81 -311t252 -111q169 0 250.5 111t81.5 311t-81.5 312t-250.5 112q-171 0 -252 -111.5t-81 -312.5zM360 1247v191h170v-191h-170z M707 1247v191h167v-191h-167z" />
<glyph unicode="&#xf7;" horiz-adv-x="1308" d="M139 614v136h1028v-136h-1028zM535 326q0 51 33.5 85.5t84.5 34.5t86 -34.5t35 -85.5t-35 -85t-86 -34t-84.5 34t-33.5 85zM535 1038q0 51 33.5 86t84.5 35t86 -35t35 -86t-35 -84.5t-86 -33.5t-84.5 33.5t-33.5 84.5z" />
<glyph unicode="&#xf8;" horiz-adv-x="1228" d="M106 537q0 264 131.5 412.5t376.5 148.5q182 0 304 -86l51 63h127l-103 -131q127 -149 127 -407q0 -264 -131 -412t-375 -148q-183 0 -305 84l-49 -61h-129l102 131q-127 145 -127 406zM281 537q0 -174 55 -273l489 627q-82 70 -211 70q-171 0 -252 -111.5t-81 -312.5z M401 182q79 -67 213 -67q169 0 250.5 111t81.5 311q0 170 -57 272z" />
<glyph unicode="&#xf9;" d="M156 307v768h170v-735q0 -104 41.5 -163.5t144.5 -59.5q99 0 211 56.5t182 119.5v782h170v-1075h-170v150q-87 -64 -205.5 -118.5t-238.5 -54.5q-84 0 -145 25.5t-95 72.5t-49.5 104t-15.5 128zM293 1493h229l254 -266h-143z" />
<glyph unicode="&#xfa;" d="M156 307v768h170v-735q0 -104 41.5 -163.5t144.5 -59.5q99 0 211 56.5t182 119.5v782h170v-1075h-170v150q-87 -64 -205.5 -118.5t-238.5 -54.5q-84 0 -145 25.5t-95 72.5t-49.5 104t-15.5 128zM455 1227l250 266h233l-342 -266h-141z" />
<glyph unicode="&#xfb;" d="M156 307v768h170v-735q0 -104 41.5 -163.5t144.5 -59.5q99 0 211 56.5t182 119.5v782h170v-1075h-170v150q-87 -64 -205.5 -118.5t-238.5 -54.5q-84 0 -145 25.5t-95 72.5t-49.5 104t-15.5 128zM313 1227l203 266h195l204 -266h-127l-174 174l-174 -174h-127z" />
<glyph unicode="&#xfc;" d="M156 307v768h170v-735q0 -104 41.5 -163.5t144.5 -59.5q99 0 211 56.5t182 119.5v782h170v-1075h-170v150q-87 -64 -205.5 -118.5t-238.5 -54.5q-84 0 -145 25.5t-95 72.5t-49.5 104t-15.5 128zM358 1247v191h170v-191h-170zM705 1247v191h167v-191h-167z" />
<glyph unicode="&#xfd;" horiz-adv-x="1144" d="M57 1075h185l329 -874l330 874h186l-602 -1493h-186l188 424zM412 1227l250 266h233l-342 -266h-141z" />
<glyph unicode="&#xfe;" horiz-adv-x="1236" d="M166 -418v1911h170v-557q179 162 379 162q87 0 160 -32.5t129.5 -98.5t88 -175.5t31.5 -254.5q0 -144 -31.5 -253.5t-88 -175.5t-129.5 -98.5t-160 -32.5q-205 0 -379 162v-557h-170zM336 291q68 -76 158.5 -124t187.5 -48q132 0 201 110t69 308q0 199 -69 309t-201 110 q-98 0 -188 -48.5t-158 -125.5v-491z" />
<glyph unicode="&#xff;" horiz-adv-x="1144" d="M57 1075h185l329 -874l330 874h186l-602 -1493h-186l188 424zM315 1247v191h170v-191h-170zM662 1247v191h167v-191h-167z" />
<glyph unicode="&#x100;" horiz-adv-x="1396" d="M47 0l555 1434h193l555 -1434h-193l-127 350h-663l-127 -350h-193zM399 1587v113h598v-113h-598zM418 496h559l-279 774z" />
<glyph unicode="&#x101;" horiz-adv-x="1181" d="M96 322q0 71 20 129.5t54.5 99t82 68.5t102 40.5t114.5 12.5q56 0 128.5 -10.5t158 -27.5t100.5 -20v121q0 119 -49 172.5t-176 53.5q-56 0 -127.5 -14t-124.5 -30t-148 -47l-61 125q284 103 483 103q184 0 278.5 -84.5t94.5 -272.5v-741h-170v143q-179 -166 -399 -166 q-54 0 -105 12t-98 38.5t-81.5 65.5t-55.5 98t-21 131zM270 330q0 -109 61.5 -160t166.5 -51q187 0 358 157v236q-6 1 -63 12.5t-88 17t-82.5 11.5t-90.5 6q-138 0 -200 -63.5t-62 -165.5zM299 1278v113h598v-113h-598z" />
<glyph unicode="&#x102;" horiz-adv-x="1396" d="M47 0l555 1434h193l555 -1434h-193l-127 350h-663l-127 -350h-193zM406 1755h120q0 -108 170 -108q172 0 172 108h123q0 -102 -78 -160.5t-217 -58.5q-137 0 -213.5 58.5t-76.5 160.5zM418 496h559l-279 774z" />
<glyph unicode="&#x103;" horiz-adv-x="1181" d="M96 322q0 71 20 129.5t54.5 99t82 68.5t102 40.5t114.5 12.5q56 0 128.5 -10.5t158 -27.5t100.5 -20v121q0 119 -49 172.5t-176 53.5q-56 0 -127.5 -14t-124.5 -30t-148 -47l-61 125q284 103 483 103q184 0 278.5 -84.5t94.5 -272.5v-741h-170v143q-179 -166 -399 -166 q-54 0 -105 12t-98 38.5t-81.5 65.5t-55.5 98t-21 131zM270 330q0 -109 61.5 -160t166.5 -51q187 0 358 157v236q-6 1 -63 12.5t-88 17t-82.5 11.5t-90.5 6q-138 0 -200 -63.5t-62 -165.5zM307 1446h121q0 -109 170 -109q172 0 172 109h123q0 -102 -78 -160.5t-217 -58.5 q-137 0 -214 58.5t-77 160.5z" />
<glyph unicode="&#x104;" horiz-adv-x="1396" d="M47 0l555 1434h193l555 -1434h-9q-103 -60 -139 -90q-61 -54 -61 -107q0 -16 5 -28t12 -20t20 -13.5t22 -8.5t27 -4t26 -1.5t27 0t23 0.5l-21 -103h-38t-46 3t-54 8.5t-49 17t-45.5 28t-29 43t-12.5 60.5q0 62 55.5 117t146.5 98h-53l-127 350h-663l-127 -350h-193z M418 496h559l-279 774z" />
<glyph unicode="&#x105;" horiz-adv-x="1181" d="M96 322q0 71 20 129.5t54.5 99t82 68.5t102 40.5t114.5 12.5q56 0 128.5 -10.5t158 -27.5t100.5 -20v121q0 119 -49 172.5t-176 53.5q-56 0 -127.5 -14t-124.5 -30t-148 -47l-61 125q284 103 483 103q184 0 278.5 -84.5t94.5 -272.5v-741h-6q-103 -59 -137 -89 q-64 -54 -64 -108q0 -16 5 -28t12 -20t20 -13.5t22 -8.5t27 -4t26 -1.5t27 0t23 0.5l-20 -103h-38t-46 3t-54.5 8.5t-49.5 17t-45.5 28t-29 43t-12.5 60.5q0 118 203 215h-33v143q-179 -166 -399 -166q-54 0 -105 12t-98 38.5t-81.5 65.5t-55.5 98t-21 131zM270 330 q0 -109 61.5 -160t166.5 -51q187 0 358 157v236q-6 1 -63 12.5t-88 17t-82.5 11.5t-90.5 6q-138 0 -200 -63.5t-62 -165.5z" />
<glyph unicode="&#x106;" horiz-adv-x="1314" d="M125 717q0 151 30 274.5t81.5 209t123.5 143.5t154 85t174 27q142 0 275 -57.5t276 -153.5l-92 -127q-60 39 -99.5 62t-103 54t-124 46.5t-118.5 15.5q-177 0 -286 -154.5t-109 -424.5t109 -425t286 -155q58 0 118.5 15.5t124 46.5t103 54t99.5 62l92 -127 q-143 -96 -276 -153.5t-275 -57.5q-92 0 -174 27t-154 85t-123.5 143.5t-81.5 209.5t-30 275zM612 1536l250 266h234l-342 -266h-142z" />
<glyph unicode="&#x107;" horiz-adv-x="1064" d="M109 539q0 136 38.5 245t104 176t148.5 102.5t175 35.5q60 0 122 -14t123.5 -41.5t91.5 -43t79 -43.5l-78 -127q-4 2 -27.5 16t-38.5 22t-42.5 22.5t-51 23t-52 18.5t-56.5 14.5t-55 4.5q-133 0 -219 -112t-86 -299t86 -300.5t219 -113.5q36 0 75.5 8.5t80 26t65.5 29.5 t61.5 32.5t40.5 22.5l78 -125q-49 -28 -79 -43.5t-91.5 -43t-123.5 -41.5t-122 -14q-92 0 -175 36t-148.5 104t-104 177t-38.5 245zM422 1227l250 266h233l-342 -266h-141z" />
<glyph unicode="&#x10a;" horiz-adv-x="1314" d="M125 717q0 151 30 274.5t81.5 209t123.5 143.5t154 85t174 27q142 0 275 -57.5t276 -153.5l-92 -127q-60 39 -99.5 62t-103 54t-124 46.5t-118.5 15.5q-177 0 -286 -154.5t-109 -424.5t109 -425t286 -155q58 0 118.5 15.5t124 46.5t103 54t99.5 62l92 -127 q-143 -96 -276 -153.5t-275 -57.5q-92 0 -174 27t-154 85t-123.5 143.5t-81.5 209.5t-30 275zM618 1556v191h170v-191h-170z" />
<glyph unicode="&#x10b;" horiz-adv-x="1064" d="M109 539q0 136 38.5 245t104 176t148.5 102.5t175 35.5q60 0 122 -14t123.5 -41.5t91.5 -43t79 -43.5l-78 -127q-4 2 -27.5 16t-38.5 22t-42.5 22.5t-51 23t-52 18.5t-56.5 14.5t-55 4.5q-133 0 -219 -112t-86 -299t86 -300.5t219 -113.5q36 0 75.5 8.5t80 26t65.5 29.5 t61.5 32.5t40.5 22.5l78 -125q-49 -28 -79 -43.5t-91.5 -43t-123.5 -41.5t-122 -14q-92 0 -175 36t-148.5 104t-104 177t-38.5 245zM496 1247v191h170v-191h-170z" />
<glyph unicode="&#x10c;" horiz-adv-x="1314" d="M125 717q0 151 30 274.5t81.5 209t123.5 143.5t154 85t174 27q142 0 275 -57.5t276 -153.5l-92 -127q-60 39 -99.5 62t-103 54t-124 46.5t-118.5 15.5q-177 0 -286 -154.5t-109 -424.5t109 -425t286 -155q58 0 118.5 15.5t124 46.5t103 54t99.5 62l92 -127 q-143 -96 -276 -153.5t-275 -57.5q-92 0 -174 27t-154 85t-123.5 143.5t-81.5 209.5t-30 275zM422 1802h127l174 -176l174 176h127l-205 -266h-194z" />
<glyph unicode="&#x10d;" horiz-adv-x="1064" d="M109 539q0 136 38.5 245t104 176t148.5 102.5t175 35.5q60 0 122 -14t123.5 -41.5t91.5 -43t79 -43.5l-78 -127q-4 2 -27.5 16t-38.5 22t-42.5 22.5t-51 23t-52 18.5t-56.5 14.5t-55 4.5q-133 0 -219 -112t-86 -299t86 -300.5t219 -113.5q36 0 75.5 8.5t80 26t65.5 29.5 t61.5 32.5t40.5 22.5l78 -125q-49 -28 -79 -43.5t-91.5 -43t-123.5 -41.5t-122 -14q-92 0 -175 36t-148.5 104t-104 177t-38.5 245zM281 1493h127l174 -176l174 176h127l-205 -266h-195z" />
<glyph unicode="&#x10e;" horiz-adv-x="1437" d="M193 0v1434h444q676 0 676 -717t-676 -717h-444zM371 154h254q261 0 383 134.5t122 428.5q0 293 -122 428t-383 135h-254v-1126zM451 1802h127l174 -176l174 176h127l-205 -266h-195z" />
<glyph unicode="&#x10f;" horiz-adv-x="1302" d="M113 537q0 145 31.5 254.5t88 175.5t129.5 98.5t160 32.5q200 0 379 -162v557h170v-1493h-170v139q-174 -162 -379 -162q-87 0 -160 32.5t-129.5 98.5t-88 175.5t-31.5 253.5zM285 537q0 -198 69 -308t201 -110q96 0 186 48t160 124v491q-69 77 -159.5 125.5t-186.5 48.5 q-132 0 -201 -110t-69 -309zM1182 1118l88 176h-76v199h164l18 -207l-145 -221z" />
<glyph unicode="&#x110;" horiz-adv-x="1449" d="M53 643v148h152v643h444q676 0 676 -717t-676 -717h-444v643h-152zM383 154h254q261 0 383.5 134.5t122.5 428.5q0 293 -122.5 428t-383.5 135h-254v-489h344v-148h-344v-489z" />
<glyph unicode="&#x111;" horiz-adv-x="1239" d="M113 537q0 145 31.5 254.5t88 175.5t129.5 98.5t160 32.5q200 0 379 -162v281h-346v114h346v162h170v-162h133v-114h-133v-1217h-170v139q-174 -162 -379 -162q-87 0 -160 32.5t-129.5 98.5t-88 175.5t-31.5 253.5zM285 537q0 -198 69 -308t201 -110q96 0 186 48t160 124 v491q-69 77 -159.5 125.5t-186.5 48.5q-132 0 -201 -110t-69 -309z" />
<glyph unicode="&#x112;" horiz-adv-x="1218" d="M193 0v1434h909v-154h-731v-487h604v-152h-604v-487h743v-154h-921zM354 1587v113h598v-113h-598z" />
<glyph unicode="&#x113;" horiz-adv-x="1177" d="M109 537q0 265 137.5 413t361.5 148q219 0 338 -128.5t119 -336.5q0 -36 -3.5 -70.5t-7.5 -51.5l-3 -17h-768q10 -176 94 -278.5t215 -102.5q155 0 401 145l78 -113q-54 -31 -71 -41t-80 -41t-105.5 -45t-107.5 -27.5t-125 -13.5q-98 0 -183 35.5t-150 104t-102.5 176.5 t-37.5 244zM285 604h610q4 184 -72 273.5t-217 89.5q-138 0 -222.5 -97t-98.5 -266zM311 1278v113h598v-113h-598z" />
<glyph unicode="&#x116;" horiz-adv-x="1218" d="M193 0v1434h909v-154h-731v-487h604v-152h-604v-487h743v-154h-921zM569 1556v191h170v-191h-170z" />
<glyph unicode="&#x117;" horiz-adv-x="1177" d="M109 537q0 265 137.5 413t361.5 148q219 0 338 -128.5t119 -336.5q0 -36 -3.5 -70.5t-7.5 -51.5l-3 -17h-768q10 -176 94 -278.5t215 -102.5q155 0 401 145l78 -113q-54 -31 -71 -41t-80 -41t-105.5 -45t-107.5 -27.5t-125 -13.5q-98 0 -183 35.5t-150 104t-102.5 176.5 t-37.5 244zM285 604h610q4 184 -72 273.5t-217 89.5q-138 0 -222.5 -97t-98.5 -266zM524 1247v191h170v-191h-170z" />
<glyph unicode="&#x118;" horiz-adv-x="1218" d="M193 0v1434h909v-154h-731v-487h604v-152h-604v-487h743v-154h-8q-103 -59 -137 -89q-64 -54 -64 -108q0 -16 5 -28t12 -20t20 -13.5t22 -8.5t27 -4t26 -1.5t27 0t23 0.5l-20 -103h-38t-46 3t-54.5 8.5t-49.5 17t-45.5 28t-29 43t-12.5 60.5q0 118 203 215h-782z" />
<glyph unicode="&#x119;" horiz-adv-x="1179" d="M109 537q0 265 137.5 413t361.5 148q219 0 338 -128.5t119 -336.5q0 -36 -3.5 -70.5t-7.5 -51.5l-3 -17h-768q10 -176 94 -278.5t215 -102.5q155 0 401 145l78 -113q-62 -36 -92 -53t-102.5 -48t-137.5 -46q-107 -62 -145 -97q-51 -49 -51 -98q0 -16 5 -28t12 -20 t20 -13.5t22 -8.5t27 -4t26 -1.5t27 0t23 0.5l-21 -103h-38t-46 3t-54 8.5t-49 17t-45.5 28t-29 43t-12.5 60.5q0 102 159 192q-96 2 -178.5 38.5t-146 104.5t-99.5 175t-36 242zM285 604h610q4 184 -72 273.5t-217 89.5q-138 0 -222.5 -97t-98.5 -266z" />
<glyph unicode="&#x11a;" horiz-adv-x="1218" d="M193 0v1434h909v-154h-731v-487h604v-152h-604v-487h743v-154h-921zM352 1786h127l174 -176l174 176h127l-204 -266h-195z" />
<glyph unicode="&#x11b;" horiz-adv-x="1177" d="M109 537q0 265 137.5 413t361.5 148q219 0 338 -128.5t119 -336.5q0 -36 -3.5 -70.5t-7.5 -51.5l-3 -17h-768q10 -176 94 -278.5t215 -102.5q155 0 401 145l78 -113q-54 -31 -71 -41t-80 -41t-105.5 -45t-107.5 -27.5t-125 -13.5q-98 0 -183 35.5t-150 104t-102.5 176.5 t-37.5 244zM285 604h610q4 184 -72 273.5t-217 89.5q-138 0 -222.5 -97t-98.5 -266zM307 1493h127l174 -176l174 176h127l-204 -266h-195z" />
<glyph unicode="&#x11e;" horiz-adv-x="1433" d="M125 717q0 151 30 274.5t82 209t124 143.5t155 85t176 27q152 0 292 -61.5t282 -161.5l-95 -129q-150 96 -223 130q-133 62 -243 62q-178 0 -288 -154.5t-110 -424.5q0 -269 109 -427.5t289 -158.5q50 0 104 16t94.5 36.5t88 53.5t71 52.5t57.5 48.5v297h-395v147h565 v-782h-170v170q-221 -193 -442 -193q-89 0 -169.5 26.5t-151 85t-122 143.5t-81 209.5t-29.5 275.5zM416 1755h121q0 -108 170 -108q172 0 172 108h122q0 -102 -77.5 -160.5t-216.5 -58.5q-137 0 -214 58.5t-77 160.5z" />
<glyph unicode="&#x11f;" horiz-adv-x="1236" d="M113 537q0 145 31.5 254.5t88 175.5t129.5 98.5t160 32.5q200 0 379 -162v139h170v-1136q0 -377 -409 -377q-105 0 -242 21.5t-260 56.5l37 141q274 -80 442 -80q133 0 197.5 54.5t64.5 176.5v207q-174 -162 -379 -162q-87 0 -160 32.5t-129.5 98.5t-88 175.5 t-31.5 253.5zM285 537q0 -198 69 -308t201 -110q96 0 186 48t160 124v491q-69 77 -159.5 125.5t-186.5 48.5q-132 0 -201 -110t-69 -309zM326 1446h120q0 -109 170 -109q172 0 172 109h123q0 -102 -78 -160.5t-217 -58.5q-137 0 -213.5 58.5t-76.5 160.5z" />
<glyph unicode="&#x120;" horiz-adv-x="1433" d="M125 717q0 151 30 274.5t82 209t124 143.5t155 85t176 27q152 0 292 -61.5t282 -161.5l-95 -129q-150 96 -223 130q-133 62 -243 62q-178 0 -288 -154.5t-110 -424.5q0 -269 109 -427.5t289 -158.5q50 0 104 16t94.5 36.5t88 53.5t71 52.5t57.5 48.5v297h-395v147h565 v-782h-170v170q-221 -193 -442 -193q-89 0 -169.5 26.5t-151 85t-122 143.5t-81 209.5t-29.5 275.5zM623 1556v191h170v-191h-170z" />
<glyph unicode="&#x121;" horiz-adv-x="1236" d="M113 537q0 145 31.5 254.5t88 175.5t129.5 98.5t160 32.5q200 0 379 -162v139h170v-1136q0 -377 -409 -377q-105 0 -242 21.5t-260 56.5l37 141q274 -80 442 -80q133 0 197.5 54.5t64.5 176.5v207q-174 -162 -379 -162q-87 0 -160 32.5t-129.5 98.5t-88 175.5 t-31.5 253.5zM285 537q0 -198 69 -308t201 -110q96 0 186 48t160 124v491q-69 77 -159.5 125.5t-186.5 48.5q-132 0 -201 -110t-69 -309zM530 1247v191h170v-191h-170z" />
<glyph unicode="&#x122;" horiz-adv-x="1433" d="M125 717q0 151 30 274.5t82 209t124 143.5t155 85t176 27q152 0 292 -61.5t282 -161.5l-95 -129q-150 96 -223 130q-133 62 -243 62q-178 0 -288 -154.5t-110 -424.5q0 -269 109 -427.5t289 -158.5q50 0 104 16t94.5 36.5t88 53.5t71 52.5t57.5 48.5v297h-395v147h565 v-782h-170v170q-221 -193 -442 -193q-89 0 -169.5 26.5t-151 85t-122 143.5t-81 209.5t-29.5 275.5zM653 -504l88 176h-75v199h163l19 -207l-146 -221z" />
<glyph unicode="&#x123;" horiz-adv-x="1236" d="M113 537q0 145 31.5 254.5t88 175.5t129.5 98.5t160 32.5q200 0 379 -162v139h170v-1136q0 -377 -409 -377q-105 0 -242 21.5t-260 56.5l37 141q274 -80 442 -80q133 0 197.5 54.5t64.5 176.5v207q-174 -162 -379 -162q-87 0 -160 32.5t-129.5 98.5t-88 175.5 t-31.5 253.5zM285 537q0 -198 69 -308t201 -110q96 0 186 48t160 124v491q-69 77 -159.5 125.5t-186.5 48.5q-132 0 -201 -110t-69 -309zM518 1454l146 221l49 -53l-88 -176h75v-199h-163z" />
<glyph unicode="&#x126;" horiz-adv-x="1480" d="M51 1065v113h156v256h178v-256h715v256h176v-256h154v-113h-154v-1065h-176v676h-715v-676h-178v1065h-156zM385 827h715v238h-715v-238z" />
<glyph unicode="&#x127;" horiz-adv-x="1243" d="M33 1217v114h133v162h170v-162h348v-114h-348v-293q85 64 203.5 119t238.5 55q86 0 147.5 -26t95 -73t49 -104.5t15.5 -128.5v-766h-170v735q0 104 -41.5 163.5t-144.5 59.5q-100 0 -211 -56.5t-182 -119.5v-782h-170v1217h-133z" />
<glyph unicode="&#x128;" horiz-adv-x="573" d="M-37 1597q44 86 85.5 129t105.5 43q44 0 94 -25t93.5 -50t70.5 -25q26 0 48.5 18.5t53.5 75.5l92 -39q-41 -86 -83 -130t-107 -44q-43 0 -93.5 25t-94.5 50.5t-70 25.5t-49 -19t-54 -76zM197 0v1434h178v-1434h-178z" />
<glyph unicode="&#x129;" horiz-adv-x="514" d="M-66 1288q44 86 85.5 129t105.5 43q44 0 94.5 -25t93.5 -50t70 -25q26 0 48.5 18.5t53.5 75.5l93 -39q-41 -86 -83.5 -130t-107.5 -44q-44 0 -94.5 25t-93.5 50t-70 25q-26 0 -48.5 -18.5t-53.5 -75.5zM172 0v1075h170v-1075h-170z" />
<glyph unicode="&#x12a;" horiz-adv-x="573" d="M-12 1587v113h598v-113h-598zM197 0v1434h178v-1434h-178z" />
<glyph unicode="&#x12b;" horiz-adv-x="516" d="M-41 1278v113h598v-113h-598zM172 0v1075h170v-1075h-170z" />
<glyph unicode="&#x12c;" horiz-adv-x="571" d="M-8 1755h121q0 -108 170 -108q172 0 172 108h123q0 -102 -78 -160.5t-217 -58.5q-137 0 -214 58.5t-77 160.5zM195 0v1434h178v-1434h-178z" />
<glyph unicode="&#x12d;" horiz-adv-x="507" d="M-39 1446h121q0 -109 170 -109q172 0 172 109h123q0 -102 -78 -160.5t-217 -58.5q-137 0 -214 58.5t-77 160.5zM168 0v1075h170v-1075h-170z" />
<glyph unicode="&#x12e;" horiz-adv-x="567" d="M33 -215q0 118 203 215h-39v1434h178v-1434h-8q-103 -59 -137 -89q-64 -54 -64 -108q0 -16 5 -28t12 -20t20 -13.5t22 -8.5t27 -4t26 -1.5t27 0t23 0.5l-21 -103h-38t-46 3t-54 8.5t-49 17t-45.5 28t-29 43t-12.5 60.5z" />
<glyph unicode="&#x12f;" horiz-adv-x="505" d="M0 -215q0 118 203 215h-33v1075h170v-1075h-6q-103 -59 -137 -89q-64 -54 -64 -108q0 -16 5 -28t12 -20t20 -13.5t22 -8.5t27 -4t26 -1.5t27 0t23 0.5l-21 -103h-38t-46 3t-54 8.5t-49 17t-45.5 28t-29 43t-12.5 60.5zM162 1288v199h188v-199h-188z" />
<glyph unicode="&#x130;" horiz-adv-x="565" d="M193 0v1434h178v-1434h-178zM197 1556v191h170v-191h-170z" />
<glyph unicode="&#x131;" horiz-adv-x="501" d="M166 0v1075h170v-1075h-170z" />
<glyph unicode="&#x132;" horiz-adv-x="1136" d="M193 0v1434h178v-1434h-178zM524 -166q48 16 80 26.5t59.5 24.5t43.5 22t28.5 25t18 26.5t8.5 34.5t3.5 41t0.5 52v1348h176v-1342q0 -71 -1.5 -102.5t-11.5 -78t-31.5 -68.5t-61.5 -51.5t-100 -50.5t-150 -44z" />
<glyph unicode="&#x133;" horiz-adv-x="1009" d="M158 1288v199h188v-199h-188zM164 0v1075h170v-1075h-170zM434 -307q38 12 65.5 21.5t52.5 20.5t41 17.5t30.5 19t22.5 19.5t14.5 23t9 25t4.5 31.5t2 36v44.5v1124h170v-1116q0 -71 -1.5 -102.5t-11.5 -78t-31 -68.5t-61 -51.5t-100 -50.5t-149 -44zM666 1288v199h188 v-199h-188z" />
<glyph unicode="&#x134;" horiz-adv-x="571" d="M-43 -166q48 16 80 26.5t59.5 24.5t43.5 22t28.5 25t18 26.5t8.5 34.5t3.5 41t0.5 52v1348h176v-1342q0 -70 -1.5 -102t-12 -78.5t-31.5 -68.5t-61 -51.5t-100.5 -50.5t-150.5 -44zM-14 1536l202 266h195l205 -266h-127l-174 174l-174 -174h-127z" />
<glyph unicode="&#x135;" horiz-adv-x="512" d="M-70 -307q38 12 65.5 21.5t52.5 20.5t41 17.5t30.5 19t22.5 19.5t14.5 23t9 25t4.5 31.5t2 36v44.5v1124h170v-1116q0 -71 -1.5 -102.5t-11.5 -78t-31 -68.5t-61 -51.5t-100 -50.5t-149 -44zM-45 1227l203 266h194l205 -266h-127l-174 174l-174 -174h-127z" />
<glyph unicode="&#x136;" horiz-adv-x="1339" d="M193 0v1434h178v-805l669 805h213l-585 -686l647 -748h-215l-537 625l-192 -226v-399h-178zM571 -504l88 176h-75v199h164l18 -207l-145 -221z" />
<glyph unicode="&#x137;" horiz-adv-x="1081" d="M166 0v1493h170v-985l450 567h195l-363 -434l431 -641h-185l-348 520l-180 -217v-303h-170zM465 -504l88 176h-76v199h164l18 -207l-145 -221z" />
<glyph unicode="&#x138;" horiz-adv-x="1081" d="M166 0v1075h170v-567l450 567h195l-363 -434l431 -641h-185l-348 520l-180 -217v-303h-170z" />
<glyph unicode="&#x139;" horiz-adv-x="1128" d="M123 1536l250 266h233l-342 -266h-141zM193 0v1434h178v-1280h708v-154h-886z" />
<glyph unicode="&#x13a;" horiz-adv-x="528" d="M102 1597l250 267h234l-342 -267h-142zM178 0v1493h168v-1493h-168z" />
<glyph unicode="&#x13b;" horiz-adv-x="1126" d="M193 0v1434h178v-1280h708v-154h-886zM537 -504l88 176h-76v199h164l18 -207l-145 -221z" />
<glyph unicode="&#x13c;" horiz-adv-x="524" d="M172 -504l88 176h-76v199h164l19 -207l-146 -221zM180 0v1493h168v-1493h-168z" />
<glyph unicode="&#x13d;" horiz-adv-x="1126" d="M193 0v1434h178v-1280h708v-154h-886zM481 1059l88 176h-75v199h163l19 -207l-146 -221z" />
<glyph unicode="&#x13e;" horiz-adv-x="577" d="M176 0v1493h168v-1493h-168zM455 1118l88 176h-76v199h164l18 -207l-145 -221z" />
<glyph unicode="&#x13f;" horiz-adv-x="1130" d="M193 0v1434h178v-1280h708v-154h-886zM784 649v191h170v-191h-170z" />
<glyph unicode="&#x140;" horiz-adv-x="600" d="M176 0v1493h168v-1493h-168zM467 649v191h170v-191h-170z" />
<glyph unicode="&#x141;" horiz-adv-x="1138" d="M57 469v170l150 82v713h178v-615l279 154v-168l-279 -156v-495h709v-154h-887v551z" />
<glyph unicode="&#x142;" horiz-adv-x="563" d="M57 537v170l142 77v709h168v-616l139 77v-168l-139 -77v-709h-168v614z" />
<glyph unicode="&#x143;" horiz-adv-x="1488" d="M193 0v1434h182l743 -1174v1174h176v-1434h-182l-741 1171v-1171h-178zM596 1536l250 266h233l-342 -266h-141z" />
<glyph unicode="&#x144;" d="M166 0v1075h170v-151q85 64 203.5 119t238.5 55q86 0 147.5 -26t95 -73t49 -104.5t15.5 -128.5v-766h-170v735q0 104 -41.5 163.5t-144.5 59.5q-100 0 -211 -56.5t-182 -119.5v-782h-170zM463 1227l250 266h233l-342 -266h-141z" />
<glyph unicode="&#x145;" horiz-adv-x="1488" d="M193 0v1434h182l743 -1174v1174h176v-1434h-182l-741 1171v-1171h-178zM662 -504l88 176h-76v199h164l18 -207l-145 -221z" />
<glyph unicode="&#x146;" d="M166 0v1075h170v-151q85 64 203.5 119t238.5 55q86 0 147.5 -26t95 -73t49 -104.5t15.5 -128.5v-766h-170v735q0 104 -41.5 163.5t-144.5 59.5q-100 0 -211 -56.5t-182 -119.5v-782h-170zM530 -504l88 176h-75v199h164l18 -207l-145 -221z" />
<glyph unicode="&#x147;" horiz-adv-x="1488" d="M193 0v1434h182l743 -1174v1174h176v-1434h-182l-741 1171v-1171h-178zM455 1802h127l174 -176l174 176h127l-205 -266h-195z" />
<glyph unicode="&#x148;" d="M166 0v1075h170v-151q85 64 203.5 119t238.5 55q86 0 147.5 -26t95 -73t49 -104.5t15.5 -128.5v-766h-170v735q0 104 -41.5 163.5t-144.5 59.5q-100 0 -211 -56.5t-182 -119.5v-782h-170zM319 1493h127l175 -176l174 176h127l-205 -266h-195z" />
<glyph unicode="&#x149;" d="M154 1231l88 176h-76v199h164l18 -207l-145 -221zM166 0v1075h170v-151q85 64 203.5 119t238.5 55q86 0 147.5 -26t95 -73t49 -104.5t15.5 -128.5v-766h-170v735q0 104 -41.5 163.5t-144.5 59.5q-100 0 -211 -56.5t-182 -119.5v-782h-170z" />
<glyph unicode="&#x14a;" horiz-adv-x="1490" d="M193 0v1434h182l743 -1174v1174h176v-1360q0 -48 -1 -74.5t-5.5 -61.5t-14 -54t-27 -44t-42.5 -40.5t-62.5 -35t-87 -35t-114.5 -32.5l-61 137q140 43 184 73t51 89l-743 1175v-1171h-178z" />
<glyph unicode="&#x14b;" d="M166 0v1075h170v-151q85 64 203.5 119t238.5 55q86 0 147.5 -26t95 -73t49 -104.5t15.5 -128.5v-809q0 -61 -1 -89t-7 -70.5t-20 -62t-38 -48t-63 -46t-93.5 -37.5t-131.5 -40l-57 129q39 13 65.5 22t52 20.5t41.5 17.5t30.5 19t22 19t14 22.5t9 25t4.5 31.5t2 36v45v784 q0 104 -41.5 163.5t-144.5 59.5q-100 0 -211 -56.5t-182 -119.5v-782h-170z" />
<glyph unicode="&#x14c;" horiz-adv-x="1511" d="M125 717q0 126 21 234t69 202t120 160.5t178.5 104.5t240.5 38t241 -38t179 -104.5t120 -160.5t69 -202t21 -234q0 -125 -21 -233t-69 -202.5t-119.5 -161t-179 -105t-241.5 -38.5t-240.5 38.5t-178.5 105t-120 161t-69 202.5t-21 233zM307 717q0 -128 23.5 -230t74 -184 t139.5 -127t210 -45q123 0 212 45t139.5 127t73.5 184t23 230t-23 230t-73.5 184t-139.5 127t-212 45q-121 0 -210 -45t-139.5 -127t-74 -184t-23.5 -230zM455 1587v113h598v-113h-598z" />
<glyph unicode="&#x14d;" horiz-adv-x="1234" d="M111 537q0 264 131 412.5t376 148.5q243 0 374.5 -148.5t131.5 -412.5t-131 -412t-375 -148q-245 0 -376 148t-131 412zM285 537q0 -200 81 -311t252 -111q169 0 250.5 111t81.5 311t-81.5 312t-250.5 112q-171 0 -252 -111.5t-81 -312.5zM319 1278v113h599v-113h-599z " />
<glyph unicode="&#x14e;" horiz-adv-x="1511" d="M125 717q0 126 21 234t69 202t120 160.5t178.5 104.5t240.5 38t241 -38t179 -104.5t120 -160.5t69 -202t21 -234q0 -125 -21 -233t-69 -202.5t-119.5 -161t-179 -105t-241.5 -38.5t-240.5 38.5t-178.5 105t-120 161t-69 202.5t-21 233zM307 717q0 -128 23.5 -230t74 -184 t139.5 -127t210 -45q123 0 212 45t139.5 127t73.5 184t23 230t-23 230t-73.5 184t-139.5 127t-212 45q-121 0 -210 -45t-139.5 -127t-74 -184t-23.5 -230zM461 1755h121q0 -108 170 -108q172 0 172 108h123q0 -102 -78 -160.5t-217 -58.5q-137 0 -214 58.5t-77 160.5z" />
<glyph unicode="&#x14f;" horiz-adv-x="1234" d="M111 537q0 264 131 412.5t376 148.5q243 0 374.5 -148.5t131.5 -412.5t-131 -412t-375 -148q-245 0 -376 148t-131 412zM285 537q0 -200 81 -311t252 -111q169 0 250.5 111t81.5 311t-81.5 312t-250.5 112q-171 0 -252 -111.5t-81 -312.5zM326 1446h120q0 -109 170 -109 q172 0 172 109h123q0 -102 -78 -160.5t-217 -58.5q-137 0 -213.5 58.5t-76.5 160.5z" />
<glyph unicode="&#x150;" horiz-adv-x="1511" d="M125 717q0 126 21 234t69 202t120 160.5t178.5 104.5t240.5 38t241 -38t179 -104.5t120 -160.5t69 -202t21 -234q0 -125 -21 -233t-69 -202.5t-119.5 -161t-179 -105t-241.5 -38.5t-240.5 38.5t-178.5 105t-120 161t-69 202.5t-21 233zM307 717q0 -128 23.5 -230t74 -184 t139.5 -127t210 -45q123 0 212 45t139.5 127t73.5 184t23 230t-23 230t-73.5 184t-139.5 127t-212 45q-121 0 -210 -45t-139.5 -127t-74 -184t-23.5 -230zM510 1536l162 266h194l-248 -266h-108zM821 1536l158 266h199l-250 -266h-107z" />
<glyph unicode="&#x151;" horiz-adv-x="1234" d="M111 537q0 264 131 412.5t376 148.5q243 0 374.5 -148.5t131.5 -412.5t-131 -412t-375 -148q-245 0 -376 148t-131 412zM285 537q0 -200 81 -311t252 -111q169 0 250.5 111t81.5 311t-81.5 312t-250.5 112q-171 0 -252 -111.5t-81 -312.5zM369 1227l161 266h195 l-248 -266h-108zM680 1227l158 266h198l-250 -266h-106z" />
<glyph unicode="&#x152;" horiz-adv-x="2230" d="M125 717q0 126 21 234t69 202t120 160.5t178.5 104.5t240.5 38q293 0 452 -176v154h910v-154h-732v-487h605v-152h-605v-487h744v-154h-922v154q-159 -177 -452 -177q-134 0 -240.5 38.5t-178.5 105t-120 161t-69 202.5t-21 233zM307 717q0 -128 23.5 -230t74 -184 t139.5 -127t210 -45q123 0 212 45t139.5 127t73.5 184t23 230t-23 230t-73.5 184t-139.5 127t-212 45q-121 0 -210 -45t-139.5 -127t-74 -184t-23.5 -230z" />
<glyph unicode="&#x153;" horiz-adv-x="2019" d="M111 537q0 264 131 412.5t376 148.5q289 0 422 -213q66 104 172 158.5t240 54.5q219 0 338 -128.5t119 -336.5q0 -36 -3.5 -70.5t-7.5 -51.5l-4 -17h-768q10 -176 94.5 -278.5t215.5 -102.5q155 0 401 145l78 -113q-52 -30 -70.5 -41t-81 -41.5t-105.5 -44.5t-108 -27.5 t-125 -13.5q-121 0 -222.5 53.5t-164.5 155.5q-127 -209 -420 -209q-245 0 -376 148t-131 412zM285 537q0 -200 81 -311t252 -111q169 0 250.5 111t81.5 311t-81.5 312t-250.5 112q-171 0 -252 -111.5t-81 -312.5zM1128 604h611q4 184 -72 273.5t-217 89.5q-138 0 -223 -97 t-99 -266z" />
<glyph unicode="&#x154;" horiz-adv-x="1398" d="M193 0v1434h557q536 0 536 -414q0 -183 -103.5 -281t-285.5 -123l391 -616h-196l-371 608h-350v-608h-178zM371 754h372q363 0 363 266q0 140 -95 204t-257 64h-383v-534zM582 1536l249 266h234l-342 -266h-141z" />
<glyph unicode="&#x155;" horiz-adv-x="792" d="M166 0v1075h170v-229q7 18 20 42t47.5 64t77 70t112.5 50.5t150 14.5v-161q-75 0 -138 -18.5t-103.5 -48.5t-72.5 -66t-48.5 -72t-27.5 -66t-14 -49l-3 -18v-588h-170zM295 1227l250 266h233l-342 -266h-141z" />
<glyph unicode="&#x156;" horiz-adv-x="1398" d="M193 0v1434h557q536 0 536 -414q0 -183 -103.5 -281t-285.5 -123l391 -616h-196l-371 608h-350v-608h-178zM371 754h372q363 0 363 266q0 140 -95 204t-257 64h-383v-534zM602 -504l88 176h-76v199h164l19 -207l-146 -221z" />
<glyph unicode="&#x157;" horiz-adv-x="794" d="M160 -504l88 176h-76v199h164l18 -207l-145 -221zM168 0v1075h170v-229q7 18 20 42t47.5 64t77 70t112.5 50.5t150 14.5v-161q-75 0 -138 -18.5t-103.5 -48.5t-72.5 -66t-48.5 -72t-27.5 -66t-14 -49l-3 -18v-588h-170z" />
<glyph unicode="&#x158;" horiz-adv-x="1398" d="M193 0v1434h557q536 0 536 -414q0 -183 -103.5 -281t-285.5 -123l391 -616h-196l-371 608h-350v-608h-178zM371 754h372q363 0 363 266q0 140 -95 204t-257 64h-383v-534zM440 1802h127l174 -176l174 176h127l-204 -266h-195z" />
<glyph unicode="&#x159;" horiz-adv-x="792" d="M154 1493h127l174 -176l174 176h127l-205 -266h-195zM166 0v1075h170v-229q7 18 20 42t47.5 64t77 70t112.5 50.5t150 14.5v-161q-75 0 -138 -18.5t-103.5 -48.5t-72.5 -66t-48.5 -72t-27.5 -66t-14 -49l-3 -18v-588h-170z" />
<glyph unicode="&#x15a;" horiz-adv-x="1236" d="M92 152l82 131q109 -62 246 -108t250 -46q81 0 148 24t111 77t44 128q0 117 -125 193q-74 45 -271 112h-1h-1l-1 1h-1h-1l-1 1h-1h-1l-1 1h-1h-1l-1 1h-1h-1l-1 1h-1h-2l-1 1h-1h-1l-1 1h-1h-1l-1 1h-1l-1 1h-1h-1l-1 1h-1h-1l-1 1h-1h-1l-1 1h-1h-1l-1 1h-1 q-49 16 -85 29t-82 34t-78.5 42t-66.5 51.5t-54.5 65t-34 80t-13.5 97.5q0 177 130 279t331 102q125 0 266.5 -39.5t247.5 -95.5l-82 -131q-95 49 -215.5 82t-210.5 33q-120 0 -201.5 -55.5t-81.5 -164.5q0 -28 6 -52t20 -44t28 -35.5t41 -31t46.5 -25.5t56.5 -23.5 t60 -21.5t67.5 -22.5t69.5 -22.5q53 -18 89 -31.5t87.5 -37t87 -46t74 -57t61.5 -71.5t38.5 -86.5t15.5 -106.5q0 -125 -69 -216.5t-177 -134.5t-239 -43q-149 0 -305 52t-273 123zM461 1536l250 266h233l-342 -266h-141z" />
<glyph unicode="&#x15b;" horiz-adv-x="1048" d="M92 109l76 124q89 -47 199 -82.5t196 -35.5q94 0 162 41t68 114q0 30 -11.5 55.5t-36.5 45.5t-49 34.5t-63.5 28t-65 21t-68.5 19.5q-6 2 -9 2.5t-8 2t-9 2.5q-59 16 -102 30.5t-95 42t-84 59t-54.5 81t-22.5 109.5q0 137 104 216t273 79q201 0 423 -109l-73 -119 q-194 91 -346 91q-94 0 -153.5 -40.5t-59.5 -109.5q0 -43 22.5 -75.5t72 -55.5t80 -32.5t92.5 -25.5q5 -1 8 -2t7 -2l8 -2q190 -50 290 -128.5t100 -211.5q0 -98 -55.5 -167t-142 -100.5t-194.5 -31.5q-127 0 -255.5 39.5t-223.5 92.5zM367 1227l249 266h234l-342 -266h-141 z" />
<glyph unicode="&#x15c;" horiz-adv-x="1236" d="M92 152l82 131q109 -62 246 -108t250 -46q81 0 148 24t111 77t44 128q0 117 -125 193q-74 45 -271 112h-1h-1l-1 1h-1h-1l-1 1h-1h-1l-1 1h-1h-1l-1 1h-1h-1l-1 1h-1h-2l-1 1h-1h-1l-1 1h-1h-1l-1 1h-1l-1 1h-1h-1l-1 1h-1h-1l-1 1h-1h-1l-1 1h-1h-1l-1 1h-1 q-49 16 -85 29t-82 34t-78.5 42t-66.5 51.5t-54.5 65t-34 80t-13.5 97.5q0 177 130 279t331 102q125 0 266.5 -39.5t247.5 -95.5l-82 -131q-95 49 -215.5 82t-210.5 33q-120 0 -201.5 -55.5t-81.5 -164.5q0 -28 6 -52t20 -44t28 -35.5t41 -31t46.5 -25.5t56.5 -23.5 t60 -21.5t67.5 -22.5t69.5 -22.5q53 -18 89 -31.5t87.5 -37t87 -46t74 -57t61.5 -71.5t38.5 -86.5t15.5 -106.5q0 -125 -69 -216.5t-177 -134.5t-239 -43q-149 0 -305 52t-273 123zM322 1536l202 266h195l205 -266h-127l-174 174l-174 -174h-127z" />
<glyph unicode="&#x15d;" horiz-adv-x="1048" d="M92 109l76 124q89 -47 199 -82.5t196 -35.5q94 0 162 41t68 114q0 30 -11.5 55.5t-36.5 45.5t-49 34.5t-63.5 28t-65 21t-68.5 19.5q-6 2 -9 2.5t-8 2t-9 2.5q-59 16 -102 30.5t-95 42t-84 59t-54.5 81t-22.5 109.5q0 137 104 216t273 79q201 0 423 -109l-73 -119 q-194 91 -346 91q-94 0 -153.5 -40.5t-59.5 -109.5q0 -43 22.5 -75.5t72 -55.5t80 -32.5t92.5 -25.5q5 -1 8 -2t7 -2l8 -2q190 -50 290 -128.5t100 -211.5q0 -98 -55.5 -167t-142 -100.5t-194.5 -31.5q-127 0 -255.5 39.5t-223.5 92.5zM227 1227l203 266h195l204 -266h-127 l-174 174l-174 -174h-127z" />
<glyph unicode="&#x15e;" horiz-adv-x="1236" d="M92 152l82 131q109 -62 246 -108t250 -46q81 0 148 24t111 77t44 128q0 117 -125 193q-74 45 -271 112h-1h-1l-1 1h-1h-1l-1 1h-1h-1l-1 1h-1h-1l-1 1h-1h-1l-1 1h-1h-2l-1 1h-1h-1l-1 1h-1h-1l-1 1h-1l-1 1h-1h-1l-1 1h-1h-1l-1 1h-1h-1l-1 1h-1h-1l-1 1h-1 q-49 16 -85 29t-82 34t-78.5 42t-66.5 51.5t-54.5 65t-34 80t-13.5 97.5q0 177 130 279t331 102q125 0 266.5 -39.5t247.5 -95.5l-82 -131q-95 49 -215.5 82t-210.5 33q-120 0 -201.5 -55.5t-81.5 -164.5q0 -28 6 -52t20 -44t28 -35.5t41 -31t46.5 -25.5t56.5 -23.5 t60 -21.5t67.5 -22.5t69.5 -22.5q53 -18 89 -31.5t87.5 -37t87 -46t74 -57t61.5 -71.5t38.5 -86.5t15.5 -106.5q0 -87 -34 -159t-92.5 -119.5t-134.5 -76t-163 -36.5q62 -77 62 -162q0 -80 -57 -125t-150 -45q-85 0 -162 39l43 102q62 -29 104 -29q53 0 84 23t31 72 q0 53 -45 125q-144 4 -292 54.5t-257 117.5z" />
<glyph unicode="&#x15f;" horiz-adv-x="1048" d="M92 109l76 124q89 -47 199 -82.5t196 -35.5q94 0 162 41t68 114q0 30 -11.5 55.5t-36.5 45.5t-49 34.5t-63.5 28t-65 21t-68.5 19.5q-6 2 -9 2.5t-8 2t-9 2.5q-59 16 -102 30.5t-95 42t-84 59t-54.5 81t-22.5 109.5q0 137 104 216t273 79q201 0 423 -109l-73 -119 q-194 91 -346 91q-94 0 -153.5 -40.5t-59.5 -109.5q0 -43 22.5 -75.5t72 -55.5t80 -32.5t92.5 -25.5q5 -1 8 -2t7 -2l8 -2q190 -50 290 -128.5t100 -211.5q0 -132 -95 -207.5t-243 -88.5q61 -76 61 -162q0 -80 -57 -125t-150 -45q-85 0 -162 39l43 102q62 -29 105 -29 q53 0 84 23t31 72q0 53 -45 125q-120 6 -239 43.5t-204 85.5z" />
<glyph unicode="&#x160;" horiz-adv-x="1236" d="M92 152l82 131q109 -62 246 -108t250 -46q81 0 148 24t111 77t44 128q0 117 -125 193q-74 45 -271 112h-1h-1l-1 1h-1h-1l-1 1h-1h-1l-1 1h-1h-1l-1 1h-1h-1l-1 1h-1h-2l-1 1h-1h-1l-1 1h-1h-1l-1 1h-1l-1 1h-1h-1l-1 1h-1h-1l-1 1h-1h-1l-1 1h-1h-1l-1 1h-1 q-49 16 -85 29t-82 34t-78.5 42t-66.5 51.5t-54.5 65t-34 80t-13.5 97.5q0 177 130 279t331 102q125 0 266.5 -39.5t247.5 -95.5l-82 -131q-95 49 -215.5 82t-210.5 33q-120 0 -201.5 -55.5t-81.5 -164.5q0 -28 6 -52t20 -44t28 -35.5t41 -31t46.5 -25.5t56.5 -23.5 t60 -21.5t67.5 -22.5t69.5 -22.5q53 -18 89 -31.5t87.5 -37t87 -46t74 -57t61.5 -71.5t38.5 -86.5t15.5 -106.5q0 -125 -69 -216.5t-177 -134.5t-239 -43q-149 0 -305 52t-273 123zM322 1802h127l174 -176l174 176h127l-205 -266h-195z" />
<glyph unicode="&#x161;" horiz-adv-x="1048" d="M92 109l76 124q89 -47 199 -82.5t196 -35.5q94 0 162 41t68 114q0 30 -11.5 55.5t-36.5 45.5t-49 34.5t-63.5 28t-65 21t-68.5 19.5q-6 2 -9 2.5t-8 2t-9 2.5q-59 16 -102 30.5t-95 42t-84 59t-54.5 81t-22.5 109.5q0 137 104 216t273 79q201 0 423 -109l-73 -119 q-194 91 -346 91q-94 0 -153.5 -40.5t-59.5 -109.5q0 -43 22.5 -75.5t72 -55.5t80 -32.5t92.5 -25.5q5 -1 8 -2t7 -2l8 -2q190 -50 290 -128.5t100 -211.5q0 -98 -55.5 -167t-142 -100.5t-194.5 -31.5q-127 0 -255.5 39.5t-223.5 92.5zM227 1493h127l174 -176l174 176h127 l-204 -266h-195z" />
<glyph unicode="&#x162;" horiz-adv-x="1167" d="M45 1280v154h1077v-154h-450v-1280h-43q78 -91 78 -182q0 -80 -57 -125t-150 -45q-85 0 -162 39l43 102q62 -29 104 -29q53 0 84 23t31 72q0 66 -59 145h-45v1280h-451z" />
<glyph unicode="&#x163;" horiz-adv-x="782" d="M68 944v131h151v271l166 40v-311h297v-131h-297v-704q0 -63 27 -88t75 -25q40 0 102 18.5t103 36.5l64 -129q-132 -61 -252 -73q61 -76 61 -162q0 -80 -57 -125t-150 -45q-84 0 -161 39l43 102q62 -29 104 -29q53 0 84 23t31 72q0 55 -45 127q-195 20 -195 266v696h-151z " />
<glyph unicode="&#x164;" horiz-adv-x="1167" d="M45 1280v154h1077v-154h-450v-1280h-176v1280h-451zM283 1802h127l174 -176l174 176h127l-205 -266h-195z" />
<glyph unicode="&#x165;" horiz-adv-x="784" d="M68 944v131h151v271l166 40v-311h297v-131h-297v-704q0 -63 27 -88t75 -25q40 0 102 18.5t103 36.5l64 -129q-56 -26 -139 -51t-158 -25q-240 0 -240 271v696h-151zM506 1231l88 176h-76v199h164l18 -207l-145 -221z" />
<glyph unicode="&#x166;" horiz-adv-x="1187" d="M55 1280v154h1078v-154h-451v-696h225v-115h-225v-469h-176v469h-225v115h225v696h-451z" />
<glyph unicode="&#x167;" horiz-adv-x="786" d="M70 944v131h151v271l166 40v-311h297v-131h-297v-260h234v-113h-234v-331q0 -63 27 -88t75 -25q40 0 102 18.5t103 36.5l64 -129q-56 -26 -139 -51t-158 -25q-240 0 -240 271v323h-110v113h110v260h-151z" />
<glyph unicode="&#x168;" horiz-adv-x="1433" d="M178 524v910h178v-916q0 -69 9 -123.5t33 -105.5t63.5 -84.5t104 -53.5t151.5 -20q86 0 150.5 20t104 53.5t63.5 84.5t33 105.5t9 123.5v916h176v-910q0 -96 -15.5 -175t-54 -149.5t-98.5 -118.5t-153.5 -76t-214.5 -28q-122 0 -215.5 28t-154 76t-99 118.5t-54.5 149.5 t-16 175zM395 1597q44 86 85.5 129t105.5 43q44 0 94 -25t93.5 -50t70.5 -25q26 0 48.5 18.5t53.5 75.5l92 -39q-41 -86 -83 -130t-107 -44q-43 0 -93.5 25t-94.5 50.5t-70 25.5t-49 -19t-54 -76z" />
<glyph unicode="&#x169;" d="M156 307v768h170v-735q0 -104 41.5 -163.5t144.5 -59.5q99 0 211 56.5t182 119.5v782h170v-1075h-170v150q-87 -64 -205.5 -118.5t-238.5 -54.5q-84 0 -145 25.5t-95 72.5t-49.5 104t-15.5 128zM315 1288q44 86 85.5 129t105.5 43q44 0 94 -25t94 -50t70 -25t48.5 18.5 t53.5 75.5l92 -39q-41 -86 -83 -130t-107 -44q-44 0 -94 25t-93.5 50t-70.5 25q-26 0 -48.5 -18.5t-53.5 -75.5z" />
<glyph unicode="&#x16a;" horiz-adv-x="1433" d="M178 524v910h178v-916q0 -69 9 -123.5t33 -105.5t63.5 -84.5t104 -53.5t151.5 -20q86 0 150.5 20t104 53.5t63.5 84.5t33 105.5t9 123.5v916h176v-910q0 -96 -15.5 -175t-54 -149.5t-98.5 -118.5t-153.5 -76t-214.5 -28q-122 0 -215.5 28t-154 76t-99 118.5t-54.5 149.5 t-16 175zM418 1587v113h598v-113h-598z" />
<glyph unicode="&#x16b;" d="M156 307v768h170v-735q0 -104 41.5 -163.5t144.5 -59.5q99 0 211 56.5t182 119.5v782h170v-1075h-170v150q-87 -64 -205.5 -118.5t-238.5 -54.5q-84 0 -145 25.5t-95 72.5t-49.5 104t-15.5 128zM315 1278v113h598v-113h-598z" />
<glyph unicode="&#x16c;" horiz-adv-x="1433" d="M178 524v910h178v-916q0 -69 9 -123.5t33 -105.5t63.5 -84.5t104 -53.5t151.5 -20q86 0 150.5 20t104 53.5t63.5 84.5t33 105.5t9 123.5v916h176v-910q0 -96 -15.5 -175t-54 -149.5t-98.5 -118.5t-153.5 -76t-214.5 -28q-122 0 -215.5 28t-154 76t-99 118.5t-54.5 149.5 t-16 175zM424 1755h121q0 -108 170 -108q172 0 172 108h123q0 -102 -78 -160.5t-217 -58.5q-137 0 -214 58.5t-77 160.5z" />
<glyph unicode="&#x16d;" d="M156 307v768h170v-735q0 -104 41.5 -163.5t144.5 -59.5q99 0 211 56.5t182 119.5v782h170v-1075h-170v150q-87 -64 -205.5 -118.5t-238.5 -54.5q-84 0 -145 25.5t-95 72.5t-49.5 104t-15.5 128zM322 1446h120q0 -109 170 -109q172 0 172 109h123q0 -102 -78 -160.5 t-217 -58.5q-137 0 -213.5 58.5t-76.5 160.5z" />
<glyph unicode="&#x16e;" horiz-adv-x="1433" d="M178 524v910h178v-916q0 -69 9 -123.5t33 -105.5t63.5 -84.5t104 -53.5t151.5 -20q86 0 150.5 20t104 53.5t63.5 84.5t33 105.5t9 123.5v916h176v-910q0 -96 -15.5 -175t-54 -149.5t-98.5 -118.5t-153.5 -76t-214.5 -28q-122 0 -215.5 28t-154 76t-99 118.5t-54.5 149.5 t-16 175zM508 1726q0 89 61.5 152.5t149.5 63.5q89 0 152 -63.5t63 -152.5q0 -88 -63 -149t-152 -61q-88 0 -149.5 61t-61.5 149zM604 1726q0 -47 34 -80.5t81 -33.5q49 0 83 33.5t34 80.5q0 50 -34 83.5t-83 33.5q-48 0 -81.5 -34t-33.5 -83z" />
<glyph unicode="&#x16f;" d="M156 307v768h170v-735q0 -104 41.5 -163.5t144.5 -59.5q99 0 211 56.5t182 119.5v782h170v-1075h-170v150q-87 -64 -205.5 -118.5t-238.5 -54.5q-84 0 -145 25.5t-95 72.5t-49.5 104t-15.5 128zM403 1417q0 89 61.5 152t149.5 63q89 0 152 -63t63 -152q0 -88 -63 -149.5 t-152 -61.5q-88 0 -149.5 61.5t-61.5 149.5zM500 1417q0 -47 33.5 -80.5t80.5 -33.5q49 0 83 33.5t34 80.5q0 49 -33.5 83t-83.5 34q-47 0 -80.5 -34t-33.5 -83z" />
<glyph unicode="&#x170;" horiz-adv-x="1433" d="M178 524v910h178v-916q0 -69 9 -123.5t33 -105.5t63.5 -84.5t104 -53.5t151.5 -20q86 0 150.5 20t104 53.5t63.5 84.5t33 105.5t9 123.5v916h176v-910q0 -96 -15.5 -175t-54 -149.5t-98.5 -118.5t-153.5 -76t-214.5 -28q-122 0 -215.5 28t-154 76t-99 118.5t-54.5 149.5 t-16 175zM469 1536l162 266h194l-247 -266h-109zM780 1536l158 266h199l-250 -266h-107z" />
<glyph unicode="&#x171;" d="M156 307v768h170v-735q0 -104 41.5 -163.5t144.5 -59.5q99 0 211 56.5t182 119.5v782h170v-1075h-170v150q-87 -64 -205.5 -118.5t-238.5 -54.5q-84 0 -145 25.5t-95 72.5t-49.5 104t-15.5 128zM367 1227l161 266h195l-248 -266h-108zM678 1227l158 266h198l-250 -266 h-106z" />
<glyph unicode="&#x172;" horiz-adv-x="1435" d="M178 524v910h178v-916q0 -69 9 -123.5t33 -105.5t63.5 -84.5t104 -53.5t151.5 -20q86 0 150.5 20t104 53.5t63.5 84.5t33 105.5t9 123.5v916h176v-910q0 -434 -338 -524q-36 -20 -52.5 -29.5t-51 -32.5t-51.5 -40.5t-32 -43.5t-15 -51q0 -16 5 -28t11.5 -20t19.5 -13.5 t22.5 -8.5t27 -4t26 -1.5t27 0t22.5 0.5l-20 -103h-38t-46 3t-54 8.5t-49 17t-45.5 28t-29 43t-12.5 60.5q0 102 159 192h-22q-122 0 -215.5 28t-154 76t-99 118.5t-54.5 149.5t-16 175z" />
<glyph unicode="&#x173;" d="M156 307v768h170v-735q0 -104 41.5 -163.5t144.5 -59.5q99 0 211 56.5t182 119.5v782h170v-1075h-6q-103 -59 -137 -89q-64 -54 -64 -108q0 -16 5 -28t12 -20t20 -13.5t22 -8.5t27 -4t26 -1.5t27 0t23 0.5l-20 -103h-38t-46 3t-54.5 8.5t-49.5 17t-45.5 28t-29 43 t-12.5 60.5q0 118 203 215h-33v150q-87 -64 -205.5 -118.5t-238.5 -54.5q-84 0 -145 25.5t-95 72.5t-49.5 104t-15.5 128z" />
<glyph unicode="&#x174;" horiz-adv-x="1935" d="M70 1434h198l301 -1223l316 1223h164l315 -1221l303 1221h197l-398 -1434h-188l-311 1184l-312 -1184h-188zM666 1536l202 266h195l205 -266h-127l-174 174l-174 -174h-127z" />
<glyph unicode="&#x175;" horiz-adv-x="1675" d="M70 1075h180l248 -899l262 899h155l263 -899l247 899h181l-340 -1075h-166l-262 870l-265 -870h-167zM537 1227l202 266h195l205 -266h-127l-174 174l-174 -174h-127z" />
<glyph unicode="&#x177;" horiz-adv-x="1144" d="M57 1075h185l329 -874l330 874h186l-602 -1493h-186l188 424zM272 1227l203 266h195l204 -266h-126l-175 174l-174 -174h-127z" />
<glyph unicode="&#x178;" horiz-adv-x="1296" d="M35 1434h201l413 -727l412 727h201l-527 -867v-567h-176v569zM391 1556v191h170v-191h-170zM737 1556v191h168v-191h-168z" />
<glyph unicode="&#x179;" horiz-adv-x="1255" d="M78 0v141l854 1139h-807v154h1028v-140l-854 -1140h864v-154h-1085zM479 1536l250 266h234l-342 -266h-142z" />
<glyph unicode="&#x17a;" horiz-adv-x="1050" d="M88 0v131l655 801h-634v143h845v-131l-651 -801h651v-143h-866zM360 1227l250 266h234l-342 -266h-142z" />
<glyph unicode="&#x17b;" horiz-adv-x="1255" d="M78 0v141l854 1139h-807v154h1028v-140l-854 -1140h864v-154h-1085zM555 1554v191h170v-191h-170z" />
<glyph unicode="&#x17c;" horiz-adv-x="1050" d="M88 0v131l655 801h-634v143h845v-131l-651 -801h651v-143h-866zM434 1247v191h170v-191h-170z" />
<glyph unicode="&#x17d;" horiz-adv-x="1255" d="M78 0v141l854 1139h-807v154h1028v-140l-854 -1140h864v-154h-1085zM340 1802h127l174 -176l174 176h127l-205 -266h-194z" />
<glyph unicode="&#x17e;" horiz-adv-x="1050" d="M88 0v131l655 801h-634v143h845v-131l-651 -801h651v-143h-866zM221 1493h127l174 -176l174 176h127l-205 -266h-194z" />
<glyph unicode="&#x17f;" horiz-adv-x="608" d="M66 944v131h151v148q0 270 240 270q70 0 164 -24t153 -48l-61 -125q-46 15 -119 32.5t-109 17.5q-48 0 -75 -25.5t-27 -89.5v-1231h-166v944h-151z" />
<glyph unicode="&#x192;" horiz-adv-x="1105" d="M76 -418l323 1362h-149l31 131h149l37 152q36 149 100.5 207.5t188.5 58.5q25 0 53 -3t56.5 -9.5t51.5 -11.5t52 -14.5t42.5 -14t39 -14t26.5 -9.5l-88 -123q-164 51 -227 49q-99 -3 -125 -114l-37 -154h295l-29 -131h-299l-323 -1362h-168z" />
<glyph unicode="&#x1fc;" horiz-adv-x="2072" d="M2 0l985 1434h967v-154h-731v-487h604v-152h-604v-487h743v-154h-922v350h-600l-233 -350h-209zM545 500h499v747zM979 1536l250 266h233l-342 -266h-141z" />
<glyph unicode="&#x1fd;" horiz-adv-x="1888" d="M96 322q0 71 20 129.5t54.5 99t82 68.5t102 40.5t114.5 12.5q35 0 74 -4t82 -13t71 -15.5t72.5 -18t54.5 -13.5q9 82 31 160q-5 100 -55 146.5t-168 46.5q-56 0 -127.5 -14t-124.5 -30t-148 -47l-61 125q284 103 483 103q235 0 320 -135q135 135 348 135 q219 0 338 -128.5t119 -336.5q0 -36 -4 -70.5t-8 -51.5l-3 -17h-768q10 -176 94.5 -278.5t215.5 -102.5q155 0 401 145l78 -113q-52 -30 -70.5 -41t-81 -41.5t-105.5 -44.5t-108 -27.5t-125 -13.5q-123 0 -224.5 54t-164.5 159q-203 -213 -448 -213q-54 0 -105 12t-98 38.5 t-81.5 65.5t-55.5 98t-21 131zM270 330q0 -109 61.5 -160t166.5 -51q184 0 362 168q-36 111 -39 213q-13 3 -62.5 17t-78.5 21t-72 14t-76 7q-138 0 -200 -63.5t-62 -165.5zM778 1227l250 266h234l-342 -266h-142zM997 604h611q4 184 -72 273.5t-217 89.5q-138 0 -223 -97 t-99 -266z" />
<glyph unicode="&#x1fe;" horiz-adv-x="1503" d="M121 717q0 126 21 234t69 202t120 160.5t178.5 104.5t240.5 38q238 0 391 -121l73 99h146l-135 -181q155 -192 155 -536q0 -125 -21 -233t-69 -202.5t-119.5 -161t-179 -105t-241.5 -38.5q-240 0 -390 119l-71 -96h-144l131 176q-155 192 -155 541zM303 717 q0 -245 84 -393l653 878q-109 101 -290 101q-121 0 -210 -45t-139.5 -127t-74 -184t-23.5 -230zM461 231q108 -100 289 -100q123 0 212 45t139.5 127t73.5 184t23 230q0 244 -84 389zM590 1536l250 266h233l-342 -266h-141z" />
<glyph unicode="&#x1ff;" horiz-adv-x="1228" d="M106 537q0 264 131.5 412.5t376.5 148.5q182 0 304 -86l51 63h127l-103 -131q127 -149 127 -407q0 -264 -131 -412t-375 -148q-183 0 -305 84l-49 -61h-129l102 131q-127 145 -127 406zM281 537q0 -174 55 -273l489 627q-82 70 -211 70q-171 0 -252 -111.5t-81 -312.5z M401 182q79 -67 213 -67q169 0 250.5 111t81.5 311q0 170 -57 272zM451 1227l249 266h234l-342 -266h-141z" />
<glyph unicode="&#x218;" horiz-adv-x="1236" d="M92 152l82 131q109 -62 246 -108t250 -46q81 0 148 24t111 77t44 128q0 117 -125 193q-74 45 -271 112h-1h-1l-1 1h-1h-1l-1 1h-1h-1l-1 1h-1h-1l-1 1h-1h-1l-1 1h-1h-2l-1 1h-1h-1l-1 1h-1h-1l-1 1h-1l-1 1h-1h-1l-1 1h-1h-1l-1 1h-1h-1l-1 1h-1h-1l-1 1h-1 q-49 16 -85 29t-82 34t-78.5 42t-66.5 51.5t-54.5 65t-34 80t-13.5 97.5q0 177 130 279t331 102q125 0 266.5 -39.5t247.5 -95.5l-82 -131q-95 49 -215.5 82t-210.5 33q-120 0 -201.5 -55.5t-81.5 -164.5q0 -28 6 -52t20 -44t28 -35.5t41 -31t46.5 -25.5t56.5 -23.5 t60 -21.5t67.5 -22.5t69.5 -22.5q53 -18 89 -31.5t87.5 -37t87 -46t74 -57t61.5 -71.5t38.5 -86.5t15.5 -106.5q0 -125 -69 -216.5t-177 -134.5t-239 -43q-149 0 -305 52t-273 123zM535 -504l88 176h-76v199h164l18 -207l-145 -221z" />
<glyph unicode="&#x219;" horiz-adv-x="1048" d="M92 109l76 124q89 -47 199 -82.5t196 -35.5q94 0 162 41t68 114q0 30 -11.5 55.5t-36.5 45.5t-49 34.5t-63.5 28t-65 21t-68.5 19.5q-6 2 -9 2.5t-8 2t-9 2.5q-59 16 -102 30.5t-95 42t-84 59t-54.5 81t-22.5 109.5q0 137 104 216t273 79q201 0 423 -109l-73 -119 q-194 91 -346 91q-94 0 -153.5 -40.5t-59.5 -109.5q0 -43 22.5 -75.5t72 -55.5t80 -32.5t92.5 -25.5q5 -1 8 -2t7 -2l8 -2q190 -50 290 -128.5t100 -211.5q0 -98 -55.5 -167t-142 -100.5t-194.5 -31.5q-127 0 -255.5 39.5t-223.5 92.5zM430 -504l88 176h-76v199h164l19 -207 l-146 -221z" />
<glyph unicode="&#x21a;" horiz-adv-x="1167" d="M45 1280v154h1077v-154h-450v-1280h-176v1280h-451zM489 -504l89 176h-76v199h164l18 -207l-145 -221z" />
<glyph unicode="&#x21b;" horiz-adv-x="784" d="M68 944v131h151v271l166 40v-311h297v-131h-297v-704q0 -63 27 -88t75 -25q40 0 102 18.5t103 36.5l64 -129q-56 -26 -139 -51t-158 -25q-240 0 -240 271v696h-151zM266 -504l88 176h-75v199h163l19 -207l-146 -221z" />
<glyph unicode="&#x2b0;" horiz-adv-x="804" d="M106 788v895h130v-337q139 102 276 102q193 0 193 -203v-457h-130v433q0 58 -24 90t-84 32q-59 0 -125 -30.5t-106 -65.5v-459h-130z" />
<glyph unicode="&#x2b2;" horiz-adv-x="344" d="M-41 616q40 12 64 20.5t42.5 20t26.5 18.5t13 24.5t5.5 29.5t0.5 41v664h129v-656v-41t-1.5 -35.5t-5 -32.5t-9 -27t-14.5 -25.5t-22 -21.5t-30.5 -20.5t-40.5 -17.5t-52 -18t-65 -17zM102 1550v131h144v-131h-144z" />
<glyph unicode="&#x2b7;" horiz-adv-x="1079" d="M45 1434h139l142 -519l155 519h117l154 -519l143 519h139l-211 -646h-127l-155 496l-158 -496h-125z" />
<glyph unicode="&#x2b8;" horiz-adv-x="745" d="M39 1434h141l193 -492l194 492h142l-377 -895h-142l115 254z" />
<glyph unicode="&#x2c6;" horiz-adv-x="552" d="M-25 1227l203 266h195l205 -266h-127l-175 174l-174 -174h-127z" />
<glyph unicode="&#x2c7;" horiz-adv-x="552" d="M-25 1493h127l174 -176l175 176h127l-205 -266h-195z" />
<glyph unicode="&#x2d8;" horiz-adv-x="544" d="M-20 1446h120q0 -109 170 -109q172 0 172 109h123q0 -102 -78 -160.5t-217 -58.5q-137 0 -213.5 58.5t-76.5 160.5z" />
<glyph unicode="&#x2d9;" horiz-adv-x="149" d="M-10 1247v191h170v-191h-170z" />
<glyph unicode="&#x2da;" horiz-adv-x="413" d="M-6 1417q0 89 61.5 152t149.5 63q89 0 152 -63t63 -152q0 -88 -63 -149.5t-152 -61.5q-88 0 -149.5 61.5t-61.5 149.5zM90 1417q0 -47 34 -80.5t81 -33.5q49 0 83 33.5t34 80.5q0 49 -34 83t-83 34q-48 0 -81.5 -34t-33.5 -83z" />
<glyph unicode="&#x2db;" horiz-adv-x="317" d="M-20 -215q0 70 71 131t182 107l84 -21q-105 -61 -141 -91q-63 -55 -63 -108q0 -16 5 -28t11.5 -20t19.5 -13.5t22.5 -8.5t27 -4t26 -1.5t27 0t22.5 0.5l-20 -103h-38t-46 3t-54 8.5t-49 17t-45.5 28t-29 43t-12.5 60.5z" />
<glyph unicode="&#x2dc;" horiz-adv-x="589" d="M-27 1288q44 86 85.5 129t105.5 43q44 0 94 -25t93.5 -50t70.5 -25q26 0 48.5 18.5t53.5 75.5l92 -39q-41 -86 -83 -130t-107 -44q-44 0 -94 25t-93.5 50t-70.5 25q-26 0 -48.5 -18.5t-53.5 -75.5z" />
<glyph unicode="&#x2dd;" horiz-adv-x="622" d="M-23 1227l162 266h195l-248 -266h-109zM289 1227l157 266h199l-250 -266h-106z" />
<glyph unicode="&#x2e3;" horiz-adv-x="774" d="M31 788l278 322l-266 324h154l192 -254l189 254h153l-264 -322l278 -324h-155l-203 259l-199 -259h-157z" />
<glyph unicode="&#x3c0;" horiz-adv-x="1165" d="M70 926v149h1026v-149h-181v-926h-155v926h-352v-926h-158v926h-180z" />
<glyph unicode="&#x1e80;" horiz-adv-x="1935" d="M70 1434h198l301 -1223l316 1223h164l315 -1221l303 1221h197l-398 -1434h-188l-311 1184l-312 -1184h-188zM645 1802h229l254 -266h-143z" />
<glyph unicode="&#x1e81;" horiz-adv-x="1675" d="M70 1075h180l248 -899l262 899h155l263 -899l247 899h181l-340 -1075h-166l-262 870l-265 -870h-167zM516 1493h229l254 -266h-143z" />
<glyph unicode="&#x1e82;" horiz-adv-x="1935" d="M70 1434h198l301 -1223l316 1223h164l315 -1221l303 1221h197l-398 -1434h-188l-311 1184l-312 -1184h-188zM807 1536l250 266h233l-342 -266h-141z" />
<glyph unicode="&#x1e83;" horiz-adv-x="1675" d="M70 1075h180l248 -899l262 899h155l263 -899l247 899h181l-340 -1075h-166l-262 870l-265 -870h-167zM678 1227l250 266h233l-342 -266h-141z" />
<glyph unicode="&#x1e84;" horiz-adv-x="1935" d="M70 1434h198l301 -1223l316 1223h164l315 -1221l303 1221h197l-398 -1434h-188l-311 1184l-312 -1184h-188zM711 1556v191h170v-191h-170zM1057 1556v191h168v-191h-168z" />
<glyph unicode="&#x1e85;" horiz-adv-x="1675" d="M70 1075h180l248 -899l262 899h155l263 -899l247 899h181l-340 -1075h-166l-262 870l-265 -870h-167zM580 1247v191h170v-191h-170zM926 1247v191h168v-191h-168z" />
<glyph unicode="&#x1e9e;" horiz-adv-x="1624" d="M193 0v932q0 133 34.5 231t98 156.5t148 86.5t190.5 28h682v-123l-410 -453q161 -11 282 -54.5t189.5 -108.5t101.5 -139.5t33 -158.5q0 -63 -17.5 -122t-56.5 -113.5t-95.5 -95t-140 -65t-183.5 -24.5q-139 0 -270 41.5t-232 100.5l84 133q85 -51 192.5 -87t212.5 -36 q156 0 240 80.5t84 189.5q0 41 -12 80.5t-48.5 83.5t-93 76.5t-155 54t-226.5 21.5h-108v119l401 446h-442q-69 0 -121.5 -17.5t-95.5 -57.5t-65.5 -113t-22.5 -177v-915h-178z" />
<glyph unicode="&#x1ef2;" horiz-adv-x="1296" d="M35 1434h201l413 -727l412 727h201l-527 -867v-567h-176v569zM328 1802h229l254 -266h-143z" />
<glyph unicode="&#x1ef3;" horiz-adv-x="1144" d="M57 1075h185l329 -874l330 874h186l-602 -1493h-186l188 424zM250 1493h229l254 -266h-143z" />
<glyph unicode="&#x2000;" horiz-adv-x="971" />
<glyph unicode="&#x2001;" horiz-adv-x="1942" />
<glyph unicode="&#x2002;" horiz-adv-x="971" />
<glyph unicode="&#x2003;" horiz-adv-x="1942" />
<glyph unicode="&#x2004;" horiz-adv-x="647" />
<glyph unicode="&#x2005;" horiz-adv-x="485" />
<glyph unicode="&#x2006;" horiz-adv-x="323" />
<glyph unicode="&#x2007;" horiz-adv-x="323" />
<glyph unicode="&#x2008;" horiz-adv-x="242" />
<glyph unicode="&#x2009;" horiz-adv-x="388" />
<glyph unicode="&#x200a;" horiz-adv-x="107" />
<glyph unicode="&#x2010;" horiz-adv-x="888" d="M154 510v147h581v-147h-581z" />
<glyph unicode="&#x2011;" horiz-adv-x="888" d="M154 510v147h581v-147h-581z" />
<glyph unicode="&#x2012;" horiz-adv-x="888" d="M154 510v147h581v-147h-581z" />
<glyph unicode="&#x2013;" horiz-adv-x="1153" d="M154 510v145h850v-145h-850z" />
<glyph unicode="&#x2014;" horiz-adv-x="1370" d="M154 510v145h1063v-145h-1063z" />
<glyph unicode="&#x2018;" horiz-adv-x="485" d="M125 1212l170 263l57 -66l-102 -211h90v-246h-193z" />
<glyph unicode="&#x2019;" horiz-adv-x="473" d="M137 975l103 211h-90v246h192l23 -261l-170 -262z" />
<glyph unicode="&#x201a;" horiz-adv-x="512" d="M152 -211l102 211h-90v246h192l23 -260l-170 -262z" />
<glyph unicode="&#x201c;" horiz-adv-x="854" d="M125 1212l170 263l57 -66l-102 -211h90v-246h-193zM502 1212l170 263l57 -66l-102 -211h90v-246h-193z" />
<glyph unicode="&#x201d;" horiz-adv-x="849" d="M137 975l103 211h-90v246h192l23 -261l-170 -262zM514 975l102 211h-90v246h193l22 -261l-170 -262z" />
<glyph unicode="&#x201e;" horiz-adv-x="888" d="M152 -211l102 211h-90v246h192l23 -260l-170 -262zM528 -211l103 211h-90v246h192l23 -260l-170 -262z" />
<glyph unicode="&#x2020;" horiz-adv-x="1177" d="M59 807v149l459 -20v498h139v-498l459 20v-149l-459 20v-1245h-139v1245z" />
<glyph unicode="&#x2021;" horiz-adv-x="1269" d="M106 270v150l459 -21v428l-459 -20v149l459 -20v498h137v-498l461 20v-149l-461 20v-428l461 21v-150l-461 21v-709h-137v709z" />
<glyph unicode="&#x2022;" horiz-adv-x="888" d="M180 582q0 110 77 188t187 78q109 0 187 -78t78 -188t-78 -186.5t-187 -76.5q-110 0 -187 76.5t-77 186.5z" />
<glyph unicode="&#x2026;" horiz-adv-x="1337" d="M152 0v246h196v-246h-196zM569 0v246h197v-246h-197zM987 0v246h197v-246h-197z" />
<glyph unicode="&#x202f;" horiz-adv-x="388" />
<glyph unicode="&#x2030;" horiz-adv-x="2891" d="M86 1071q0 185 100.5 285t268.5 100q170 0 271 -100t101 -285t-101 -284t-271 -99q-169 0 -269 99t-100 284zM227 1071q0 -128 60 -196t168 -68q110 0 169.5 68t59.5 196q0 129 -60 198.5t-169 69.5q-108 0 -168 -70t-60 -198zM563 0l752 1434h145l-751 -1434h-146z M1196 360q0 185 99.5 285t269.5 100q171 0 271.5 -100t100.5 -285t-100.5 -284t-271.5 -99q-170 0 -269.5 99t-99.5 284zM1337 360q0 -127 60.5 -195.5t167.5 -68.5q110 0 169.5 68t59.5 196q0 129 -60 199t-169 70q-107 0 -167.5 -70.5t-60.5 -198.5zM2066 360 q0 185 100.5 285t270.5 100t270.5 -100t100.5 -285t-100.5 -284t-270.5 -99t-270.5 99t-100.5 284zM2210 360q0 -128 59.5 -196t167.5 -68t168.5 68t60.5 196t-60.5 198.5t-168.5 70.5t-167.5 -70t-59.5 -199z" />
<glyph unicode="&#x2039;" horiz-adv-x="823" d="M76 516v111l624 454v-170l-473 -340l473 -338v-170z" />
<glyph unicode="&#x203a;" horiz-adv-x="823" d="M123 63v170l473 340l-473 338v170l625 -452v-111z" />
<glyph unicode="&#x2044;" horiz-adv-x="372" d="M-225 0l684 1434h143l-684 -1434h-143z" />
<glyph unicode="&#x205f;" horiz-adv-x="485" />
<glyph unicode="&#x2070;" horiz-adv-x="868" d="M84 1219q0 214 90 329t262 115t261 -115t89 -329t-90 -329.5t-262 -115.5t-261 115.5t-89 329.5zM221 1219q0 -338 213 -338q217 0 217 338q0 337 -215 337t-215 -337z" />
<glyph unicode="&#x2074;" horiz-adv-x="839" d="M47 971v96l426 582h178v-568h140v-110h-140v-183h-135v183h-469zM188 1081h328v455z" />
<glyph unicode="&#x2075;" horiz-adv-x="768" d="M61 868l62 101q35 -26 99.5 -52t131.5 -26q86 0 145.5 47t59.5 123q0 73 -52.5 121.5t-146.5 48.5q-87 0 -186 -51l-76 41l49 428h515v-113h-404l-18 -225q72 28 149 28q144 0 227.5 -80t83.5 -196q0 -119 -86 -204t-243 -85q-153 0 -310 94z" />
<glyph unicode="&#x2076;" horiz-adv-x="811" d="M78 1157q0 216 136.5 361t350.5 145q32 0 63 -3.5t46 -7.5l16 -3l-31 -107q-43 10 -92 10q-129 0 -223 -80t-121 -223q33 35 93 62.5t143 27.5q133 0 212 -77.5t79 -194.5q0 -122 -89.5 -207.5t-236.5 -85.5q-115 0 -194.5 53.5t-115.5 138t-36 191.5zM213 1128 q3 -117 59 -180t150 -63q92 0 142 53.5t50 126.5q0 69 -47.5 119.5t-138.5 50.5q-76 0 -133.5 -33.5t-81.5 -73.5z" />
<glyph unicode="&#x2077;" horiz-adv-x="671" d="M43 1536v113h598v-103q-13 -16 -35.5 -44t-79.5 -114.5t-100.5 -172.5t-79 -204.5t-35.5 -222.5h-141q0 96 32 207t73 194.5t94.5 169t78.5 119.5t44 58h-449z" />
<glyph unicode="&#x2078;" horiz-adv-x="829" d="M70 1014q0 46 18 85t50.5 67.5t66.5 48.5t78 38q-158 75 -158 201q0 94 80.5 151.5t212.5 57.5q131 0 211 -57.5t80 -151.5q0 -125 -160 -201q44 -18 77.5 -38t66.5 -48.5t51 -67.5t18 -85q0 -111 -96 -175.5t-248 -64.5q-156 0 -252 64.5t-96 175.5zM207 1022 q0 -64 60.5 -103.5t150.5 -39.5q88 0 146.5 39t58.5 104q0 62 -56.5 104t-150.5 76q-95 -34 -152 -76t-57 -104zM256 1442q0 -28 14 -51.5t41 -40.5t49.5 -27.5t55.5 -22.5q33 12 55 22t49 27.5t41 41t14 51.5q0 48 -45 83.5t-112 35.5q-71 0 -116.5 -35t-45.5 -84z" />
<glyph unicode="&#x2079;" horiz-adv-x="813" d="M66 1368q0 123 88 209t235 86q86 0 153 -30.5t108.5 -83.5t63 -121.5t21.5 -147.5q0 -143 -60.5 -258t-172 -181.5t-254.5 -66.5q-32 0 -63.5 3.5t-46.5 6.5l-15 4l35 107q37 -10 88 -10q128 0 221.5 79t122.5 222q-93 -88 -236 -88q-133 0 -210.5 77t-77.5 193z M199 1372q0 -70 48 -121t138 -51q76 0 134 35t81 76q-4 115 -60.5 178t-148.5 63t-142 -54.5t-50 -125.5z" />
<glyph unicode="&#x207a;" horiz-adv-x="837" d="M92 1149v98h275v234h104v-234h274v-98h-274v-234h-104v234h-275z" />
<glyph unicode="&#x207d;" horiz-adv-x="413" d="M96 862v707q0 36 1 55t5.5 45t14 40t26.5 32t43 29.5t63.5 24t88.5 24.5l37 -80q-55 -17 -82.5 -28t-42 -30t-17 -36t-2.5 -56v-747q0 -38 2.5 -55t17 -35.5t42 -30t82.5 -29.5l-37 -80q-51 12 -88.5 24.5t-63.5 24t-43 29.5t-26.5 32t-14 40t-5.5 45t-1 55z" />
<glyph unicode="&#x207e;" horiz-adv-x="413" d="M41 692q55 17 82 28t42 30t17 35.5t2 56.5v747q0 39 -2 55t-16.5 35t-42 31t-82.5 29l37 80q45 -10 79 -20t59 -23t42.5 -23.5t29 -27.5t18 -29.5t9.5 -37t3.5 -41t0.5 -48.5v-707q0 -32 -0.5 -48.5t-3.5 -41t-9.5 -37t-18 -29.5t-29 -27.5t-42.5 -23.5t-59 -23t-79 -20z " />
<glyph unicode="&#x207f;" horiz-adv-x="804" d="M106 788v646h130v-88q139 102 276 102q193 0 193 -203v-457h-130v433q0 58 -24 90t-84 32q-59 0 -125 -30.5t-106 -65.5v-459h-130z" />
<glyph unicode="&#x2080;" horiz-adv-x="868" d="M84 123q0 214 90 329t262 115t261 -115t89 -329t-90 -329.5t-262 -115.5t-261 115.5t-89 329.5zM221 123q0 -338 213 -338q217 0 217 338t-215 338t-215 -338z" />
<glyph unicode="&#x2081;" horiz-adv-x="501" d="M29 434l227 119h125v-860h-135v731l-160 -80z" />
<glyph unicode="&#x2082;" horiz-adv-x="772" d="M66 -233q0 43 10 81t33 71.5t44 57.5t61 54t64 46t72 46q55 34 81.5 52t61 47t48.5 56t14 58q0 53 -43.5 86t-120.5 33q-64 0 -128.5 -25t-108.5 -55l-64 88q155 104 316 104q133 0 209.5 -62.5t76.5 -164.5q0 -55 -20.5 -101.5t-70 -89t-81.5 -64.5t-103 -64 q-19 -11 -28 -17q-87 -52 -127.5 -94.5t-40.5 -104.5h473v-112h-628v74z" />
<glyph unicode="&#x2083;" horiz-adv-x="780" d="M47 -225l64 92q54 -31 124 -53.5t136 -22.5q86 0 141 40t55 108q0 44 -26 77.5t-68.5 50.5t-87.5 25t-92 8h-43v115h49q91 0 160 33.5t69 99.5q0 50 -40.5 78.5t-110.5 28.5q-110 0 -232 -72l-55 84q22 18 56 37t105.5 41t143.5 22q128 0 198.5 -60t70.5 -145 q0 -62 -42 -114t-124 -80q92 -24 149.5 -85t57.5 -144q0 -107 -81 -184t-237 -77q-169 0 -340 97z" />
<glyph unicode="&#x2084;" horiz-adv-x="839" d="M47 -29l426 582h178v-567h140v-111h-140v-182h-135v182h-469v96zM188 -14h328v454z" />
<glyph unicode="&#x2085;" horiz-adv-x="768" d="M61 -227l62 100q35 -26 99.5 -52t131.5 -26q86 0 145.5 47t59.5 123q0 73 -52.5 121.5t-146.5 48.5q-87 0 -186 -51l-76 41l49 428h515v-113h-404l-18 -225q74 29 149 29q143 0 227 -80.5t84 -196.5q0 -119 -86 -204t-243 -85q-152 0 -310 95z" />
<glyph unicode="&#x2086;" horiz-adv-x="811" d="M78 61q0 216 136.5 361t350.5 145q32 0 63.5 -3.5t46.5 -7.5l15 -3l-31 -107q-43 11 -92 11q-129 0 -223 -80t-121 -223q33 35 93 62.5t143 27.5q133 0 212 -78t79 -195q0 -122 -89.5 -207.5t-236.5 -85.5q-115 0 -194.5 53.5t-115.5 138t-36 191.5zM213 33 q3 -117 59 -180.5t150 -63.5q92 0 142 53.5t50 126.5q0 69 -47.5 119.5t-138.5 50.5q-76 0 -133.5 -33t-81.5 -73z" />
<glyph unicode="&#x2087;" horiz-adv-x="671" d="M43 440v113h598v-102q-13 -16 -35.5 -44t-79.5 -114.5t-100.5 -172.5t-79 -204.5t-35.5 -222.5h-141q0 96 32.5 207t72.5 194t94 169t79 119.5t44 57.5h-449z" />
<glyph unicode="&#x2088;" horiz-adv-x="829" d="M70 -82q0 152 213 240q-158 75 -158 200q0 94 80.5 151.5t212.5 57.5q131 0 211 -57.5t80 -151.5q0 -124 -160 -200q94 -40 153.5 -96.5t59.5 -143.5q0 -111 -96 -175.5t-248 -64.5q-156 0 -252 64.5t-96 175.5zM207 -74q0 -64 60.5 -103.5t150.5 -39.5q88 0 146.5 39 t58.5 104q0 62 -56.5 104t-150.5 76q-95 -34 -152 -76t-57 -104zM256 346q0 -28 14 -51.5t41 -40.5t49 -27t56 -22q34 12 55 22t48.5 27t41.5 40.5t14 51.5q0 48 -45 83.5t-112 35.5q-71 0 -116.5 -35t-45.5 -84z" />
<glyph unicode="&#x2089;" horiz-adv-x="813" d="M66 272q0 123 88 209t235 86q86 0 153 -30.5t108.5 -83.5t63 -121.5t21.5 -147.5q0 -143 -60.5 -258t-172 -181.5t-254.5 -66.5q-32 0 -63.5 4t-46.5 8l-15 3l35 106q37 -10 88 -10q128 0 221.5 79t122.5 222q-93 -88 -236 -88q-133 0 -210.5 77t-77.5 193zM199 276 q0 -70 48 -121t138 -51q76 0 134 35t81 76q-4 115 -60.5 178.5t-148.5 63.5t-142 -54.5t-50 -126.5z" />
<glyph unicode="&#x208a;" horiz-adv-x="837" d="M92 53v99h275v233h104v-233h274v-99h-274v-233h-104v233h-275z" />
<glyph unicode="&#x208d;" horiz-adv-x="413" d="M96 -233v706q0 36 1 55t5.5 45t14 40t26.5 32t43 29.5t63.5 24t88.5 24.5l37 -80q-55 -17 -82.5 -28t-42 -29.5t-17 -35.5t-2.5 -56v-748q0 -31 2 -45.5t8 -31t22.5 -26.5t42 -21t69.5 -25l-37 -80q-51 12 -88.5 24.5t-63.5 24t-43 29.5t-26.5 32t-14 40t-5.5 45t-1 55z " />
<glyph unicode="&#x208e;" horiz-adv-x="413" d="M41 -403q55 17 82 28t42 29.5t17 35t2 56.5v748q0 27 -0.5 39t-5.5 28t-12.5 24t-24.5 18.5t-40 19t-60 20.5l37 80q45 -10 79 -20t59 -23t42.5 -23.5t29 -27.5t18 -29.5t9.5 -37t3.5 -41t0.5 -48.5v-706q0 -32 -0.5 -48.5t-3.5 -41t-9.5 -37t-18 -29.5t-29 -27.5 t-42.5 -23.5t-59 -23t-79 -20z" />
<glyph unicode="&#x20a1;" horiz-adv-x="1138" d="M131 719q0 136 38.5 245t103.5 176t148 102.5t175 35.5q4 0 13 -1t14 -1l36 158h101l-41 -172q27 -6 74 -21l45 193h104l-55 -232q27 -13 54.5 -28t54 -30.5t38.5 -21.5l-80 -125q-10 5 -43.5 25t-56.5 33l-172 -742q23 5 47 12.5t48.5 18.5t43 19.5t42.5 21.5t34.5 19.5 t32.5 19.5t24 14l80 -125q-45 -27 -73.5 -43t-85 -43.5t-114 -44t-114.5 -22.5l-37 -160h-104l37 160q-45 7 -74 16l-41 -176h-100l49 213q-113 65 -179.5 193.5t-66.5 312.5zM305 719q0 -214 113 -330l170 739q-124 -9 -203.5 -119.5t-79.5 -289.5zM504 328q43 -19 71 -21 l185 791q-42 17 -74 22z" />
<glyph unicode="&#x20a4;" horiz-adv-x="1138" d="M129 0v125q7 5 18.5 14t43 39.5t58.5 63.5t57.5 82.5t47.5 99.5h-202v108h225v19q0 54 -21 119h-204v110h151q-7 12 -28.5 47t-30.5 50.5t-25 48.5t-23.5 57t-13.5 57.5t-6 67.5q0 157 109 252.5t293 95.5q87 0 181.5 -26.5t144.5 -50.5t130 -66l-84 -123 q-218 115 -352 115q-116 0 -181 -63.5t-65 -156.5q0 -53 17.5 -98.5t62.5 -116.5t55 -90h385v-110h-340q15 -62 15 -107q0 -21 -2 -31h327v-108h-348q-28 -86 -78 -158t-92 -114h658v-152h-883z" />
<glyph unicode="&#x20a7;" horiz-adv-x="1374" d="M139 946v94h64v394h514q114 0 205.5 -21.5t163 -67t114 -122.5t49.5 -183h56v-94h-56q-31 -389 -532 -389h-336v-557h-178v946h-64zM381 707h338q317 0 348 239h-686v-239zM381 1040h686q-27 242 -348 242h-338v-242z" />
<glyph unicode="&#x20a9;" horiz-adv-x="2086" d="M121 487v117h254l-66 238h-188v116h155l-131 476h199l117 -476h377l123 476h163l123 -476h377l119 476h196l-131 -476h158v-116h-190l-66 -238h256v-117h-289l-135 -487h-188l-312 1184l-311 -1184h-188l-135 487h-287zM489 842l58 -238h198l62 238h-318zM575 487 l70 -276l72 276h-142zM1276 842l61 -238h199l59 238h-319zM1368 487l72 -274l67 274h-139z" />
<glyph unicode="&#x20ac;" horiz-adv-x="1449" d="M104 489v109h127q-4 74 -4 119q0 71 4 106h-127v109h140q23 132 75.5 234t126 164.5t160.5 94t185 31.5q142 0 274.5 -57.5t275.5 -153.5l-92 -127q-61 39 -100 61.5t-102 54t-123.5 47t-118.5 15.5q-137 0 -236.5 -95t-138.5 -269h582v-109h-598q-4 -70 -4 -106 q0 -64 6 -119h596v-109h-578q39 -167 137.5 -259.5t233.5 -92.5q58 0 118.5 15.5t123.5 47t102 54t100 61.5l92 -127q-143 -96 -275.5 -153.5t-274.5 -57.5q-97 0 -183.5 30.5t-159 91.5t-125.5 160.5t-77 229.5h-142z" />
<glyph unicode="&#x2116;" horiz-adv-x="2320" d="M197 0v1434h182l743 -1174v1174h176v-1434h-182l-741 1171v-1171h-178zM1442 1004q0 200 98 305.5t285 105.5q186 0 283.5 -105.5t97.5 -305.5q0 -201 -97.5 -306.5t-283.5 -105.5q-187 0 -285 105.5t-98 306.5zM1511 367v110h625v-110h-625zM1597 1004 q0 -144 54.5 -216.5t173.5 -72.5q117 0 171 72.5t54 216.5q0 143 -54 214.5t-171 71.5q-119 0 -173.5 -71.5t-54.5 -214.5z" />
<glyph unicode="&#x2117;" horiz-adv-x="1699" d="M121 717q0 156 49 290.5t140 234.5t230.5 157t311.5 57t311 -57t230 -157t139.5 -234.5t48.5 -290.5t-48.5 -290.5t-139.5 -234.5t-230 -157.5t-311 -57.5t-311.5 57.5t-230.5 157.5t-140 234.5t-49 290.5zM199 717q0 -190 74 -339t223.5 -238t353.5 -89t354 89 t224.5 238t74.5 339q0 141 -43.5 262t-125 210t-206 140t-278.5 51t-278.5 -51t-205.5 -140t-124 -210t-43 -262zM627 285v862h286q299 0 299 -262q0 -264 -299 -264h-192v-336h-94zM721 702h194q92 0 146.5 44t54.5 139t-54 138.5t-147 43.5h-194v-365z" />
<glyph unicode="&#x2120;" horiz-adv-x="1335" d="M131 1028l45 66q107 -50 195 -50q42 0 73 13.5t31 38.5q0 13 -8.5 23t-29 18t-37.5 13t-51 13.5t-54 14.5q-66 18 -108 47t-42 84q0 60 51 96.5t134 36.5q109 0 217 -53l-43 -62q-101 37 -170 37q-40 0 -66 -12t-26 -37q0 -12 7.5 -21.5t25.5 -16.5t34 -11.5t47.5 -12.5 t51.5 -14q165 -41 165 -137q0 -60 -56.5 -97.5t-141.5 -37.5q-115 0 -244 61zM647 975v459h98l166 -287l166 287h101v-459h-95v321l-139 -245h-63l-140 245v-321h-94z" />
<glyph unicode="&#x2122;" horiz-adv-x="1337" d="M137 1356v78h426v-78h-168v-381h-94v381h-164zM639 975v459h102l164 -291l166 291h100v-459h-96v319l-139 -243h-59l-142 247v-323h-96z" />
<glyph unicode="&#x2126;" horiz-adv-x="1521" d="M131 733q0 159 36 288t109.5 228t196.5 153t287 54q132 0 238 -35.5t178.5 -99.5t120.5 -155t70 -198.5t22 -234.5q0 -99 -18.5 -187t-47.5 -150.5t-67.5 -113.5t-75.5 -81.5t-74 -48.5h240v-152h-478v150q154 56 247 200.5t93 368.5q0 135 -23 238t-74.5 182.5 t-139.5 121.5t-211 42t-211.5 -42t-139.5 -121t-74.5 -182t-23.5 -237q0 -116 25.5 -212.5t72.5 -165.5t107.5 -117t134.5 -76v-150h-475v152h234q-46 25 -90.5 69t-89 113t-72 173t-27.5 226z" />
<glyph unicode="&#x2153;" horiz-adv-x="1695" d="M57 1315l228 119h125v-861h-136v732l-159 -80zM324 0l684 1434h143l-684 -1434h-143zM938 82l63 92q53 -31 124 -53.5t137 -22.5q86 0 141 40t55 108q0 44 -26 77.5t-68.5 51t-87.5 25.5t-92 8h-43v114h49q91 0 160 33.5t69 99.5q0 50 -40.5 78.5t-110.5 28.5 q-110 0 -232 -72l-55 84q22 18 56 37t105.5 41t143.5 22q128 0 198 -59.5t70 -144.5q0 -63 -41.5 -115t-123.5 -80q92 -24 149 -85t57 -144q0 -107 -80.5 -183.5t-236.5 -76.5q-171 0 -340 96z" />
<glyph unicode="&#x2154;" horiz-adv-x="1970" d="M104 573v74q0 37 9 71.5t21.5 61t37.5 55t44 47t55 44t56.5 39t61.5 39.5q55 34 81.5 52t61 47t48.5 56t14 58q0 53 -43.5 85.5t-120.5 32.5q-64 0 -128.5 -25t-108.5 -55l-64 88q156 105 315 105q133 0 210 -63t77 -164q0 -55 -20.5 -101.5t-70 -89t-81.5 -64.5 t-103 -64q-19 -11 -28 -17q-87 -52 -127.5 -94.5t-40.5 -104.5h473v-113h-629zM602 0l684 1434h144l-685 -1434h-143zM1221 82l63 92q54 -31 124 -53.5t136 -22.5q86 0 141.5 40t55.5 108q0 44 -26 77.5t-69 51t-88 25.5t-92 8h-43v114h50q91 0 160 33.5t69 99.5 q0 50 -41 78.5t-111 28.5q-109 0 -231 -72l-55 84q22 18 56 37t105.5 41t143.5 22q128 0 198 -59.5t70 -144.5q0 -63 -42 -115t-124 -80q92 -24 149.5 -85t57.5 -144q0 -107 -80.5 -183.5t-236.5 -76.5q-171 0 -340 96z" />
<glyph unicode="&#x2155;" horiz-adv-x="1708" d="M57 1315l228 119h125v-861h-136v732l-159 -80zM324 0l684 1434h143l-684 -1434h-143zM958 80l62 100q35 -26 99.5 -52t131.5 -26q86 0 145.5 47t59.5 123q0 73 -52.5 121.5t-146.5 48.5q-87 0 -186 -51l-76 41l49 428h515v-112h-404l-18 -226q74 29 149 29 q143 0 227 -80.5t84 -196.5q0 -119 -86 -203.5t-243 -84.5q-153 0 -310 94z" />
<glyph unicode="&#x2156;" horiz-adv-x="1980" d="M104 573v74q0 37 9 71.5t21.5 61t37.5 55t44 47t55 44t56.5 39t61.5 39.5q55 34 81.5 52t61 47t48.5 56t14 58q0 53 -43.5 85.5t-120.5 32.5q-64 0 -128.5 -25t-108.5 -55l-64 88q156 105 315 105q133 0 210 -63t77 -164q0 -55 -20.5 -101.5t-70 -89t-81.5 -64.5 t-103 -64q-19 -11 -28 -17q-87 -52 -127.5 -94.5t-40.5 -104.5h473v-113h-629zM602 0l684 1434h144l-685 -1434h-143zM1237 80l61 100q34 -26 99.5 -52t132.5 -26q86 0 145.5 47t59.5 123q0 73 -52.5 121.5t-146.5 48.5q-87 0 -186 -51l-76 41l49 428h514v-112h-403 l-19 -226q74 29 150 29q143 0 227 -80.5t84 -196.5q0 -119 -86.5 -203.5t-243.5 -84.5q-152 0 -309 94z" />
<glyph unicode="&#x2157;" horiz-adv-x="1935" d="M84 655l63 93q53 -31 124 -53.5t137 -22.5q87 0 141.5 39.5t54.5 107.5q0 44 -26 77.5t-68.5 51t-87.5 25.5t-92 8h-43v115h49q91 0 160 33.5t69 99.5q0 49 -40 77.5t-111 28.5q-112 0 -232 -71l-55 84q22 18 56 37t105.5 41t143.5 22q128 0 198 -60t70 -145 q0 -63 -41.5 -114.5t-123.5 -79.5q92 -24 149 -85.5t57 -144.5q0 -107 -80.5 -183.5t-236.5 -76.5q-171 0 -340 96zM555 0l684 1434h143l-684 -1434h-143zM1188 80l61 100q34 -26 99.5 -52t132.5 -26q86 0 145.5 47t59.5 123q0 73 -52.5 121.5t-146.5 48.5q-88 0 -187 -51 l-75 41l49 428h514v-112h-404l-18 -226q74 29 150 29q143 0 227 -80.5t84 -196.5q0 -119 -86.5 -203.5t-243.5 -84.5q-152 0 -309 94z" />
<glyph unicode="&#x2158;" horiz-adv-x="1998" d="M68 756v96l426 582h178v-568h139v-110h-139v-183h-135v183h-469zM209 866h328v455zM618 0l685 1434h143l-684 -1434h-144zM1251 80l62 100q35 -26 99.5 -52t131.5 -26q86 0 145.5 47t59.5 123q0 73 -52.5 121.5t-146.5 48.5q-87 0 -186 -51l-76 41l49 428h514v-112h-403 l-18 -226q74 29 149 29q143 0 227 -80.5t84 -196.5q0 -119 -86 -203.5t-243 -84.5q-153 0 -310 94z" />
<glyph unicode="&#x2159;" horiz-adv-x="1662" d="M57 1315l228 119h125v-861h-136v732l-159 -80zM324 0l684 1434h143l-684 -1434h-143zM889 369q0 216 136.5 360.5t350.5 144.5q32 0 63.5 -3.5t46.5 -6.5l15 -4l-31 -106q-43 10 -92 10q-129 0 -223 -80t-121 -223q33 35 93 62.5t143 27.5q133 0 212 -77.5t79 -194.5 q0 -122 -89.5 -207.5t-236.5 -85.5q-115 0 -194.5 53.5t-115.5 138t-36 191.5zM1024 340q3 -117 59 -180.5t150 -63.5q92 0 142 53.5t50 126.5q0 69 -47.5 119.5t-138.5 50.5q-76 0 -133.5 -33t-81.5 -73z" />
<glyph unicode="&#x215a;" horiz-adv-x="1857" d="M96 653l62 101q35 -26 99.5 -52t131.5 -26q86 0 145.5 47t59.5 123q0 73 -52.5 121.5t-146.5 48.5q-87 0 -186 -51l-76 41l49 428h514v-113h-403l-19 -225q72 28 150 28q144 0 227.5 -80t83.5 -196q0 -119 -86 -204t-243 -85q-153 0 -310 94zM520 0l684 1434h144 l-684 -1434h-144zM1085 369q0 216 137 360.5t351 144.5q32 0 63.5 -3.5t46.5 -6.5l15 -4l-31 -106q-43 10 -92 10q-129 0 -223 -80t-121 -223q33 35 92.5 62.5t142.5 27.5q133 0 212 -77.5t79 -194.5q0 -122 -89 -207.5t-236 -85.5q-115 0 -195 53.5t-116 138t-36 191.5z M1221 340q3 -117 59 -180.5t150 -63.5q92 0 142 53.5t50 126.5q0 69 -47.5 119.5t-138.5 50.5q-76 0 -133.5 -33t-81.5 -73z" />
<glyph unicode="&#x215b;" horiz-adv-x="1705" d="M57 1315l228 119h125v-861h-136v732l-159 -80zM324 0l684 1434h143l-684 -1434h-143zM924 225q0 152 213 240q-158 75 -158 201q0 94 80.5 151t212.5 57q131 0 211 -57t80 -151q0 -125 -160 -201q94 -40 153.5 -96.5t59.5 -143.5q0 -110 -96 -174.5t-248 -64.5 q-156 0 -252 64t-96 175zM1061 233q0 -64 60.5 -103.5t150.5 -39.5q88 0 146.5 39t58.5 104q0 62 -56.5 104.5t-150.5 76.5q-44 -16 -77.5 -31.5t-65.5 -37.5t-49 -50.5t-17 -61.5zM1110 653q0 -28 14 -51.5t41 -40.5t49 -27t56 -22q27 10 43.5 17t41.5 20.5t39 27t25 33.5 t11 43q0 48 -45 83.5t-113 35.5q-71 0 -116.5 -35t-45.5 -84z" />
<glyph unicode="&#x215c;" horiz-adv-x="1941" d="M84 655l63 93q53 -31 124 -53.5t137 -22.5q87 0 141.5 39.5t54.5 107.5q0 44 -26 77.5t-68.5 51t-87.5 25.5t-92 8h-43v115h49q91 0 160 33.5t69 99.5q0 49 -40 77.5t-111 28.5q-112 0 -232 -71l-55 84q22 18 56 37t105.5 41t143.5 22q128 0 198 -60t70 -145 q0 -63 -41.5 -114.5t-123.5 -79.5q92 -24 149 -85.5t57 -144.5q0 -107 -80.5 -183.5t-236.5 -76.5q-171 0 -340 96zM555 0l684 1434h143l-684 -1434h-143zM1159 225q0 152 213 240q-158 75 -158 201q0 94 80.5 151t212.5 57q131 0 211 -57t80 -151q0 -125 -160 -201 q94 -40 153.5 -96.5t59.5 -143.5q0 -110 -96 -174.5t-248 -64.5q-156 0 -252 64t-96 175zM1296 233q0 -64 60.5 -103.5t150.5 -39.5q88 0 146.5 39t58.5 104q0 62 -56.5 104.5t-150.5 76.5q-44 -16 -77.5 -31.5t-65.5 -37.5t-49 -50.5t-17 -61.5zM1346 653q0 -28 14 -51.5 t40.5 -40.5t49 -27t55.5 -22q27 10 43.5 17t41.5 20.5t39 27t25 33.5t11 43q0 48 -45 83.5t-113 35.5q-71 0 -116 -35t-45 -84z" />
<glyph unicode="&#x215d;" horiz-adv-x="1900" d="M96 653l62 101q35 -26 99.5 -52t131.5 -26q86 0 145.5 47t59.5 123q0 73 -52.5 121.5t-146.5 48.5q-87 0 -186 -51l-76 41l49 428h514v-113h-403l-19 -225q72 28 150 28q144 0 227.5 -80t83.5 -196q0 -119 -86 -204t-243 -85q-153 0 -310 94zM520 0l684 1434h144 l-684 -1434h-144zM1120 225q0 152 213 240q-157 75 -157 201q0 94 80 151t212 57q131 0 211 -57t80 -151q0 -125 -160 -201q94 -40 153.5 -96.5t59.5 -143.5q0 -110 -96 -174.5t-248 -64.5q-156 0 -252 64t-96 175zM1257 233q0 -64 60.5 -103.5t150.5 -39.5q88 0 146.5 39 t58.5 104q0 62 -56.5 104.5t-150.5 76.5q-44 -16 -77.5 -31.5t-65.5 -37.5t-49 -50.5t-17 -61.5zM1307 653q0 -28 14 -51.5t40.5 -40.5t49 -27t55.5 -22q27 10 43.5 17t41.5 20.5t39 27t25 33.5t11 43q0 48 -45 83.5t-113 35.5q-71 0 -116 -35t-45 -84z" />
<glyph unicode="&#x215e;" horiz-adv-x="1714" d="M70 1321v113h598v-103q-13 -16 -35.5 -44t-79.5 -114.5t-100.5 -172.5t-79 -204.5t-35.5 -222.5h-141q0 96 32 207t72.5 194.5t93.5 169t78.5 120t44.5 57.5h-448zM336 0l684 1434h143l-684 -1434h-143zM934 225q0 152 213 240q-158 75 -158 201q0 94 80.5 151t212.5 57 q131 0 211 -57t80 -151q0 -125 -160 -201q94 -40 153.5 -96.5t59.5 -143.5q0 -110 -96 -174.5t-248 -64.5q-156 0 -252 64t-96 175zM1071 233q0 -64 60.5 -103.5t150.5 -39.5q88 0 146.5 39t58.5 104q0 62 -56.5 104.5t-150.5 76.5q-44 -16 -77.5 -31.5t-65.5 -37.5 t-49 -50.5t-17 -61.5zM1120 653q0 -28 14 -51.5t41 -40.5t49 -27t56 -22q27 10 43.5 17t41.5 20.5t39 27t25 33.5t11 43q0 48 -45 83.5t-113 35.5q-71 0 -116.5 -35t-45.5 -84z" />
<glyph unicode="&#x2202;" horiz-adv-x="1257" d="M104 475q0 225 130 362.5t341 137.5q74 0 139 -16.5t105 -40.5t69.5 -48t41.5 -40l12 -17q-17 70 -46.5 136t-77.5 129.5t-107.5 110.5t-140.5 76t-173 29q-39 0 -78 -4.5t-58 -9.5l-19 -4l-29 133q75 25 188 25q215 0 381.5 -110.5t256 -304.5t89.5 -441 q0 -131 -26.5 -234.5t-73 -171.5t-112 -112.5t-139.5 -63.5t-161 -19q-238 0 -375 135.5t-137 362.5zM281 475q0 -164 87 -262t250 -98q160 0 249 96t89 266q0 169 -87 265t-251 96t-250.5 -100t-86.5 -263z" />
<glyph unicode="&#x2206;" horiz-adv-x="1409" d="M51 0l555 1434h195l555 -1434h-1305zM274 152h859l-428 1087z" />
<glyph unicode="&#x220f;" horiz-adv-x="1419" d="M63 1282v152h1293v-152h-217v-1282h-176v1282h-506v-1282h-176v1282h-218z" />
<glyph unicode="&#x2211;" horiz-adv-x="1136" d="M102 0v121l566 596l-566 596v121h920v-152h-682l545 -565l-545 -565h682v-152h-920z" />
<glyph unicode="&#x2212;" horiz-adv-x="1308" d="M139 614v136h1028v-136h-1028z" />
<glyph unicode="&#x221a;" horiz-adv-x="1185" d="M47 696h184l242 -471l504 1209h184l-610 -1434h-137z" />
<glyph unicode="&#x221e;" horiz-adv-x="1886" d="M125 528q0 139 101 233.5t261 94.5q36 0 70 -4.5t69 -18.5t59 -23t59.5 -34t51 -35t53.5 -43.5t46 -40.5t49 -45q116 107 170 145q140 99 287 99q159 0 260.5 -94.5t101.5 -233.5q0 -140 -101.5 -233.5t-262.5 -93.5q-64 0 -120.5 16t-115 53t-103 72.5t-116.5 99.5 q-62 -59 -106.5 -95.5t-103 -73.5t-119.5 -54.5t-128 -17.5q-160 0 -261 94t-101 233zM272 528q0 -78 59.5 -139t162.5 -61q42 0 84.5 13t72.5 27.5t72.5 48t63 51.5t65.5 60q-121 109 -196 155t-162 46q-105 0 -163.5 -62t-58.5 -139zM1036 528q51 -48 82 -74.5t79.5 -60.5 t97 -49.5t100.5 -15.5q103 0 163 61t60 139q0 77 -59 139t-164 62q-61 0 -121.5 -26.5t-109.5 -64.5t-128 -110z" />
<glyph unicode="&#x222b;" horiz-adv-x="794" d="M33 -176h47q56 0 96.5 10.5t65 37.5t39 50.5t20.5 73.5t7 82t1 98v1122q0 120 20 197.5t69 128.5t129 72.5t204 21.5h31v-116h-47q-56 0 -96.5 -10.5t-65.5 -37t-39.5 -50.5t-20.5 -74t-7 -82t-1 -98v-3v-1120q0 -120 -20 -197.5t-70 -128.5t-130 -72.5t-204 -21.5h-28 v117z" />
<glyph unicode="&#x2248;" horiz-adv-x="1306" d="M141 426q104 217 291 217q62 0 128 -21.5t112.5 -47t107 -47t113.5 -21.5q50 0 91 25t81 100l106 -43q-103 -217 -288 -217q-62 0 -127.5 21.5t-113 48t-108 48t-112.5 21.5q-50 0 -91 -25.5t-83 -99.5zM141 795q106 217 291 217q62 0 128 -22t112.5 -48t107 -48 t113.5 -22q49 0 90 26t82 99l106 -41q-101 -217 -288 -217q-62 0 -127.5 22t-113 48t-108 48t-112.5 22q-51 0 -91.5 -26t-82.5 -101z" />
<glyph unicode="&#x2260;" horiz-adv-x="1308" d="M139 432v135h393l99 234h-492v135h551l144 336l116 -45l-127 -291h344v-135h-401l-100 -234h501v-135h-561l-141 -332l-113 45l123 287h-336z" />
<glyph unicode="&#x2264;" horiz-adv-x="1308" d="M129 0v123h1028v-123h-1028zM131 600v119l1026 414v-160l-823 -314l823 -315v-158z" />
<glyph unicode="&#x2265;" horiz-adv-x="1306" d="M147 0v123h1029v-123h-1029zM147 186v158l824 315l-824 314v160l1027 -414v-119z" />
<glyph unicode="&#x2318;" horiz-adv-x="1648" d="M133 350q0 111 85 189.5t206 78.5h164v201h-164q-121 0 -206 78.5t-85 189.5q0 112 84.5 190.5t206.5 78.5q119 0 203 -78.5t84 -190.5v-149h225v149q0 112 83.5 190.5t203.5 78.5q121 0 204.5 -78t83.5 -191q0 -111 -83.5 -189.5t-204.5 -78.5h-164v-201h164 q121 0 204.5 -78.5t83.5 -189.5q0 -113 -83.5 -190.5t-204.5 -77.5q-120 0 -203.5 78t-83.5 190v150h-225v-150q0 -112 -84 -190t-203 -78q-122 0 -206.5 78t-84.5 190zM256 350q0 -63 48.5 -106t119.5 -43q68 0 116 43t48 106v150h-164q-70 0 -119 -44t-49 -106zM256 1087 q0 -62 49 -105.5t119 -43.5h164v149q0 63 -48 106.5t-116 43.5q-71 0 -119.5 -43.5t-48.5 -106.5zM711 618h225v201h-225v-201zM1059 350q0 -63 48 -106t116 -43t117 43.5t49 105.5q0 61 -49 105.5t-117 44.5h-164v-150zM1059 938h164q68 0 117 44t49 105q0 63 -49 106.5 t-117 43.5t-116 -43.5t-48 -106.5v-149z" />
<glyph unicode="&#x25ca;" horiz-adv-x="1124" d="M74 717l389 717h196l394 -717l-394 -717h-196zM248 717l313 -576l313 576l-313 573z" />
<glyph unicode="&#xe000;" horiz-adv-x="1075" d="M0 0v1075h1075v-1075h-1075z" />
<glyph unicode="&#xf639;" horiz-adv-x="1269" d="M94 717q0 356 138 547.5t403 191.5t402 -191.5t137 -547.5q0 -358 -137 -549t-402 -191t-403 191.5t-138 548.5zM272 717q0 -286 89.5 -441t273.5 -155q358 0 358 596t-358 596q-184 0 -273.5 -155t-89.5 -441z" />
<glyph unicode="&#xf63a;" horiz-adv-x="1269" d="M152 0v113q0 84 24.5 157t60.5 126.5t97 108.5t113 93t130 90q19 13 29 19q54 37 75 51t66 47.5t64 51.5t49 49t42.5 56t23 56.5t10.5 64.5q0 98 -75 160t-204 62q-108 0 -209.5 -40t-171.5 -89l-86 120q231 160 480 160q203 0 323.5 -101t120.5 -268q0 -40 -8 -78 t-19.5 -70t-34.5 -65.5t-42 -58t-53.5 -55.5t-58 -50.5t-66 -50t-66.5 -46.5t-71.5 -47t-69.5 -46q-74 -49 -116 -81.5t-83 -77.5t-58.5 -95.5t-17.5 -113.5h766v-152h-964z" />
<glyph unicode="&#xf63b;" horiz-adv-x="1269" d="M129 125l82 129q77 -46 189.5 -85.5t220.5 -39.5q148 0 244 74.5t96 199.5q0 65 -29.5 117.5t-76 86t-107.5 56.5t-121.5 32.5t-120.5 9.5h-64v153h74q97 0 181 25.5t142 83.5t58 139q0 93 -71.5 146t-192.5 53q-181 0 -361 -119l-77 117q27 20 59.5 39t94 48.5t142 47.5 t164.5 18q197 0 307.5 -97.5t110.5 -238.5q0 -104 -67.5 -192.5t-206.5 -136.5q149 -36 244.5 -141t95.5 -247q0 -82 -30 -156.5t-89 -136t-157 -97.5t-222 -36q-107 0 -219.5 29t-177.5 58.5t-115 60.5z" />
<glyph unicode="&#xf63c;" horiz-adv-x="1269" d="M72 317v132l688 985h223v-967h215v-150h-215v-317h-174v317h-737zM252 467h557v809z" />
<glyph unicode="&#xf63d;" horiz-adv-x="1269" d="M145 123l82 133q23 -15 54.5 -32.5t81.5 -40.5t111.5 -37.5t117.5 -14.5q144 0 247 89t103 231q0 132 -90 221.5t-246 89.5q-148 0 -305 -90l-94 55l78 707h780v-152h-639l-37 -426q113 55 252 55q147 0 258 -63.5t167 -167.5t56 -229q0 -73 -20 -142t-62 -129.5 t-101.5 -105.5t-143.5 -71t-183 -26q-225 0 -467 146z" />
<glyph unicode="&#xf63e;" horiz-adv-x="1269" d="M119 575q-1 169 39.5 313t111.5 247.5t166 176.5t204.5 108.5t227.5 35.5q48 0 96 -5.5t72 -10.5l23 -6l-41 -144q-66 17 -146 17q-93 0 -180 -31.5t-164.5 -95.5t-134.5 -172.5t-80 -249.5q57 61 152.5 109t228.5 48q107 0 195 -35.5t145 -97.5t88 -144t31 -175 q0 -98 -35 -186t-98 -154.5t-158.5 -106t-208.5 -39.5q-107 0 -196 34t-150.5 91.5t-104 134.5t-62.5 162.5t-21 175.5zM299 561q0 -119 38.5 -216t120 -157.5t193.5 -60.5q79 0 143 29t103 76.5t59.5 106t20.5 120.5q0 60 -18.5 115t-55.5 101t-99 73.5t-142 27.5 q-128 0 -226.5 -63t-136.5 -138v-14z" />
<glyph unicode="&#xf63f;" horiz-adv-x="1269" d="M170 1282v152h928v-134q-11 -14 -30 -38.5t-74 -105t-105 -164.5t-111 -207.5t-105 -243.5t-74 -264.5t-30 -276.5h-186q0 94 17 196.5t41.5 192t64.5 189.5t74.5 174t83 161t77.5 135.5t72 112.5t52.5 77.5t31.5 43.5h-727z" />
<glyph unicode="&#xf640;" horiz-adv-x="1269" d="M102 371q0 78 29.5 144t83 114.5t109 81.5t125.5 63q-263 118 -263 336q0 157 123.5 251.5t323.5 94.5q198 0 322 -94.5t124 -251.5q0 -218 -262 -336q70 -30 125.5 -63t109.5 -81.5t83.5 -114.5t29.5 -144q0 -122 -70 -212.5t-189.5 -136t-272.5 -45.5 q-233 0 -382 105.5t-149 288.5zM283 377q0 -117 100 -187.5t250 -70.5t250 70.5t100 187.5q0 50 -21 95t-52.5 77.5t-80.5 63t-94 51t-102 41.5q-74 -27 -129 -54.5t-109 -67t-83 -92t-29 -114.5zM360 1096q0 -42 18 -79.5t44.5 -63t66 -49t72 -37t72.5 -27.5q51 18 91 37 t85 49.5t70.5 74t25.5 95.5q0 91 -76.5 156t-195.5 65q-118 0 -195.5 -65t-77.5 -156z" />
<glyph unicode="&#xf641;" horiz-adv-x="1269" d="M117 971q0 131 59 240.5t174.5 177t267.5 67.5q107 0 196 -34t150 -91.5t103.5 -134.5t62.5 -162.5t21 -175.5q1 -169 -39 -313t-111 -247.5t-166.5 -176.5t-205.5 -108.5t-228 -35.5q-48 0 -95.5 5.5t-71.5 11.5l-23 6l43 143q63 -16 143 -16q73 0 143.5 19t138.5 62 t123 106t96.5 156.5t59.5 207.5q-24 -26 -55 -51t-78.5 -51.5t-112.5 -43t-137 -16.5q-142 0 -247.5 62.5t-158 164.5t-52.5 228zM295 973q0 -59 18.5 -113.5t55 -101t99 -74t142.5 -27.5q89 0 168.5 35t125.5 79.5t69 90.5v8q0 90 -22.5 168t-65.5 138.5t-111 95.5t-153 35 q-154 0 -240 -100t-86 -234z" />
<glyph unicode="&#xf6c3;" horiz-adv-x="176" d="M2 -504l88 176h-76v199h164l19 -207l-146 -221z" />
<glyph unicode="&#xf6dc;" horiz-adv-x="1269" d="M125 0v152h420v1103l-344 -180l-76 123l436 236h160v-1282h420v-152h-1016z" />
<glyph unicode="&#xf6df;" horiz-adv-x="735" d="M80 123q0 155 80 241.5t198 92.5v96h99v-102q21 -4 43 -11t38 -13t39 -16.5t31.5 -15t31.5 -16t24 -12.5l-58 -93l-36 18t-58.5 27t-54.5 19v-432q49 13 149 65l58 -96q-128 -65 -207 -80v-102h-99v94q-118 8 -198 95.5t-80 240.5zM215 123q0 -91 39 -150t104 -73v444 q-65 -12 -104 -71t-39 -150z" />
<glyph unicode="&#xf6e0;" horiz-adv-x="735" d="M80 1219q0 154 80 240.5t198 92.5v97h99v-103q21 -4 43 -11t38 -13t39 -16.5t31.5 -15t31.5 -16t24 -12.5l-58 -92l-36 18t-58.5 27t-54.5 19v-433q45 12 149 66l58 -96q-128 -65 -207 -80v-103h-99v95q-118 8 -198 95.5t-80 240.5zM215 1219q0 -91 39 -150.5t104 -73.5 v445q-65 -12 -104 -71t-39 -150z" />
<glyph unicode="&#xf6e1;" horiz-adv-x="344" d="M96 -436l72 129h-66v166h142l16 -178l-121 -164z" />
<glyph unicode="&#xf6e2;" horiz-adv-x="344" d="M96 659l72 129h-66v166h142l16 -178l-121 -164z" />
<glyph unicode="&#xf6e3;" horiz-adv-x="808" d="M61 -213l66 98q107 -62 233 -86v281l-24 8q-53 16 -91.5 33.5t-79 45.5t-62 69.5t-21.5 93.5q0 104 76.5 167.5t201.5 69.5v111h99v-117q139 -17 260 -78l-60 -98q-98 43 -200 61v-260l18 -6q45 -14 76.5 -26.5t72.5 -35t66.5 -48t43.5 -64t18 -84.5q0 -109 -83.5 -174 t-211.5 -70v-108h-99v115q-148 20 -299 102zM221 338q0 -46 34.5 -72t104.5 -49v236q-60 -5 -99.5 -34.5t-39.5 -80.5zM459 47v-256q68 5 111.5 36t43.5 87q0 47 -39 77t-116 56z" />
<glyph unicode="&#xf6e4;" horiz-adv-x="808" d="M61 883l66 98q107 -62 233 -86v281l-24 8q-42 13 -73 25.5t-67 33t-59.5 44.5t-39 60t-15.5 78q0 104 76.5 168t201.5 70v111h99v-117q139 -17 260 -78l-60 -98q-98 43 -200 61v-260l18 -6q45 -14 76.5 -26.5t72.5 -35t66.5 -48t43.5 -64t18 -84.5q0 -110 -83.5 -175.5 t-211.5 -68.5v-108h-99v114q-155 21 -299 103zM221 1434q0 -46 34.5 -72t104.5 -49v235q-60 -5 -99.5 -34t-39.5 -80zM459 887q67 3 111 35t44 88q0 47 -39 77t-116 56v-256z" />
<glyph unicode="&#xf6e7;" horiz-adv-x="335" d="M96 -141h144v-166h-144v166z" />
<glyph unicode="&#xf6e8;" horiz-adv-x="335" d="M96 788v166h144v-166h-144z" />
<glyph unicode="&#xf6e9;" horiz-adv-x="765" d="M63 983q0 101 68 156t172 55q26 0 64 -4.5t61 -8.5t66.5 -12.5t46.5 -9.5v64q0 65 -30.5 95t-104.5 30q-73 0 -252 -54l-43 92q189 62 313 62q122 0 184 -53t62 -170v-437h-129v84q-106 -98 -250 -98q-94 0 -161 54t-67 155zM197 991q0 -57 35.5 -84.5t95.5 -27.5 q114 0 213 86v122q-152 27 -191 27q-80 0 -116.5 -33.5t-36.5 -89.5z" />
<glyph unicode="&#xf6ea;" horiz-adv-x="800" d="M106 788v895h130v-331q112 96 235 96q116 0 188 -85.5t72 -252.5q0 -166 -72 -251t-188 -85q-125 0 -235 94v-80h-130zM236 977q94 -98 206 -98q77 0 117.5 60.5t40.5 170.5q0 111 -40.5 171t-117.5 60q-113 0 -206 -96v-268z" />
<glyph unicode="&#xf6eb;" horiz-adv-x="800" d="M72 1110q0 167 72 252.5t188 85.5q127 0 235 -96v331h129v-895h-129v80q-106 -94 -235 -94q-116 0 -188 85t-72 251zM205 1110q0 -110 40 -170.5t117 -60.5q111 0 205 98v268q-93 96 -205 96q-77 0 -117 -60t-40 -171z" />
<glyph unicode="&#xf6ec;" horiz-adv-x="757" d="M70 1110q0 159 88 248.5t235 89.5q142 0 218.5 -78.5t76.5 -204.5q0 -21 -2 -42t-4 -31l-2 -11h-477q7 -98 55.5 -153.5t126.5 -55.5q94 0 252 86l55 -81q-168 -103 -315 -103q-133 0 -220 87t-87 249zM205 1157h356q0 195 -170 195q-81 0 -129 -51.5t-57 -143.5z" />
<glyph unicode="&#xf6ed;" horiz-adv-x="339" d="M100 1550v131h144v-131h-144zM104 788v646h132v-646h-132z" />
<glyph unicode="&#xf6ee;" horiz-adv-x="350" d="M111 788v895h129v-895h-129z" />
<glyph unicode="&#xf6ef;" horiz-adv-x="1206" d="M106 788v646h130v-93q47 42 112.5 74.5t132.5 32.5q140 0 178 -119q46 44 116 81.5t145 37.5q188 0 188 -203v-457h-129v433q0 122 -105 122q-51 0 -105.5 -31t-96.5 -71v-453h-131v433q0 58 -22.5 90t-80.5 32q-53 0 -107 -30.5t-95 -71.5v-453h-130z" />
<glyph unicode="&#xf6f0;" horiz-adv-x="798" d="M72 1110q0 160 84.5 249t242.5 89q157 0 242.5 -89.5t85.5 -248.5q0 -158 -85.5 -247t-242.5 -89q-158 0 -242.5 88.5t-84.5 247.5zM203 1110q0 -233 196 -233q100 0 148.5 61t48.5 172t-48.5 173.5t-148.5 62.5q-196 0 -196 -236z" />
<glyph unicode="&#xf6f1;" horiz-adv-x="526" d="M106 788v646h130v-138q4 11 13 27t30.5 39.5t49 41.5t70.5 29.5t93 8.5v-123q-64 0 -114 -21t-75.5 -50.5t-42 -59.5t-20.5 -51l-4 -21v-328h-130z" />
<glyph unicode="&#xf6f2;" horiz-adv-x="684" d="M59 854l52 88q148 -72 251 -72q57 0 96.5 22t39.5 62q0 15 -5.5 27t-19.5 22t-24.5 17t-34.5 15t-35 11.5t-39.5 11t-36.5 9.5q-47 12 -82 25.5t-72 36t-57 56.5t-20 79q0 85 67 134.5t180 49.5q134 0 279 -68l-53 -82q-127 56 -217 56q-58 0 -93.5 -22.5t-35.5 -61.5 q0 -11 3.5 -21t11.5 -18.5t15.5 -15t21.5 -12.5t23.5 -10t27.5 -8.5t27 -7t28 -6.5t26 -6q119 -29 181.5 -76.5t62.5 -130.5q0 -88 -71 -136t-183 -48q-81 0 -167 24.5t-147 55.5z" />
<glyph unicode="&#xf6f3;" horiz-adv-x="522" d="M47 1335v99h92v161l133 25v-186h185v-99h-185v-383q0 -37 15.5 -51t44.5 -14q44 0 121 31l49 -97q-118 -47 -197 -47q-166 0 -166 182v379h-92z" />
<glyph unicode="&#xf8ff;" horiz-adv-x="1755" d="M146.5 560.5q-2.5 11.5 15.5 21.5l57 41q2 1 3.5 2.5l3 3l2.5 2.5t2 3l1 1q19 16 37 -12l33 -64q6 -12 13 -15.5t13.5 2t10.5 17.5l18 70q6 19 19.5 21t25.5 -13l48 -53q14 -15 23 -11.5t11 23.5l4 70q3 20 15.5 25t27.5 -7l58 -43q17 -12 25.5 -6.5t4.5 25.5l-8 69 q-3 20 8.5 28t28.5 -1l64 -29q19 -9 26.5 -1.5t1.5 26.5l-22 67q-8 19 0.5 29t27.5 4l15 -2q40 -77 70 -202.5t30 -217.5q-15 -18 -34.5 -27.5t-59.5 -9.5h-8q0 46 -33 72q18 -21 18 -55v-15q-32 3 -32 39q0 43 -28 72t-77 29q-41 0 -68.5 -32t-27.5 -79q0 -60 49.5 -96.5 t138.5 -36.5q85 0 172 42t156.5 112t125 154.5t86 175.5t30.5 169q0 59 -36.5 98t-94.5 39q-48 0 -85.5 -33.5t-37.5 -84.5q0 -106 119 -119q-29 -119 -60 -174q-12 96 -43.5 178t-75.5 129q91 -120 107 -330l-29 -41q0 156 -51 287t-131 172q-5 9 2 18.5t22 12.5l70 12 q19 3 21 13.5t-15 21.5l-59 39q-15 13 -13.5 26.5t19.5 20.5l64 29q14 4 19 10.5t0 13.5t-19 12l-64 27q-23 10 -20 29q11 6 14 16l35 62q9 19 20.5 18t16.5 -20l20 -68q6 -21 18.5 -24t26.5 14l47 53q12 15 23 12.5t12 -22.5l4 -72q1 -21 14.5 -26t28.5 8l57 43 q15 12 24 5.5t7 -26.5l-10 -70q-1 -20 10.5 -27.5t28.5 1.5l63 33q19 8 26.5 0t0.5 -29l-23 -64q-6 -20 3 -30t28 -4l70 14q20 6 26.5 -2t-4.5 -27l-37 -59q-12 -17 -5.5 -29.5t26.5 -11.5l72 4q21 0 25 -11t-9 -24l-49 -53q-14 -13 -10.5 -26.5t24.5 -16.5l70 -12 q43 -10 6 -39l-57 -39q-16 -10 -15 -24t21 -21l63 -27q12 -5 16.5 -12t0 -13.5t-16.5 -11.5l-63 -26q-20 -7 -21 -22t15 -25l57 -41q11 -7 14.5 -14.5t-2 -13.5t-18.5 -9l-70 -13q-21 -3 -24.5 -16.5t10.5 -28.5l49 -49q13 -14 9 -24.5t-25 -10.5l-72 5q-20 0 -26.5 -12 t5.5 -29l37 -62q10 -17 4 -25.5t-26 -5.5l-70 19q-18 6 -27.5 -5t-3.5 -30l23 -68q8 -19 0 -26t-27 2l-63 31q-17 9 -28.5 1t-10.5 -30l10 -68q1 -21 -7.5 -25.5t-23.5 7.5l-57 43q-15 12 -28.5 5.5t-14.5 -26.5l-4 -69q-1 -20 -12 -23t-23 11l-47 55q-13 14 -26 12t-19 -22 l-20 -68q-3 -13 -9.5 -18t-14 -1t-13.5 15l-35 61q-9 19 -22 19t-25 -19l-31 -61q-6 -11 -13.5 -15t-14 1t-9.5 18l-20 68q-6 20 -19 22t-26 -12l-47 -55q-12 -14 -22 -11t-13 23l-4 69q-2 20 -15 26.5t-30 -5.5l-54 -43q-17 -13 -26.5 -8t-5.5 26l10 68q1 22 -10.5 30 t-30.5 -1l-62 -31q-19 -9 -26.5 -2t0.5 26l22 68q8 19 -1.5 30t-28.5 5l-70 -19q-20 -3 -26.5 5.5t3.5 25.5l39 62q11 17 4.5 29t-26.5 12l-72 -5q-21 0 -25 10.5t9 24.5l51 49q13 15 9 28.5t-25 16.5l-68 13q-21 4 -23.5 15.5zM623 281q43 -27 122 -27q106 0 212.5 65 t183.5 162t125.5 212t48.5 214q0 63 -41 101q24 -38 24 -84q0 -100 -47.5 -215t-126.5 -215q-85 -105 -188.5 -168.5t-212.5 -63.5q-57 0 -100 19z" />
<glyph unicode="&#xfb06;" horiz-adv-x="1830" d="M92 109l76 124q89 -47 199 -82.5t196 -35.5q94 0 162 41t68 114q0 30 -11.5 55.5t-36.5 45.5t-49 34.5t-63.5 28t-65 21t-68.5 19.5q-6 2 -9 2.5t-8 2t-9 2.5q-59 16 -102 30.5t-95 42t-84 59t-54.5 81t-22.5 109.5q0 137 104 216t273 79q96 0 217 -31q-19 49 -19 111 q0 146 97 230.5t262 84.5q188 0 286.5 -100.5t98.5 -274.5v-43h297v-131h-297v-704q0 -63 26.5 -88t73.5 -25q42 0 105 19t100 36l63 -129q-162 -76 -295 -76q-241 0 -241 271v696h-150v131h150v64q0 262 -236 262q-112 0 -175.5 -64.5t-63.5 -173.5q0 -79 28 -133l96 -41 l-73 -119q-194 91 -346 91q-94 0 -153.5 -40.5t-59.5 -109.5q0 -43 22.5 -75.5t72 -55.5t80 -32.5t92.5 -25.5q5 -1 8 -2t7 -2l8 -2q190 -50 290 -128.5t100 -211.5q0 -98 -55.5 -167t-142 -100.5t-194.5 -31.5q-127 0 -255.5 39.5t-223.5 92.5z" />
<glyph horiz-adv-x="849" d="M82 1153q0 123 88.5 209t235.5 86q86 0 153 -30.5t108.5 -83.5t63 -121.5t21.5 -147.5q0 -218 -136 -362t-352 -144q-32 0 -63.5 3.5t-46.5 7.5l-15 3l35 107q37 -10 88 -10q128 0 221.5 79t122.5 222q-93 -88 -235 -88q-133 0 -211 77t-78 193zM215 1157q0 -70 48 -121 t138 -51q76 0 134 35t81 76q-4 115 -60 178t-148 63t-142.5 -54.5t-50.5 -125.5z" />
<glyph horiz-adv-x="1296" d="M57 1432q0 111 63 171t175 60q111 0 175.5 -60t64.5 -171t-64.5 -170.5t-175.5 -59.5q-112 0 -175 59.5t-63 170.5zM164 1432q0 -72 34 -110t97 -38q65 0 100 38t35 110q0 70 -35 108.5t-100 38.5q-63 0 -97 -38t-34 -109zM350 774l479 875h111l-481 -875h-109zM762 1006 q0 111 63.5 170t175.5 59q109 0 172.5 -59.5t63.5 -169.5q0 -112 -63.5 -172t-172.5 -60q-112 0 -175.5 60t-63.5 172zM866 1006q0 -72 35 -110t100 -38q64 0 99 38.5t35 109.5q0 70 -35 107.5t-99 37.5q-65 0 -100 -37.5t-35 -107.5z" />
<glyph horiz-adv-x="2394" d="M66 944v131h151v127q0 271 283 271q166 0 434 -70q67 90 231 90q158 0 385 -59v59h170v-985l451 567h194l-362 -434l430 -641h-184l-348 520l-181 -217v-303h-170v1292q-9 2 -72 13t-107 19t-101 15t-88 7q-57 0 -94 -27.5t-37 -87.5v-156h288v-131h-288v-944h-168v944 h-500v-944h-166v944h-151zM383 1075h500v148q0 35 2 51q-291 51 -369 51q-58 0 -95.5 -27.5t-37.5 -87.5v-135z" />
<glyph horiz-adv-x="1841" d="M66 944v131h151v127q0 271 283 271q166 0 434 -70q67 90 231 90q158 0 385 -59v59h168v-1493h-168v1292q-9 2 -72 13t-107 19t-101 15t-88 7q-57 0 -94 -27.5t-37 -87.5v-156h288v-131h-288v-944h-168v944h-500v-944h-166v944h-151zM383 1075h500v148q0 35 2 51 q-291 51 -369 51q-58 0 -95.5 -27.5t-37.5 -87.5v-135z" />
<glyph horiz-adv-x="2060" d="M66 944v131h151v127q0 271 283 271q174 0 424 -68q57 88 198 88q70 0 163 -24t155 -48l-62 -125q-46 15 -119 32.5t-108 17.5q-48 0 -74 -25.5t-26 -89.5v-156h469v271l166 40v-311h296v-131h-296v-704q0 -63 27 -88t75 -25q40 0 102 18.5t103 36.5l63 -129 q-56 -26 -139 -51t-158 -25q-239 0 -239 271v696h-469v-944h-170v944h-498v-944h-166v944h-151zM383 1075h498v148q0 35 2 51q-299 51 -367 51q-58 0 -95.5 -27.5t-37.5 -87.5v-135z" />
<glyph horiz-adv-x="1931" d="M66 944v131h151v148q0 270 283 270q158 0 385 -59v59h168v-567q239 172 444 172q84 0 144.5 -26t94 -73t49 -104.5t15.5 -128.5v-766h-170v735q0 50 -8.5 88t-28 70t-57 48.5t-90.5 16.5q-97 0 -209 -56t-184 -118v-784h-168v1292q-8 1 -72 13t-108 19t-101 14.5t-88 7.5 q-58 0 -95.5 -27.5t-37.5 -87.5v-156h291v-131h-291v-944h-166v944h-151z" />
<glyph horiz-adv-x="1800" d="M66 944v131h151v127q0 271 283 271q172 0 434 -70q70 90 235 90q96 0 221.5 -24t204.5 -48l-65 -125q-39 9 -162.5 29.5t-181.5 20.5t-96.5 -27.5t-38.5 -87.5v-156h614v-1075h-170v944h-444v-944h-168v944h-500v-944h-166v944h-151zM383 1075h500v148q0 35 2 51 q-291 51 -369 51q-58 0 -95.5 -27.5t-37.5 -87.5v-135z" />
<glyph horiz-adv-x="1161" d="M66 944v131h151v148q0 270 287 270q96 0 221.5 -24t204.5 -48l-66 -125q-5 1 -50 9.5t-75 13.5l-75 12.5t-81.5 11t-62.5 3.5q-59 0 -98 -27.5t-39 -87.5v-156h616v-1075h-170v944h-446v-944h-166v944h-151z" />
<glyph horiz-adv-x="1161" d="M66 944v131h151v148q0 270 287 270q96 0 221.5 -24t204.5 -48l-66 -125q-5 1 -50 9.5t-75 13.5l-75 12.5t-81.5 11t-62.5 3.5q-59 0 -98 -27.5t-39 -87.5v-156h616v-1116q0 -71 -1.5 -102.5t-11.5 -78t-31 -68.5t-60.5 -51.5t-99 -50.5t-148.5 -44l-59 129q48 16 80 26.5 t59.5 24.5t43 22t28.5 25.5t18 27.5t8.5 36t3.5 42v54v993h-446v-944h-166v944h-151z" />
<glyph horiz-adv-x="1769" d="M66 944v131h151v148q0 270 283 270q158 0 385 -59v59h170v-985l450 567h195l-363 -434l430 -641h-184l-348 520l-180 -217v-303h-170v1292q-8 1 -72 13t-108 19t-101 14.5t-88 7.5q-58 0 -95.5 -27.5t-37.5 -87.5v-156h291v-131h-291v-944h-166v944h-151z" />
<glyph horiz-adv-x="2572" d="M66 944v131h151v127q0 271 283 271q166 0 434 -70q67 90 231 90q158 0 385 -59v59h168v-567q54 39 112.5 72.5t153.5 66.5t179 33t145 -26t94.5 -73t48.5 -104.5t15 -128.5v-766h-170v735q0 50 -8.5 88t-28.5 69.5t-57.5 48.5t-90.5 17q-97 0 -209 -56t-184 -118v-784 h-168v1292q-9 2 -72 13t-107 19t-101 15t-88 7q-57 0 -94 -27.5t-37 -87.5v-156h288v-131h-288v-944h-168v944h-500v-944h-166v944h-151zM383 1075h500v148q0 35 2 51q-291 51 -369 51q-58 0 -95.5 -27.5t-37.5 -87.5v-135z" />
<glyph horiz-adv-x="1202" d="M66 944v131h151v148q0 270 283 270q158 0 385 -59v59h168v-1493h-168v1292q-8 1 -72 13t-108 19t-101 14.5t-88 7.5q-58 0 -95.5 -27.5t-37.5 -87.5v-156h291v-131h-291v-944h-166v944h-151z" />
<glyph horiz-adv-x="1419" d="M66 944v131h151v148q0 147 63 208.5t177 61.5q70 0 164 -24t153 -48l-61 -125q-46 15 -119 32.5t-109 17.5q-48 0 -75 -25.5t-27 -89.5v-156h469v271l170 40v-311h297v-131h-297v-704q0 -113 100 -113q40 0 102 18.5t103 36.5l64 -129q-56 -26 -138.5 -51t-156.5 -25 q-244 0 -244 271v696h-469v-944h-166v944h-151z" />
<glyph horiz-adv-x="483" d="M47 240v98h92v70q0 180 166 180q50 0 110.5 -15t98.5 -30l-47 -92q-117 28 -137 28q-28 0 -44 -14.5t-16 -52.5v-74h179v-98h-179v-547h-131v547h-92z" />
<glyph horiz-adv-x="1280" d="M166 438v738h166v-746q0 -54 7.5 -96.5t28 -83t54.5 -67t89.5 -42.5t129.5 -16q91 0 153 23t94.5 67t46 95.5t13.5 119.5v746h166v-738q0 -101 -23 -180t-75 -143t-147 -98.5t-228 -34.5q-91 0 -164 15.5t-124.5 46t-88 70.5t-58 92.5t-31 108.5t-9.5 123zM479 1278 l250 266h234l-342 -266h-142z" />
<glyph horiz-adv-x="806" d="M80 80l61 100q34 -26 99.5 -52t132.5 -26q86 0 145.5 47t59.5 123q0 73 -52.5 121.5t-146.5 48.5q-87 0 -186 -51l-76 41l49 428h514v-112h-404l-18 -226q74 29 150 29q143 0 227 -80.5t84 -196.5q0 -119 -86.5 -203.5t-243.5 -84.5q-152 0 -309 94z" />
<glyph horiz-adv-x="806" d="M80 653l61 101q34 -26 99.5 -52t132.5 -26q86 0 145.5 47t59.5 123q0 73 -52.5 121.5t-146.5 48.5q-87 0 -186 -51l-76 41l49 428h514v-113h-404l-18 -225q72 28 150 28q144 0 227.5 -80t83.5 -196q0 -119 -86.5 -204t-243.5 -85q-152 0 -309 94z" />
<glyph horiz-adv-x="1165" d="M86 -135l82 133q23 -15 54 -32.5t81.5 -40.5t111.5 -37.5t117 -14.5q145 0 248 89t103 231q0 132 -90 221.5t-246 89.5q-148 0 -305 -90l-95 55l78 707h781v-152h-639l-37 -426q113 55 252 55q147 0 258 -63.5t167 -167.5t56 -229q0 -73 -20 -142t-62 -129.5 t-101.5 -105.5t-143.5 -71t-183 -26q-225 0 -467 146z" />
<glyph horiz-adv-x="2568" d="M66 944v131h151v127q0 271 283 271q166 0 434 -70q67 90 231 90q158 0 385 -59v59h168v-557q183 162 379 162q87 0 160.5 -32.5t130.5 -98.5t89 -175.5t32 -254.5q0 -144 -32 -253.5t-89 -175.5t-130.5 -98.5t-160.5 -32.5q-203 0 -379 160v-137h-168v1292q-9 2 -72 13 t-107 19t-101 15t-88 7q-57 0 -94 -27.5t-37 -87.5v-156h288v-131h-288v-944h-168v944h-500v-944h-166v944h-151zM383 1075h500v148q0 35 2 51q-291 51 -369 51q-58 0 -95.5 -27.5t-37.5 -87.5v-135zM1718 289q69 -76 160 -123t188 -47q130 0 199.5 110t69.5 308 q0 199 -69 309t-200 110q-96 0 -187.5 -48t-160.5 -124v-495z" />
<glyph horiz-adv-x="1683" d="M98 537l52 81q32 -21 88.5 -43t113.5 -22q74 0 127 39t53 102q0 60 -46.5 98.5t-129.5 38.5q-74 0 -161 -40l-64 34l43 351h442v-95h-352l-16 -182q66 25 133 25q124 0 196 -67t72 -163q0 -98 -74.5 -166.5t-209.5 -68.5q-125 0 -267 78zM467 0l594 1176h121l-596 -1176 h-119zM985 184q0 126 186 197q-62 29 -99.5 68t-37.5 96q0 78 69.5 125t182.5 47q114 0 183 -47.5t69 -124.5q0 -102 -137 -164q186 -72 186 -197q0 -91 -83.5 -143.5t-217.5 -52.5q-133 0 -217 52.5t-84 143.5zM1104 190q0 -52 52 -83t130 -31t130 31t52 83q0 29 -15.5 53 t-44.5 42t-57 30t-67 25q-52 -18 -88 -36t-64 -48t-28 -66zM1145 532q0 -72 139 -114q38 12 64.5 23t51.5 35.5t25 55.5q0 41 -39 71t-100 30q-62 0 -101.5 -30.5t-39.5 -70.5z" />
<glyph horiz-adv-x="1638" d="M98 537l52 81q32 -21 88.5 -43t113.5 -22q74 0 127 39t53 102q0 60 -46.5 98.5t-129.5 38.5q-74 0 -161 -40l-64 34l43 351h442v-95h-352l-16 -182q66 25 133 25q124 0 196 -67t72 -163q0 -98 -74.5 -166.5t-209.5 -68.5q-125 0 -267 78zM467 0l594 1176h121l-596 -1176 h-119zM954 301q0 179 119 297.5t303 118.5q28 0 55 -3t41 -6l13 -3l-25 -87q-39 9 -82 9q-115 0 -195.5 -65t-103.5 -183q77 72 205 72q115 0 183.5 -63.5t68.5 -158.5q0 -101 -76.5 -171t-204.5 -70q-146 0 -223.5 89t-77.5 224zM1071 279q1 -94 50 -146.5t132 -52.5 q81 0 125.5 44t44.5 103q0 57 -42.5 98.5t-123.5 41.5q-65 0 -113.5 -27.5t-72.5 -60.5z" />
<glyph horiz-adv-x="1368" d="M66 944v131h151v127q0 271 283 271q94 0 216 -22t210 -46q57 88 196 88q70 0 164.5 -24t153.5 -48l-62 -125q-47 15 -119 32.5t-108 17.5q-48 0 -74 -25.5t-26 -89.5v-156h288v-131h-288v-944h-168v944h-500v-944h-166v944h-151zM383 1075h500v148q0 35 2 51 q-291 51 -369 51q-58 0 -95.5 -27.5t-37.5 -87.5v-135z" />
<glyph horiz-adv-x="1280" d="M166 438v738h166v-746q0 -54 7.5 -96.5t28 -83t54.5 -67t89.5 -42.5t129.5 -16q91 0 153 23t94.5 67t46 95.5t13.5 119.5v746h166v-738q0 -101 -23 -180t-75 -143t-147 -98.5t-228 -34.5q-91 0 -164 15.5t-124.5 46t-88 70.5t-58 92.5t-31 108.5t-9.5 123z" />
<glyph horiz-adv-x="757" d="M33 1534v115h694v-115h-281v-746h-135v746h-278z" />
<glyph horiz-adv-x="876" d="M63 182v97l426 581h179v-567h139v-111h-139v-182h-136v182h-469zM205 293h327v455z" />
<glyph horiz-adv-x="876" d="M63 756v96l426 582h179v-568h139v-110h-139v-183h-136v183h-469zM205 866h327v455z" />
<glyph horiz-adv-x="1269" d="M61 59v131l691 986h229v-967h219v-150h-219v-317h-178v317h-742zM248 209h555v805z" />
<glyph horiz-adv-x="1447" d="M66 944v131h151v148q0 147 63 208.5t177 61.5q70 0 164 -24t153 -48l-61 -125q-46 15 -119 32.5t-109 17.5q-48 0 -75 -25.5t-27 -89.5v-156h281v-131h-281v-944h-166v944h-151zM786 944v131h152v148q0 270 233 270q99 0 261 -55l-52 -127q-123 35 -174 35 q-48 0 -75 -25.5t-27 -89.5v-156h291v-131h-291v-944h-166v944h-152z" />
<glyph horiz-adv-x="1763" d="M76 618v80l373 478h149v-465h119v-93h-119v-147h-113v147h-409zM199 711h286v374zM553 0l592 1176h123l-594 -1176h-121zM1102 66l51 81q18 -12 43.5 -24t71 -25.5t86.5 -13.5q75 0 128.5 38.5t53.5 102.5q0 58 -46.5 97.5t-129.5 39.5q-80 0 -164 -43l-61 35l41 351h444 v-93h-352l-19 -184q66 25 133 25q125 0 198 -66.5t73 -161.5q0 -99 -75 -168t-210 -69q-124 0 -266 78z" />
<glyph horiz-adv-x="1927" d="M66 944v131h151v148q0 270 283 270q158 0 385 -59v59h168v-557q183 162 379 162q87 0 160 -32.5t130 -98.5t89 -175.5t32 -254.5q0 -281 -114.5 -420.5t-296.5 -139.5q-203 0 -379 160v-137h-168v1292q-8 1 -72 13t-108 19t-101 14.5t-88 7.5q-58 0 -95.5 -27.5 t-37.5 -87.5v-156h291v-131h-291v-944h-166v944h-151zM1053 289q69 -76 160 -123t188 -47q130 0 199 110t69 308q0 199 -69 309t-199 110q-96 0 -187.5 -48t-160.5 -124v-495z" />
<glyph horiz-adv-x="727" d="M66 944v131h151v148q0 270 234 270q98 0 260 -55l-52 -127q-123 35 -174 35q-48 0 -75 -25.5t-27 -89.5v-156h291v-131h-291v-944h-166v944h-151z" />
<glyph horiz-adv-x="1214" d="M109 266v115h120v1053h910v-154h-731v-487h583v-152h-583v-260h366v-115h-366v-266h-179v266h-120z" />
<glyph horiz-adv-x="1091" d="M104 211v102h107v863h801v-142h-635v-377h506v-139h-506v-205h321v-102h-321v-211h-166v211h-107z" />
<glyph horiz-adv-x="792" d="M72 -78h80v631h589v-115h-454v-260h362v-110h-362v-146h231v-78h-231v-151h-135v151h-80v78z" />
<glyph horiz-adv-x="792" d="M72 940v78h78v631h589v-115h-454v-260h362v-111h-362v-145h233v-78h-233v-152h-135v152h-78z" />
<glyph horiz-adv-x="483" d="M47 1335v99h92v69q0 180 166 180q50 0 110.5 -15t98.5 -30l-47 -92q-5 1 -26.5 7t-39 10t-38.5 8t-33 4q-60 0 -60 -68v-73h179v-99h-179v-547h-131v547h-92z" />
<glyph horiz-adv-x="757" d="M33 438v115h694v-115h-281v-745h-135v745h-278z" />
<glyph horiz-adv-x="1198" d="M178 0v1176h166v-207h289q106 0 189 -19.5t146.5 -61.5t97.5 -112.5t34 -167.5t-34 -168.5t-97.5 -113.5t-146.5 -62t-189 -20h-289v-244h-166zM344 383h274q312 0 312 225q0 120 -82 170.5t-230 50.5h-274v-446z" />
<glyph horiz-adv-x="1046" d="M49 1032v144h946v-144h-387v-1032h-37q78 -91 78 -182q0 -80 -57 -125t-150 -45q-84 0 -161 39l43 102q62 -29 104 -29q53 0 84 23t31 72q0 65 -60 145h-43v1032h-391z" />
<glyph horiz-adv-x="1046" d="M49 1032v144h946v-144h-387v-1032h-168v1032h-391zM221 1544h127l174 -176l174 176h127l-205 -266h-194z" />
<glyph horiz-adv-x="1064" d="M57 1032v144h947v-144h-388v-549h191v-104h-191v-379h-167v379h-193v104h193v549h-392z" />
<glyph horiz-adv-x="856" d="M106 283q0 154 78.5 231.5t225.5 77.5q138 0 218.5 -61t80.5 -156q0 -33 -10.5 -60.5t-20.5 -38.5l-10 -12q-127 -38 -127 -100q0 -14 5.5 -26t20 -24.5t26 -21t38.5 -25.5t43 -28q64 -43 95.5 -81.5t31.5 -98.5q0 -82 -60.5 -131.5t-154.5 -49.5q-65 0 -136 21.5 t-124 50.5l47 86q116 -57 198 -57q42 0 70.5 21t28.5 59q0 30 -21.5 53t-73.5 51q-1 0 -23 12.5t-27 15.5t-24.5 16t-26.5 20.5t-21 23t-19.5 28.5t-10.5 32t-5 39q0 40 15.5 72t45 53.5t49 31.5t50.5 23q6 15 6 37q0 56 -44.5 89t-123.5 33q-85 0 -132.5 -48.5 t-47.5 -164.5v-583h-130v590z" />
<glyph horiz-adv-x="856" d="M106 788v590q0 155 78.5 232.5t225.5 77.5q138 0 218.5 -61.5t80.5 -156.5q0 -33 -10.5 -60.5t-20.5 -38.5l-10 -11q-127 -38 -127 -100q0 -14 5.5 -26t20 -24.5t26 -21t38.5 -25.5t43 -28q42 -28 65.5 -49t42.5 -55.5t19 -76.5q0 -82 -60.5 -131t-154.5 -49 q-65 0 -136 21.5t-124 50.5l47 86q118 -58 198 -58q42 0 70.5 21t28.5 59q0 30 -21.5 53.5t-73.5 51.5q-3 2 -23 13t-27 15t-25 16t-26 20t-21.5 22.5t-19 28.5t-10.5 32.5t-5 38.5q0 40 15.5 72t45 53.5t49 31.5t50.5 23q6 15 6 37q0 56 -44.5 89.5t-123.5 33.5 q-85 0 -132.5 -48.5t-47.5 -164.5v-584h-130z" />
<glyph horiz-adv-x="800" d="M72 14q0 167 72 252.5t188 85.5q127 0 235 -96v82h129v-670q0 -125 -69.5 -181t-198.5 -56q-161 0 -326 47q15 59 29 102q180 -49 275 -49q84 0 122.5 31t38.5 100v111q-107 -95 -235 -95q-116 0 -188 85t-72 251zM205 14q0 -110 40 -170.5t117 -60.5q111 0 205 98v269 q-93 96 -205 96q-77 0 -117 -60.5t-40 -171.5z" />
<glyph horiz-adv-x="1046" d="M49 1032v144h946v-144h-387v-1032h-168v1032h-391z" />
<glyph horiz-adv-x="804" d="M59 883l66 98q67 -37 154.5 -65.5t156.5 -28.5q74 0 125 31.5t51 91.5q0 16 -4 29.5t-14.5 25.5t-20.5 21.5t-29 19.5t-33.5 17t-40 16t-42 14.5t-47 15t-47.5 15.5q-42 13 -73 25.5t-67 33t-59.5 44.5t-39 60t-15.5 78q0 109 83.5 173.5t215.5 64.5q84 0 177 -24.5 t161 -59.5l-60 -98q-63 28 -139 48.5t-133 20.5q-69 0 -117.5 -29t-48.5 -87q0 -19 6 -35t21 -28.5t29 -22t41 -20t46 -16.5t55 -17.5t58 -18.5q45 -14 76.5 -26.5t72.5 -35t66.5 -48t43.5 -64t18 -84.5q0 -113 -89 -178.5t-223 -65.5q-99 0 -200.5 32.5t-180.5 76.5z" />
<glyph horiz-adv-x="1280" d="M166 438v738h166v-746q0 -54 7.5 -96.5t28 -83t54.5 -67t89.5 -42.5t129.5 -16q91 0 153 23t94.5 67t46 95.5t13.5 119.5v746h166v-738q0 -101 -23 -180t-75 -143t-147 -98.5t-228 -34.5q-91 0 -164 15.5t-124.5 46t-88 70.5t-58 92.5t-31 108.5t-9.5 123zM346 1497h121 q0 -108 170 -108q172 0 172 108h123q0 -102 -78 -160.5t-217 -58.5q-137 0 -214 58.5t-77 160.5z" />
<glyph horiz-adv-x="800" d="M72 1110q0 167 72 252.5t188 85.5q127 0 235 -96v82h129v-670q0 -238 -268 -238q-161 0 -326 47q16 64 29 103q180 -49 275 -49q84 0 122.5 31t38.5 100v110q-106 -94 -235 -94q-116 0 -188 85t-72 251zM205 1110q0 -110 40 -170.5t117 -60.5q111 0 205 98v268 q-93 96 -205 96q-77 0 -117 -60t-40 -171z" />
<glyph horiz-adv-x="804" d="M59 -213l66 98q67 -37 154.5 -65.5t156.5 -28.5q74 0 125 31.5t51 91.5q0 16 -4 29.5t-14.5 25.5t-20.5 21.5t-29 19.5t-33.5 17t-40 16t-42 14.5t-47 15t-47.5 15.5q-53 16 -91.5 33.5t-79 45.5t-62 69.5t-21.5 93.5q0 109 83 173t216 64q84 0 177 -24.5t161 -59.5 l-60 -98q-64 29 -140 49.5t-132 20.5q-69 0 -117.5 -29.5t-48.5 -87.5q0 -19 6 -35t21 -28.5t29 -22t41 -20t46 -16.5t55 -17.5t58 -18.5q45 -14 76.5 -26.5t72.5 -35t66.5 -48t43.5 -64t18 -84.5q0 -113 -89 -178.5t-223 -65.5q-99 0 -200.5 32.5t-180.5 76.5z" />
<glyph horiz-adv-x="1110" d="M92 127l78 123q92 -52 212.5 -90.5t219.5 -38.5q105 0 180.5 46t75.5 132q0 31 -11 56.5t-36 47t-50 37.5t-69.5 33.5t-77 28.5t-89.5 29q-33 10 -50 16q-43 14 -73.5 25t-70.5 28.5t-67.5 35t-56.5 43t-46 53.5t-28.5 65t-11.5 80q0 146 113.5 231.5t289.5 85.5 q111 0 235.5 -33t223.5 -80l-80 -123q-86 40 -190 67.5t-187 27.5q-99 0 -166 -42t-67 -126q0 -24 8 -45t20 -36.5t33.5 -30t41.5 -24.5t53 -22t58 -19.5t65 -20t67 -21.5q44 -14 76 -25.5t75.5 -30.5t74.5 -38t63.5 -47t53 -59t33.5 -72t13 -87q0 -102 -59.5 -177 t-155 -111.5t-213.5 -36.5q-130 0 -267.5 43.5t-240.5 101.5zM477 -504l88 176h-76v199h164l19 -207l-146 -221z" />
<glyph horiz-adv-x="364" d="M102 1649h160l-39 -596h-80zM113 788v156h143v-156h-143z" />
<glyph horiz-adv-x="364" d="M102 553h160l-39 -596h-80zM113 -152h143v-155h-143v155z" />
<glyph horiz-adv-x="1110" d="M92 127l78 123q92 -52 212.5 -90.5t219.5 -38.5q105 0 180.5 46t75.5 132q0 31 -11 56.5t-36 47t-50 37.5t-69.5 33.5t-77 28.5t-89.5 29q-33 10 -50 16q-43 14 -73.5 25t-70.5 28.5t-67.5 35t-56.5 43t-46 53.5t-28.5 65t-11.5 80q0 146 113.5 231.5t289.5 85.5 q111 0 235.5 -33t223.5 -80l-80 -123q-86 40 -190 67.5t-187 27.5q-99 0 -166 -42t-67 -126q0 -24 8 -45t20 -36.5t33.5 -30t41.5 -24.5t53 -22t58 -19.5t65 -20t67 -21.5q44 -14 76 -25.5t75.5 -30.5t74.5 -38t63.5 -47t53 -59t33.5 -72t13 -87q0 -102 -59.5 -177 t-155 -111.5t-213.5 -36.5q-130 0 -267.5 43.5t-240.5 101.5zM260 1278l203 266h194l205 -266h-127l-174 174l-174 -174h-127z" />
<glyph horiz-adv-x="1110" d="M92 127l78 123q92 -52 212.5 -90.5t219.5 -38.5q105 0 180.5 46t75.5 132q0 31 -11 56.5t-36 47t-50 37.5t-69.5 33.5t-77 28.5t-89.5 29q-33 10 -50 16q-43 14 -73.5 25t-70.5 28.5t-67.5 35t-56.5 43t-46 53.5t-28.5 65t-11.5 80q0 146 113.5 231.5t289.5 85.5 q111 0 235.5 -33t223.5 -80l-80 -123q-86 40 -190 67.5t-187 27.5q-99 0 -166 -42t-67 -126q0 -24 8 -45t20 -36.5t33.5 -30t41.5 -24.5t53 -22t58 -19.5t65 -20t67 -21.5q44 -14 76 -25.5t75.5 -30.5t74.5 -38t63.5 -47t53 -59t33.5 -72t13 -87q0 -142 -107 -226t-272 -97 q66 -82 66 -166q0 -80 -57 -125t-150 -45q-85 0 -162 39l43 102q62 -29 105 -29q114 0 114 95q0 53 -47 129q-122 5 -247.5 47t-221.5 96z" />
<glyph horiz-adv-x="804" d="M106 -307v895h130v-338q139 102 276 102q193 0 193 -202v-457h-130v432q0 58 -24 90.5t-84 32.5q-59 0 -125 -30.5t-106 -65.5v-459h-130z" />
<glyph horiz-adv-x="1110" d="M92 127l78 123q92 -52 212.5 -90.5t219.5 -38.5q105 0 180.5 46t75.5 132q0 31 -11 56.5t-36 47t-50 37.5t-69.5 33.5t-77 28.5t-89.5 29q-33 10 -50 16q-43 14 -73.5 25t-70.5 28.5t-67.5 35t-56.5 43t-46 53.5t-28.5 65t-11.5 80q0 146 113.5 231.5t289.5 85.5 q111 0 235.5 -33t223.5 -80l-80 -123q-86 40 -190 67.5t-187 27.5q-99 0 -166 -42t-67 -126q0 -24 8 -45t20 -36.5t33.5 -30t41.5 -24.5t53 -22t58 -19.5t65 -20t67 -21.5q44 -14 76 -25.5t75.5 -30.5t74.5 -38t63.5 -47t53 -59t33.5 -72t13 -87q0 -102 -59.5 -177 t-155 -111.5t-213.5 -36.5q-130 0 -267.5 43.5t-240.5 101.5zM258 1544h127l174 -176l174 176h127l-205 -266h-194z" />
<glyph horiz-adv-x="364" d="M102 788l39 596h80l41 -596h-160zM109 1493v156h143v-156h-143z" />
<glyph horiz-adv-x="1110" d="M92 127l78 123q92 -52 212.5 -90.5t219.5 -38.5q105 0 180.5 46t75.5 132q0 31 -11 56.5t-36 47t-50 37.5t-69.5 33.5t-77 28.5t-89.5 29q-33 10 -50 16q-43 14 -73.5 25t-70.5 28.5t-67.5 35t-56.5 43t-46 53.5t-28.5 65t-11.5 80q0 146 113.5 231.5t289.5 85.5 q111 0 235.5 -33t223.5 -80l-80 -123q-86 40 -190 67.5t-187 27.5q-99 0 -166 -42t-67 -126q0 -24 8 -45t20 -36.5t33.5 -30t41.5 -24.5t53 -22t58 -19.5t65 -20t67 -21.5q44 -14 76 -25.5t75.5 -30.5t74.5 -38t63.5 -47t53 -59t33.5 -72t13 -87q0 -102 -59.5 -177 t-155 -111.5t-213.5 -36.5q-130 0 -267.5 43.5t-240.5 101.5zM401 1278l250 266h234l-342 -266h-142z" />
<glyph horiz-adv-x="1110" d="M92 127l78 123q92 -52 212.5 -90.5t219.5 -38.5q105 0 180.5 46t75.5 132q0 31 -11 56.5t-36 47t-50 37.5t-69.5 33.5t-77 28.5t-89.5 29q-33 10 -50 16q-43 14 -73.5 25t-70.5 28.5t-67.5 35t-56.5 43t-46 53.5t-28.5 65t-11.5 80q0 146 113.5 231.5t289.5 85.5 q111 0 235.5 -33t223.5 -80l-80 -123q-86 40 -190 67.5t-187 27.5q-99 0 -166 -42t-67 -126q0 -24 8 -45t20 -36.5t33.5 -30t41.5 -24.5t53 -22t58 -19.5t65 -20t67 -21.5q44 -14 76 -25.5t75.5 -30.5t74.5 -38t63.5 -47t53 -59t33.5 -72t13 -87q0 -102 -59.5 -177 t-155 -111.5t-213.5 -36.5q-130 0 -267.5 43.5t-240.5 101.5z" />
<glyph horiz-adv-x="903" d="M123 788v861h364q344 0 344 -254q0 -208 -237 -246l240 -361h-148l-229 355h-201v-355h-133zM256 1249h225q213 0 213 146q0 147 -209 147h-229v-293z" />
<glyph horiz-adv-x="903" d="M123 -307v860h364q344 0 344 -254q0 -208 -237 -246l240 -360h-148l-229 354h-201v-354h-133zM256 154h225q213 0 213 145q0 147 -209 147h-229v-292z" />
<glyph horiz-adv-x="1251" d="M178 0v1176h492q221 0 346 -83t125 -262q0 -286 -334 -331l336 -500h-185l-319 492h-295v-492h-166zM344 625h320q305 0 305 206q0 209 -299 209h-326v-415zM522 -504l88 176h-75v199h163l19 -207l-146 -221z" />
<glyph horiz-adv-x="1251" d="M178 0v1176h492q221 0 346 -83t125 -262q0 -286 -334 -331l336 -500h-185l-319 492h-295v-492h-166zM344 625h320q305 0 305 206q0 209 -299 209h-326v-415zM358 1544h127l174 -176l175 176h127l-205 -266h-195z" />
<glyph horiz-adv-x="1251" d="M178 0v1176h492q221 0 346 -83t125 -262q0 -286 -334 -331l336 -500h-185l-319 492h-295v-492h-166zM344 625h320q305 0 305 206q0 209 -299 209h-326v-415zM498 1278l250 266h233l-342 -266h-141z" />
<glyph horiz-adv-x="339" d="M100 455v131h144v-131h-144zM104 -307v645h132v-645h-132z" />
<glyph horiz-adv-x="1251" d="M178 0v1176h492q221 0 346 -83t125 -262q0 -286 -334 -331l336 -500h-185l-319 492h-295v-492h-166zM344 625h320q305 0 305 206q0 209 -299 209h-326v-415z" />
<glyph horiz-adv-x="976" d="M82 1219q0 96 22.5 174t69 140t126.5 96t187 34t187.5 -34.5t127.5 -96t70 -140t23 -173.5q0 -157 -63 -270t-195 -154l145 -111l-90 -92l-205 182q-107 0 -187 34.5t-126.5 97t-69 140.5t-22.5 173zM219 1219q0 -150 63 -239t205 -89t206.5 89t64.5 239t-64.5 238.5 t-206.5 88.5t-205 -88.5t-63 -238.5z" />
<glyph horiz-adv-x="364" d="M104 -307l39 596h80l41 -596h-160zM111 397v156h143v-156h-143z" />
<glyph horiz-adv-x="520" d="M164 0l47 819h98l47 -819h-192zM170 969v207h182v-207h-182z" />
<glyph horiz-adv-x="976" d="M82 123q0 96 22.5 174t69 140t126.5 96t187 34t187.5 -34.5t127.5 -96t70 -140t23 -173.5q0 -157 -63 -270t-195 -154l145 -111l-90 -92l-205 182q-107 0 -187 34.5t-126.5 97t-69 140.5t-22.5 173zM219 123q0 -150 63 -239t205 -89t206.5 89t64.5 239t-64.5 239 t-206.5 89t-205 -89t-63 -239z" />
<glyph horiz-adv-x="1280" d="M166 438v738h166v-746q0 -54 7.5 -96.5t28 -83t54.5 -67t89.5 -42.5t129.5 -16q91 0 153 23t94.5 67t46 95.5t13.5 119.5v746h166v-738q0 -101 -23 -180t-75 -143t-147 -98.5t-228 -34.5q-91 0 -164 15.5t-124.5 46t-88 70.5t-58 92.5t-31 108.5t-9.5 123zM340 1278 l203 266h194l205 -266h-127l-174 174l-174 -174h-127z" />
<glyph horiz-adv-x="1343" d="M117 588q0 103 18.5 192t61 166t106 131.5t157.5 85.5t212 31q145 0 254 -47t173 -131t95 -191t31 -237q0 -142 -36.5 -257t-120.5 -203t-210 -124l205 -154l-115 -114l-278 246q-146 1 -255 48.5t-172.5 131.5t-94.5 190.5t-31 235.5zM289 588q0 -101 20 -182 t63.5 -145.5t119.5 -100t180 -35.5t180 35.5t119 100t62.5 145.5t19.5 182q0 80 -12 147t-40 126.5t-71 100t-108.5 64t-149.5 23.5q-104 0 -180 -35t-119.5 -99.5t-63.5 -145t-20 -181.5z" />
<glyph horiz-adv-x="851" d="M123 788v861h338q162 0 252 -65.5t90 -203.5q0 -268 -342 -268h-203v-324h-135zM258 1223h199q209 0 209 157q0 156 -209 156h-199v-313z" />
<glyph horiz-adv-x="851" d="M123 -307v860h338q162 0 252 -65t90 -203q0 -269 -342 -269h-203v-323h-135zM258 127h199q209 0 209 158q0 155 -209 155h-199v-313z" />
<glyph horiz-adv-x="344" d="M-41 -479q30 9 50 15.5t37.5 15t27.5 13.5t18 15t11 16t5.5 21t2.5 25v32v664h129v-655v-41t-1.5 -35.5t-5 -32.5t-9 -27t-14.5 -25.5t-22 -21.5t-30.5 -20.5t-40.5 -17.5t-52 -18t-65 -17zM102 455v131h144v-131h-144z" />
<glyph horiz-adv-x="520" d="M164 1176h192l-47 -820h-98zM168 0v207h182v-207h-182z" />
<glyph horiz-adv-x="1175" d="M178 0v1176h455q218 0 342.5 -88t124.5 -277q0 -97 -34 -167.5t-97.5 -112.5t-146.5 -62t-189 -20h-289v-449h-166zM344 588h289q297 0 297 223t-297 223h-289v-446z" />
<glyph horiz-adv-x="1341" d="M117 588q0 103 18.5 192t61 166t106 131.5t157.5 85.5t212 31q145 0 254 -47t173 -131t95 -191t31 -237q0 -129 -31 -235.5t-95 -191t-173 -132t-254 -47.5q-118 0 -212 31.5t-157.5 86t-106 132t-61 166t-18.5 190.5zM289 588q0 -101 20 -182t63.5 -145.5t119.5 -100 t180 -35.5t180 35.5t119 100t62.5 145.5t19.5 182q0 80 -12 147t-40 126.5t-71 100t-108.5 64t-149.5 23.5q-104 0 -180 -35t-119.5 -99.5t-63.5 -145t-20 -181.5zM348 1339q44 86 85.5 129t105.5 43q44 0 94.5 -25t93.5 -50t70 -25q26 0 48.5 18.5t53.5 75.5l92 -39 q-41 -86 -83 -130t-107 -44q-34 0 -73.5 16t-69 34.5t-61.5 34.5t-54 16q-26 0 -49 -19t-54 -76z" />
<glyph horiz-adv-x="976" d="M82 1219q0 96 22.5 174t69 140t126.5 96t187 34t187.5 -34.5t127.5 -96t70 -140t23 -173.5t-23 -173t-70 -140.5t-127.5 -97t-187.5 -34.5t-187 34.5t-126.5 97t-69 140.5t-22.5 173zM219 1219q0 -150 63 -239t205 -89q143 0 207 89t64 239t-64 238.5t-207 88.5 q-142 0 -205 -88.5t-63 -238.5z" />
<glyph horiz-adv-x="712" d="M106 -307v895h130v-572l266 322h149l-229 -258l268 -387h-139l-209 299l-106 -121v-178h-130z" />
<glyph horiz-adv-x="712" d="M106 788v895h130v-571l266 322h149l-229 -258l268 -388h-139l-209 297l-106 -118v-179h-130z" />
<glyph horiz-adv-x="1337" d="M117 588q0 103 18.5 192t61 166t106 131.5t157.5 85.5t212 31q208 0 340 -96l61 78h129l-117 -146q140 -162 140 -442q0 -129 -31 -235.5t-95 -191t-173 -132t-254 -47.5q-210 0 -342 96l-62 -78h-131l117 147q-137 158 -137 441zM289 588q0 -194 69 -309l555 696 q-93 74 -241 74q-104 0 -180 -35t-119.5 -99.5t-63.5 -145t-20 -181.5zM428 201q88 -76 244 -76q104 0 180 35.5t119 100t62.5 145.5t19.5 182q0 193 -72 309zM510 1278l250 266h233l-342 -266h-141z" />
<glyph horiz-adv-x="1280" d="M166 438v738h166v-746q0 -54 7.5 -96.5t28 -83t54.5 -67t89.5 -42.5t129.5 -16q91 0 153 23t94.5 67t46 95.5t13.5 119.5v746h166v-738q0 -101 -23 -180t-75 -143t-147 -98.5t-228 -34.5q-91 0 -164 15.5t-124.5 46t-88 70.5t-58 92.5t-31 108.5t-9.5 123zM383 1298v191 h170v-191h-170zM729 1298v191h168v-191h-168z" />
<glyph horiz-adv-x="1341" d="M117 588q0 103 18.5 192t61 166t106 131.5t157.5 85.5t212 31q145 0 254 -47t173 -131t95 -191t31 -237q0 -129 -31 -235.5t-95 -191t-173 -132t-254 -47.5q-118 0 -212 31.5t-157.5 86t-106 132t-61 166t-18.5 190.5zM289 588q0 -101 20 -182t63.5 -145.5t119.5 -100 t180 -35.5t180 35.5t119 100t62.5 145.5t19.5 182q0 80 -12 147t-40 126.5t-71 100t-108.5 64t-149.5 23.5q-104 0 -180 -35t-119.5 -99.5t-63.5 -145t-20 -181.5zM371 1329v113h598v-113h-598z" />
<glyph horiz-adv-x="976" d="M82 123q0 96 22.5 174t69 140t126.5 96t187 34t187.5 -34.5t127.5 -96t70 -140t23 -173.5t-23 -173t-70 -140.5t-127.5 -97t-187.5 -34.5t-187 34.5t-126.5 97t-69 140.5t-22.5 173zM219 123q0 -150 63 -239t205 -89q143 0 207 89t64 239t-64 239t-207 89 q-142 0 -205 -89t-63 -239z" />
<glyph horiz-adv-x="1341" d="M117 588q0 103 18.5 192t61 166t106 131.5t157.5 85.5t212 31q145 0 254 -47t173 -131t95 -191t31 -237q0 -129 -31 -235.5t-95 -191t-173 -132t-254 -47.5q-118 0 -212 31.5t-157.5 86t-106 132t-61 166t-18.5 190.5zM289 588q0 -101 20 -182t63.5 -145.5t119.5 -100 t180 -35.5t180 35.5t119 100t62.5 145.5t19.5 182q0 80 -12 147t-40 126.5t-71 100t-108.5 64t-149.5 23.5q-104 0 -180 -35t-119.5 -99.5t-63.5 -145t-20 -181.5zM422 1278l162 266h194l-248 -266h-108zM733 1278l158 266h199l-250 -266h-107z" />
<glyph horiz-adv-x="1341" d="M117 588q0 103 18.5 192t61 166t106 131.5t157.5 85.5t212 31q145 0 254 -47t173 -131t95 -191t31 -237q0 -129 -31 -235.5t-95 -191t-173 -132t-254 -47.5q-118 0 -212 31.5t-157.5 86t-106 132t-61 166t-18.5 190.5zM289 588q0 -101 20 -182t63.5 -145.5t119.5 -100 t180 -35.5t180 35.5t119 100t62.5 145.5t19.5 182q0 80 -12 147t-40 126.5t-71 100t-108.5 64t-149.5 23.5q-104 0 -180 -35t-119.5 -99.5t-63.5 -145t-20 -181.5zM350 1544h230l254 -266h-144z" />
<glyph horiz-adv-x="1280" d="M166 438v738h166v-746q0 -54 7.5 -96.5t28 -83t54.5 -67t89.5 -42.5t129.5 -16q91 0 153 23t94.5 67t46 95.5t13.5 119.5v746h166v-738q0 -101 -23 -180t-75 -143t-147 -98.5t-228 -34.5q-91 0 -164 15.5t-124.5 46t-88 70.5t-58 92.5t-31 108.5t-9.5 123zM317 1544h230 l254 -266h-144z" />
<glyph horiz-adv-x="350" d="M111 -307v895h129v-895h-129z" />
<glyph horiz-adv-x="1280" d="M166 438v738h166v-746q0 -54 7.5 -96.5t28 -83t54.5 -67t89.5 -42.5t129.5 -16q91 0 153 23t94.5 67t46 95.5t13.5 119.5v746h166v-738q0 -101 -23 -180t-75 -143t-147 -98.5t-228 -34.5q-91 0 -164 15.5t-124.5 46t-88 70.5t-58 92.5t-31 108.5t-9.5 123zM391 1278 l162 266h195l-248 -266h-109zM702 1278l158 266h199l-250 -266h-107z" />
<glyph horiz-adv-x="1026" d="M125 0v117q6 4 16 11t37.5 30.5t51.5 49t50.5 64.5t41.5 78h-177v94h195v7q0 46 -21 100h-174v94h125q-3 5 -20.5 31.5t-22.5 35t-18.5 32t-18.5 38t-13 36.5t-10.5 43.5t-2.5 45.5q0 130 96 208.5t258 78.5q78 0 161 -22.5t130 -44t113 -56.5l-78 -113q-192 95 -305 95 q-98 0 -153.5 -48.5t-55.5 -119.5q0 -32 12 -65.5t25.5 -56t39 -60.5t37.5 -58h338v-94h-295q13 -44 13 -88q0 -3 -1 -9.5t-1 -9.5h284v-94h-303q-24 -66 -65.5 -121.5t-77.5 -89.5h565v-139h-776z" />
<glyph horiz-adv-x="741" d="M84 -215q4 3 11.5 7.5t28 21.5t38 35t37 45.5t30.5 56.5h-133v69h146v3q0 30 -15 73h-131v72h90q-26 39 -36.5 56.5t-23.5 55t-13 74.5q0 96 71 154.5t189 58.5q59 0 120.5 -17t96 -33.5t82.5 -43.5l-62 -88q-133 70 -219 70q-67 0 -105 -34.5t-38 -84.5q0 -22 8.5 -45.5 t18 -39t27 -42t26.5 -41.5h245v-72h-213q11 -37 11 -65v-11h202v-69h-217q-17 -49 -47 -89t-53 -57h401v-112h-573v92z" />
<glyph horiz-adv-x="741" d="M84 788v93q4 3 11.5 7.5t28 21.5t38 35t37 45.5t30.5 56.5h-133v69h146v2q0 31 -15 74h-131v72h90q-26 39 -36.5 56.5t-23.5 55t-13 74.5q0 96 71 154.5t189 58.5q59 0 120.5 -17t96 -33.5t82.5 -43.5l-62 -88q-131 69 -219 69q-67 0 -105 -34t-38 -84q0 -22 8.5 -45.5 t18 -39t27 -42t26.5 -41.5h245v-72h-213q11 -37 11 -66v-10h202v-69h-217q-17 -49 -47 -89t-53 -57h401v-113h-573z" />
<glyph horiz-adv-x="1341" d="M117 588q0 103 18.5 192t61 166t106 131.5t157.5 85.5t212 31q145 0 254 -47t173 -131t95 -191t31 -237q0 -129 -31 -235.5t-95 -191t-173 -132t-254 -47.5q-118 0 -212 31.5t-157.5 86t-106 132t-61 166t-18.5 190.5zM289 588q0 -101 20 -182t63.5 -145.5t119.5 -100 t180 -35.5t180 35.5t119 100t62.5 145.5t19.5 182q0 80 -12 147t-40 126.5t-71 100t-108.5 64t-149.5 23.5q-104 0 -180 -35t-119.5 -99.5t-63.5 -145t-20 -181.5zM412 1298v191h170v-191h-170zM758 1298v191h168v-191h-168z" />
<glyph horiz-adv-x="1341" d="M117 588q0 103 18.5 192t61 166t106 131.5t157.5 85.5t212 31q145 0 254 -47t173 -131t95 -191t31 -237q0 -129 -31 -235.5t-95 -191t-173 -132t-254 -47.5q-118 0 -212 31.5t-157.5 86t-106 132t-61 166t-18.5 190.5zM289 588q0 -101 20 -182t63.5 -145.5t119.5 -100 t180 -35.5t180 35.5t119 100t62.5 145.5t19.5 182q0 80 -12 147t-40 126.5t-71 100t-108.5 64t-149.5 23.5q-104 0 -180 -35t-119.5 -99.5t-63.5 -145t-20 -181.5zM369 1278l202 266h195l205 -266h-127l-174 174l-174 -174h-127z" />
<glyph horiz-adv-x="925" d="M115 18v535h135v-543q0 -49 9 -85t31.5 -67t66 -47t108.5 -16q121 0 167 56.5t46 158.5v543h135v-535q0 -75 -16.5 -133.5t-55 -106.5t-108 -74t-168.5 -26q-100 0 -170.5 26t-108.5 74.5t-54.5 106.5t-16.5 133z" />
<glyph horiz-adv-x="1341" d="M117 588q0 103 18.5 192t61 166t106 131.5t157.5 85.5t212 31q145 0 254 -47t173 -131t95 -191t31 -237q0 -129 -31 -235.5t-95 -191t-173 -132t-254 -47.5q-118 0 -212 31.5t-157.5 86t-106 132t-61 166t-18.5 190.5zM289 588q0 -101 20 -182t63.5 -145.5t119.5 -100 t180 -35.5t180 35.5t119 100t62.5 145.5t19.5 182q0 80 -12 147t-40 126.5t-71 100t-108.5 64t-149.5 23.5q-104 0 -180 -35t-119.5 -99.5t-63.5 -145t-20 -181.5zM377 1497h121q0 -108 170 -108q172 0 172 108h123q0 -102 -78 -160.5t-217 -58.5q-137 0 -214 58.5 t-77 160.5z" />
<glyph horiz-adv-x="1280" d="M166 438v738h166v-746q0 -54 7.5 -96.5t28 -83t54.5 -67t89.5 -42.5t129.5 -16q91 0 153 23t94.5 67t46 95.5t13.5 119.5v746h166v-738q0 -101 -23 -180t-75 -143t-147 -98.5t-228 -34.5q-91 0 -164 15.5t-124.5 46t-88 70.5t-58 92.5t-31 108.5t-9.5 123zM342 1329v113 h598v-113h-598z" />
<glyph horiz-adv-x="1341" d="M117 588q0 103 18.5 192t61 166t106 131.5t157.5 85.5t212 31q145 0 254 -47t173 -131t95 -191t31 -237q0 -129 -31 -235.5t-95 -191t-173 -132t-254 -47.5q-118 0 -212 31.5t-157.5 86t-106 132t-61 166t-18.5 190.5zM289 588q0 -101 20 -182t63.5 -145.5t119.5 -100 t180 -35.5t180 35.5t119 100t62.5 145.5t19.5 182q0 80 -12 147t-40 126.5t-71 100t-108.5 64t-149.5 23.5q-104 0 -180 -35t-119.5 -99.5t-63.5 -145t-20 -181.5zM510 1278l250 266h233l-342 -266h-141z" />
<glyph horiz-adv-x="1976" d="M117 588q0 103 18.5 192t61 166t106 131.5t157.5 85.5t212 31q242 0 385 -133v115h801v-142h-635v-377h524v-139h-524v-379h645v-139h-811v115q-139 -133 -385 -133q-118 0 -212 31.5t-157.5 86t-106 132t-61 166t-18.5 190.5zM289 588q0 -101 20 -182t63.5 -145.5 t119.5 -100t180 -35.5t180 35.5t119 100t62.5 145.5t19.5 182q0 80 -12 147t-40 126.5t-71 100t-108.5 64t-149.5 23.5q-104 0 -180 -35t-119.5 -99.5t-63.5 -145t-20 -181.5z" />
<glyph horiz-adv-x="1206" d="M106 -307v645h130v-92q47 41 112.5 73.5t132.5 32.5q140 0 178 -119q46 44 116 81.5t145 37.5q188 0 188 -202v-457h-129v432q0 123 -105 123q-94 0 -202 -103v-452h-131v432q0 58 -22.5 90.5t-80.5 32.5q-53 0 -107 -31t-95 -72v-452h-130z" />
<glyph horiz-adv-x="1282" d="M166 438v738h166v-746q0 -54 7.5 -96.5t28 -83t54.5 -67t89.5 -42.5t129.5 -16q91 0 153 23t94.5 67t46 95.5t13.5 119.5v746h166v-738q0 -368 -305 -438q-39 -22 -52.5 -30t-49.5 -33t-51.5 -41.5t-30.5 -42t-15 -50.5q0 -16 5 -28t12 -20t20 -13.5t22 -8.5t27 -4 t26 -1.5t27 0t23 0.5l-20 -103h-38t-46 3t-54.5 8.5t-49.5 17t-45.5 28t-29 43t-12.5 60.5q0 106 168 197h-4q-91 0 -164 15.5t-124.5 46t-88 70.5t-58 92.5t-31 108.5t-9.5 123z" />
<glyph horiz-adv-x="757" d="M70 14q0 159 88 248.5t235 89.5q142 0 218.5 -78t76.5 -204q0 -21 -2 -42t-4 -32l-2 -10h-477q7 -98 55.5 -153.5t126.5 -55.5q94 0 252 86l55 -82q-168 -103 -315 -103q-133 0 -220 87t-87 249zM205 61h356q0 195 -170 195q-81 0 -129 -51.5t-57 -143.5z" />
<glyph horiz-adv-x="1341" d="M117 588q0 103 18.5 192t61 166t106 131.5t157.5 85.5t212 31q145 0 254 -47t173 -131t95 -191t31 -237q0 -129 -31 -235.5t-95 -191t-173 -132t-254 -47.5q-118 0 -212 31.5t-157.5 86t-106 132t-61 166t-18.5 190.5zM289 588q0 -101 20 -182t63.5 -145.5t119.5 -100 t180 -35.5t180 35.5t119 100t62.5 145.5t19.5 182q0 80 -12 147t-40 126.5t-71 100t-108.5 64t-149.5 23.5q-104 0 -180 -35t-119.5 -99.5t-63.5 -145t-20 -181.5z" />
<glyph horiz-adv-x="1327" d="M178 0v1176h174l631 -949v949h166v-1176h-174l-631 944v-944h-166zM350 1339q44 86 85.5 129t105.5 43q44 0 94.5 -25t93.5 -50t70 -25q26 0 48.5 18.5t53.5 75.5l92 -39q-41 -86 -83 -130t-107 -44q-34 0 -73.5 16t-69 34.5t-61.5 34.5t-54 16q-26 0 -49 -19t-54 -76z " />
<glyph horiz-adv-x="958" d="M123 788v861h137l442 -670v670h138v-861h-142l-440 668v-668h-135z" />
<glyph horiz-adv-x="958" d="M123 -307v860h137l442 -670v670h138v-860h-142l-440 667v-667h-135z" />
<glyph horiz-adv-x="1327" d="M178 0v1176h174l631 -949v949h166v-1176h-174l-631 944v-944h-166zM573 -504l89 176h-76v199h164l18 -207l-145 -221z" />
<glyph horiz-adv-x="1327" d="M178 0v1176h174l631 -949v949h166v-1176h-174l-631 944v-944h-166zM371 1544h127l174 -176l174 176h127l-205 -266h-195z" />
<glyph horiz-adv-x="1327" d="M178 0v1176h174l631 -949v949h166v-1176h-174l-631 944v-944h-166zM504 1278l250 266h233l-342 -266h-141z" />
<glyph horiz-adv-x="1327" d="M178 0v1176h174l631 -949v949h166v-1176h-174l-631 944v-944h-166z" />
<glyph horiz-adv-x="849" d="M82 580q0 123 88.5 208.5t235.5 85.5q86 0 153 -30.5t108.5 -83.5t63 -121t21.5 -147q0 -218 -136 -362t-352 -144q-32 0 -63 3.5t-47 6.5l-15 4l35 106q37 -10 88 -10q128 0 221.5 79t122.5 222q-93 -88 -235 -88q-133 0 -211 77.5t-78 193.5zM215 584q0 -70 48 -121 t138 -51q76 0 134.5 35t80.5 75q-4 115 -60 178.5t-148 63.5t-142.5 -54.5t-50.5 -125.5z" />
<glyph horiz-adv-x="1277" d="M109 371q0 78 29.5 144t82.5 114.5t108.5 81.5t125.5 63q-262 118 -262 336q0 157 123.5 251.5t322.5 94.5q198 0 322 -94.5t124 -251.5q0 -218 -262 -336q70 -30 125.5 -63t109.5 -81.5t83.5 -114.5t29.5 -144q0 -122 -70 -212.5t-189.5 -136t-272.5 -45.5 q-233 0 -381.5 105.5t-148.5 288.5zM289 377q0 -117 100 -187.5t250 -70.5t250 70.5t100 187.5q0 50 -21 95t-52.5 77.5t-80.5 63t-94 51t-102 41.5q-74 -27 -129 -54.5t-109 -67t-83 -92t-29 -114.5zM367 1096q0 -42 18 -79.5t44.5 -63t65.5 -49t71.5 -37t72.5 -27.5 q51 18 91 37t85 49.5t70.5 74t25.5 95.5q0 91 -76.5 156t-195.5 65q-118 0 -195 -65t-77 -156z" />
<glyph horiz-adv-x="1236" d="M92 709q0 131 59 240.5t175 177t268 67.5q132 0 236.5 -51.5t167 -137.5t95 -190.5t33.5 -218.5q1 -169 -39 -313t-111 -247.5t-166 -176.5t-205 -108.5t-228 -35.5q-48 0 -96 6t-71 11l-24 6l43 143q64 -16 144 -16q73 0 143.5 19t138.5 62t123 106t96.5 156.5 t59.5 207.5q-24 -26 -55 -51t-78.5 -51.5t-112.5 -43t-137 -16.5q-142 0 -248 62.5t-158.5 164.5t-52.5 228zM270 711q0 -47 11 -91.5t36 -85.5t61 -71.5t89.5 -49t118.5 -18.5q89 0 168 35t125 79.5t69 90.5v8q0 187 -92.5 311.5t-259.5 124.5q-64 0 -118 -19t-91.5 -51 t-64.5 -75t-39.5 -90.5t-12.5 -97.5z" />
<glyph horiz-adv-x="864" d="M86 799q0 46 18 85t50.5 67.5t66.5 48.5t78 38q-158 75 -158 201q0 94 80.5 151.5t212.5 57.5q131 0 211 -57.5t80 -151.5q0 -125 -160 -201q44 -18 77.5 -38t66.5 -48.5t51 -67.5t18 -85q0 -111 -96 -175.5t-248 -64.5q-156 0 -252 64.5t-96 175.5zM223 807 q0 -64 60.5 -103.5t150.5 -39.5q88 0 146.5 39t58.5 104q0 62 -56.5 104t-150.5 76q-95 -34 -152 -76t-57 -104zM272 1227q0 -28 14 -51.5t41 -40.5t49.5 -27.5t55.5 -22.5q33 12 55 22t49.5 27.5t41.5 41t14 51.5q0 48 -45 83.5t-113 35.5q-71 0 -116.5 -35t-45.5 -84z" />
<glyph horiz-adv-x="864" d="M86 225q0 152 213 240q-158 75 -158 201q0 94 80.5 151t212.5 57q131 0 211 -57t80 -151q0 -125 -160 -201q94 -40 153.5 -96.5t59.5 -143.5q0 -110 -96 -174.5t-248 -64.5q-156 0 -252 64t-96 175zM223 233q0 -64 60.5 -103.5t150.5 -39.5q88 0 146.5 39t58.5 104 q0 62 -56.5 104.5t-150.5 76.5q-44 -16 -77.5 -31.5t-65.5 -37.5t-49 -50.5t-17 -61.5zM272 653q0 -28 14 -51.5t41 -40.5t49 -27t56 -22q27 10 43.5 17t41.5 20.5t39 27t25 33.5t11 43q0 48 -45 83.5t-113 35.5q-71 0 -116.5 -35t-45.5 -84z" />
<glyph horiz-adv-x="1280" d="M166 438v738h166v-746q0 -54 7.5 -96.5t28 -83t54.5 -67t89.5 -42.5t129.5 -16q91 0 153 23t94.5 67t46 95.5t13.5 119.5v746h166v-738q0 -101 -23 -180t-75 -143t-147 -98.5t-228 -34.5q-91 0 -164 15.5t-124.5 46t-88 70.5t-58 92.5t-31 108.5t-9.5 123zM426 1468 q0 89 61.5 152t149.5 63q89 0 152 -63t63 -152q0 -88 -63 -149.5t-152 -61.5q-88 0 -149.5 61.5t-61.5 149.5zM522 1468q0 -47 34 -80.5t81 -33.5q49 0 83 33.5t34 80.5q0 50 -34 83.5t-83 33.5q-48 0 -81.5 -34t-33.5 -83z" />
<glyph horiz-adv-x="804" d="M106 -307v645h130v-88q139 102 276 102q193 0 193 -202v-457h-130v432q0 58 -24 90.5t-84 32.5q-59 0 -125 -30.5t-106 -65.5v-459h-130z" />
<glyph horiz-adv-x="925" d="M115 1114v535h135v-543q0 -49 9 -85t31.5 -67t66 -47t108.5 -16q121 0 167 56.5t46 158.5v543h135v-535q0 -75 -16.5 -133.5t-55 -106.5t-108 -74t-168.5 -26q-100 0 -170.5 26t-108.5 74.5t-54.5 106.5t-16.5 133z" />
<glyph horiz-adv-x="1280" d="M166 438v738h166v-746q0 -54 7.5 -96.5t28 -83t54.5 -67t89.5 -42.5t129.5 -16q91 0 153 23t94.5 67t46 95.5t13.5 119.5v746h166v-738q0 -101 -23 -180t-75 -143t-147 -98.5t-228 -34.5q-91 0 -164 15.5t-124.5 46t-88 70.5t-58 92.5t-31 108.5t-9.5 123zM317 1339 q44 86 85.5 129t105.5 43q44 0 94 -25t93.5 -50t70.5 -25q26 0 48.5 18.5t53.5 75.5l93 -39q-41 -86 -83.5 -130t-107.5 -44q-44 0 -94 25t-94 50.5t-70 25.5t-48.5 -19t-53.5 -76z" />
<glyph horiz-adv-x="1103" d="M123 788v861h139l291 -574l293 574h139v-861h-135v652l-254 -508h-84l-254 504v-648h-135z" />
<glyph horiz-adv-x="1103" d="M123 -307v860h139l291 -573l293 573h139v-860h-135v651l-254 -508h-84l-254 504v-647h-135z" />
<glyph horiz-adv-x="1366" d="M100 293v127h256l56 334h-234v127h254l49 295h131l-49 -295h336l49 295h129l-49 -295h238v-127h-258l-56 -334h238v-127h-260l-47 -293h-129l47 293h-336l-47 -293h-131l47 293h-234zM487 420h336l56 334h-336z" />
<glyph horiz-adv-x="974" d="M63 2h183l39 240h-166v100h182l35 211h104l-34 -211h233l35 211h102l-35 -211h168v-100h-184l-39 -240h168v-98h-184l-35 -211h-103l35 211h-233l-33 -211h-104l32 211h-166v98zM350 2h234l39 240h-234z" />
<glyph horiz-adv-x="974" d="M63 999v99h183l39 239h-166v101h182l35 211h104l-34 -211h233l35 211h102l-35 -211h168v-101h-184l-39 -239h168v-99h-184l-35 -211h-103l35 211h-233l-33 -211h-104l32 211h-166zM350 1098h234l39 239h-234z" />
<glyph horiz-adv-x="1527" d="M178 0v1176h174l412 -805l412 805h174v-1176h-166v922l-369 -725h-100l-371 729v-926h-166z" />
<glyph horiz-adv-x="731" d="M123 788v861h135v-748h440v-113h-575z" />
<glyph horiz-adv-x="1021" d="M61 375v153l132 70v578h165v-490l242 129v-156l-242 -129v-389h615v-141h-780v444z" />
<glyph horiz-adv-x="731" d="M123 -307v860h135v-748h440v-112h-575z" />
<glyph horiz-adv-x="1013" d="M178 0v1176h166v-1035h614v-141h-780zM688 524v191h170v-191h-170z" />
<glyph horiz-adv-x="1009" d="M178 0v1176h166v-1035h614v-141h-780zM467 -504l88 176h-76v199h164l19 -207l-146 -221z" />
<glyph horiz-adv-x="1257" d="M55 1176h191l381 -1012l385 1012h188l-481 -1176h-182z" />
<glyph horiz-adv-x="1009" d="M178 0v1176h166v-1035h614v-141h-780zM424 801l88 176h-76v199h164l18 -207l-145 -221z" />
<glyph horiz-adv-x="1009" d="M102 1278l250 266h234l-342 -266h-142zM180 0v1176h166v-1035h615v-141h-781z" />
<glyph horiz-adv-x="798" d="M72 14q0 160 84.5 249t242.5 89q157 0 242.5 -89.5t85.5 -248.5q0 -158 -85.5 -247t-242.5 -89q-158 0 -242.5 88.5t-84.5 247.5zM203 14q0 -233 196 -233q100 0 148.5 61t48.5 172t-48.5 173.5t-148.5 62.5q-196 0 -196 -236z" />
<glyph horiz-adv-x="1009" d="M178 0v1176h166v-1035h614v-141h-780z" />
<glyph horiz-adv-x="872" d="M123 788v861h135v-461l401 461h162l-366 -410l401 -451h-162l-321 361l-115 -129v-232h-135z" />
<glyph horiz-adv-x="540" d="M43 741l227 119h125v-860h-135v731l-160 -80z" />
<glyph horiz-adv-x="540" d="M43 1315l227 119h125v-861h-135v732l-160 -80z" />
<glyph horiz-adv-x="737" d="M49 985l346 191h162v-1176h-178v997l-256 -133z" />
<glyph horiz-adv-x="901" d="M31 553h153l267 -729l266 729h155l-346 -860h-149z" />
<glyph horiz-adv-x="901" d="M31 1649h153l267 -729l266 729h155l-346 -861h-149z" />
<glyph horiz-adv-x="1515" d="M66 1077l194 99h105v-705h-115v598l-137 -65zM293 0l594 1176h123l-594 -1176h-123zM813 184q0 127 186 199q-139 60 -139 162q0 78 70 125t184 47q113 0 181.5 -47.5t68.5 -124.5q0 -102 -137 -164q186 -72 186 -197q0 -91 -83 -143.5t-216 -52.5t-217 52.5t-84 143.5z M930 190q0 -52 52.5 -83t131.5 -31t131.5 31t52.5 83q0 29 -15.5 52.5t-45.5 42.5t-56.5 31t-66.5 26q-54 -19 -90 -37t-65 -48.5t-29 -66.5zM973 532q0 -73 139 -114q28 9 47.5 17t43.5 21.5t37 33t13 42.5q0 41 -39.5 71t-99.5 30q-61 0 -101 -30.5t-40 -70.5z" />
<glyph horiz-adv-x="1509" d="M66 1077l194 99h105v-705h-115v598l-137 -65zM293 0l594 1176h123l-594 -1176h-123zM844 66l51 81q18 -12 43 -24t70.5 -25.5t85.5 -13.5q78 0 131 38.5t53 102.5q0 58 -46.5 97.5t-129.5 39.5q-82 0 -166 -43l-59 35l41 351h444v-93h-352l-19 -184q66 25 135 25 q123 0 196 -66.5t73 -161.5q0 -99 -75 -168t-210 -69q-130 0 -266 78z" />
<glyph horiz-adv-x="872" d="M123 -307v860h135v-461l401 461h162l-366 -410l401 -450h-162l-321 360l-115 -127v-233h-135z" />
<glyph horiz-adv-x="1511" d="M66 1077l194 99h105v-705h-115v598l-137 -65zM293 0l594 1176h123l-594 -1176h-123zM854 0v61q0 35 8.5 66t29 58.5t38.5 47t53.5 44t56 37.5t62.5 38q104 64 131 89q47 42 47 87q0 41 -38 69t-105 28q-58 0 -115.5 -21t-93.5 -45l-54 74q135 84 275 84q114 0 181 -52 t67 -135q0 -20 -4.5 -39t-10.5 -34.5t-19.5 -32.5t-22.5 -28.5t-30 -27.5t-31.5 -24.5t-36.5 -24t-36 -21.5t-39 -22.5t-37 -21.5q-76 -42 -110.5 -76t-34.5 -84h412v-94h-543z" />
<glyph horiz-adv-x="1720" d="M76 1176h184l258 -986l270 986h146l268 -986l260 986h185l-344 -1176h-175l-268 958l-264 -958h-176z" />
<glyph horiz-adv-x="1198" d="M178 0v1176h166v-650l571 650h201l-506 -562l557 -614h-200l-457 504l-166 -185v-319h-166zM508 -504l88 176h-76v199h164l18 -207l-145 -221z" />
<glyph horiz-adv-x="1466" d="M66 1077l194 99h105v-705h-115v598l-137 -65zM293 0l594 1176h123l-594 -1176h-123zM735 150v79l373 476h149v-463h121v-92h-121v-150h-114v150h-408zM858 242h285v370z" />
<glyph horiz-adv-x="1470" d="M66 1077l194 99h105v-705h-115v598l-137 -65zM293 0l594 1176h123l-594 -1176h-123zM784 301q0 179 117 297.5t301 118.5q29 0 57 -3t41 -6l13 -3l-27 -87q-37 9 -82 9q-113 0 -194.5 -65.5t-104.5 -184.5q74 74 205 74q116 0 184 -63t68 -159q0 -101 -76 -171t-205 -70 q-146 0 -221.5 89t-75.5 224zM897 276q3 -93 52 -144.5t130 -51.5t125.5 44t44.5 103q0 56 -42.5 98t-121.5 42q-65 0 -116 -28.5t-72 -62.5z" />
<glyph horiz-adv-x="1198" d="M178 0v1176h166v-650l571 650h201l-506 -562l557 -614h-200l-457 504l-166 -185v-319h-166z" />
<glyph horiz-adv-x="1720" d="M76 1176h184l258 -986l270 986h146l268 -986l260 986h185l-344 -1176h-175l-268 958l-264 -958h-176zM700 1278l250 266h234l-342 -266h-142z" />
<glyph horiz-adv-x="1499" d="M66 1077l194 99h105v-705h-115v598l-137 -65zM293 0l594 1176h123l-594 -1176h-123zM827 66l52 77q43 -25 105 -43t122 -18q76 0 125 32.5t49 88.5q0 48 -41 79t-92 41.5t-109 10.5h-34v94h43q79 0 138.5 27.5t59.5 81.5q0 40 -36 64t-99 24q-87 0 -199 -60l-47 70 q21 15 49 30.5t89.5 33.5t123.5 18q111 0 172.5 -48.5t61.5 -119.5q0 -52 -36.5 -94t-111.5 -66q81 -19 132 -69.5t51 -118.5q0 -88 -70.5 -150.5t-206.5 -62.5q-145 0 -291 78z" />
<glyph horiz-adv-x="382" d="M-25 694q40 12 65 21t43 20.5t26.5 19t13.5 24t5.5 28.5t0.5 39v803h135v-797q0 -67 -4 -95.5t-26.5 -64t-72.5 -56t-141 -40.5z" />
<glyph horiz-adv-x="382" d="M-25 -401q60 18 89.5 30t45 31t17.5 34.5t2 55.5v803h135v-797q0 -67 -4 -95.5t-26.5 -64t-72.5 -56t-141 -40.5z" />
<glyph horiz-adv-x="530" d="M-37 1278l203 266h194l205 -266h-127l-174 174l-174 -174h-127zM-27 -131q56 18 88.5 29t58 26.5t36.5 25t18 32.5t7.5 39t0.5 55v1100h166v-1094q0 -62 -1.5 -89t-10.5 -67.5t-28 -59.5t-54.5 -44.5t-90 -43t-134.5 -36.5z" />
<glyph horiz-adv-x="528" d="M-25 -131q56 18 88.5 29t58 26.5t36.5 25t18 32.5t7.5 39t0.5 55v1100h166v-1094q0 -62 -1.5 -89t-10.5 -67.5t-28 -59.5t-54.5 -44.5t-90 -43t-134.5 -36.5z" />
<glyph horiz-adv-x="1142" d="M109 127l77 123q158 -92 332 -121v410l-26 8q-63 20 -103.5 36t-93.5 45t-83.5 60.5t-52.5 80.5t-22 108q0 141 106 226t275 91v152h123v-158q182 -23 358 -107l-79 -123q-132 61 -279 86v-374l14 -4q44 -14 76 -25.5t75.5 -30.5t74.5 -38t63.5 -47t53 -59t33.5 -72 t13 -87q0 -99 -55.5 -172.5t-145 -111t-202.5 -41.5v-150h-123v158q-211 24 -409 137zM309 885q0 -67 51.5 -104.5t157.5 -71.5v344q-91 -5 -150 -47t-59 -121zM641 121q98 5 165.5 50.5t67.5 127.5q0 70 -60 115.5t-173 83.5v-377z" />
<glyph horiz-adv-x="534" d="M-57 1339q44 86 85 129t105 43q44 0 94.5 -25t93.5 -50t70 -25q26 0 49 18.5t54 75.5l92 -39q-41 -86 -83.5 -130t-107.5 -44q-34 0 -73.5 16t-69 34.5t-61.5 34.5t-54 16q-26 0 -48.5 -19t-53.5 -76zM184 0v1176h166v-1176h-166z" />
<glyph horiz-adv-x="376" d="M123 788v861h135v-861h-135z" />
<glyph horiz-adv-x="528" d="M8 -215q0 118 203 215h-29v1176h166v-1176h-6q-103 -59 -137 -89q-64 -54 -64 -108q0 -16 5 -28t12 -20t20 -13.5t22 -8.5t27 -4t26 -1.5t27 0t23 0.5l-20 -103h-38t-46 3t-54.5 8.5t-49.5 17t-45.5 28t-29 43t-12.5 60.5z" />
<glyph horiz-adv-x="1173" d="M72 805q0 185 115.5 278t334.5 93h140v-1487h-144v747q-202 0 -324 94.5t-122 274.5zM854 -313v1489h143v-1489h-143z" />
<glyph horiz-adv-x="534" d="M-33 1329v113h598v-113h-598zM184 0v1176h166v-1176h-166z" />
<glyph horiz-adv-x="593" d="M156 88v991q0 42 1 64.5t5 53.5t12.5 48t23.5 39t38 36t56.5 30.5t77.5 30.5t103 28l47 -100q-38 -12 -65 -21t-49 -20t-35.5 -18.5t-23.5 -21.5t-14.5 -22.5t-7 -29t-3 -34t-0.5 -42.5v-1032q0 -38 1 -54.5t7 -39.5t17 -33.5t34.5 -25.5t55.5 -26.5t83 -27.5l-47 -101 q-47 11 -84.5 22t-68 23.5t-53.5 23t-40 26t-29 27.5t-20 32.5t-12.5 35t-6.5 41t-2.5 45.5t-0.5 52z" />
<glyph horiz-adv-x="1720" d="M76 1176h184l258 -986l270 986h146l268 -986l260 986h185l-344 -1176h-175l-268 958l-264 -958h-176zM561 1278l203 266h194l205 -266h-127l-174 174l-174 -174h-127z" />
<glyph horiz-adv-x="800" d="M72 14q0 167 72 252.5t188 85.5q127 0 235 -96v332h129v-895h-129v80q-107 -95 -235 -95q-116 0 -188 85t-72 251zM205 14q0 -110 40 -170.5t117 -60.5q111 0 205 98v269q-93 96 -205 96q-77 0 -117 -60.5t-40 -171.5z" />
<glyph horiz-adv-x="376" d="M123 -307v860h135v-860h-135z" />
<glyph horiz-adv-x="593" d="M74 -139q38 12 65 21t49 20t35.5 18.5t23.5 21.5t14.5 22.5t7 29t3 34t0.5 42.5v1032q0 38 -1 54.5t-7 39.5t-17 33.5t-34.5 25.5t-55.5 26.5t-83 27.5l47 100q47 -11 84.5 -22t68 -23.5t53.5 -23t40 -26t29 -27.5t20 -32.5t12.5 -35t6.5 -41t2.5 -45.5t0.5 -52v-991 q0 -42 -1 -64.5t-5 -53.5t-12.5 -48t-23.5 -39t-38 -36t-56.5 -30.5t-77.5 -30.5t-103 -28z" />
<glyph horiz-adv-x="1720" d="M76 1176h184l258 -986l270 986h146l268 -986l260 986h185l-344 -1176h-175l-268 958l-264 -958h-176zM604 1298v191h170v-191h-170zM950 1298v191h168v-191h-168z" />
<glyph horiz-adv-x="1720" d="M76 1176h184l258 -986l270 986h146l268 -986l260 986h185l-344 -1176h-175l-268 958l-264 -958h-176zM539 1544h229l254 -266h-143z" />
<glyph horiz-adv-x="1245" d="M45 553h154l176 -696l188 696h119l188 -700l177 700h151l-250 -860h-141l-184 680l-187 -680h-139z" />
<glyph horiz-adv-x="530" d="M-55 1544h229l254 -266h-143zM184 0v1176h166v-1176h-166z" />
<glyph horiz-adv-x="1792" d="M86 879q0 151 87.5 233t238.5 82q148 0 235.5 -82t87.5 -233t-87.5 -232.5t-235.5 -81.5q-151 0 -238.5 81.5t-87.5 232.5zM217 879q0 -100 51.5 -153.5t143.5 -53.5q90 0 141 53.5t51 153.5q0 99 -51 153.5t-141 54.5q-91 0 -143 -54.5t-52 -153.5zM502 0l651 1176h137 l-653 -1176h-135zM1055 295q0 151 88 233t237 82q148 0 236 -82t88 -233q0 -150 -88 -231.5t-236 -81.5q-150 0 -237.5 81t-87.5 232zM1186 295q0 -99 50.5 -153t143.5 -54q90 0 141.5 54t51.5 153q0 100 -51.5 155.5t-141.5 55.5q-92 0 -143 -55t-51 -156z" />
<glyph horiz-adv-x="1296" d="M57 336q0 111 63 171t175 60q111 0 175.5 -60t64.5 -171t-64.5 -170.5t-175.5 -59.5q-112 0 -175 59.5t-63 170.5zM164 336q0 -72 34 -110t97 -38q65 0 100 38t35 110q0 70 -35 108.5t-100 38.5q-63 0 -97 -38t-34 -109zM350 -322l479 875h111l-481 -875h-109zM762 -90 q0 111 63.5 170t175.5 59q109 0 172.5 -59.5t63.5 -169.5q0 -112 -63.5 -172t-172.5 -60q-112 0 -175.5 60t-63.5 172zM866 -90q0 -72 35 -110t100 -38q64 0 99 38.5t35 109.5q0 70 -35 107.5t-99 37.5q-65 0 -100 -37.5t-35 -107.5z" />
<glyph horiz-adv-x="1800" d="M66 944v131h151v127q0 271 283 271q172 0 434 -70q70 90 235 90q96 0 221.5 -24t204.5 -48l-65 -125q-39 9 -162.5 29.5t-181.5 20.5t-96.5 -27.5t-38.5 -87.5v-156h614v-1116q0 -71 -1.5 -102.5t-11.5 -78t-31 -68.5t-60.5 -51.5t-99 -50.5t-148.5 -44l-60 129 q38 12 65.5 21.5t52.5 20.5t41 17.5t30.5 19t22.5 19.5t14.5 23t9 25t4.5 31.5t2 36v44.5v993h-444v-944h-168v944h-500v-944h-166v944h-151zM383 1075h500v148q0 35 2 51q-291 51 -369 51q-58 0 -95.5 -27.5t-37.5 -87.5v-135z" />
<glyph horiz-adv-x="528" d="M6 1298v191h170v-191h-170zM180 0v1176h166v-1176h-166zM352 1298v191h168v-191h-168z" />
<glyph horiz-adv-x="530" d="M-37 1278l203 266h194l205 -266h-127l-174 174l-174 -174h-127zM182 0v1176h166v-1176h-166z" />
<glyph horiz-adv-x="1245" d="M45 1649h154l176 -697l188 697h119l188 -701l177 701h151l-250 -861h-141l-184 680l-187 -680h-139z" />
<glyph horiz-adv-x="694" d="M70 1112q0 160 87 248t212 88q52 0 114 -19t90.5 -33t75.5 -40l-57 -92q-4 2 -28.5 14.5t-41 20t-42 18t-50 15.5t-47.5 5q-79 0 -128.5 -61.5t-49.5 -163.5q0 -103 49.5 -165t128.5 -62q23 0 47.5 5t50 15.5t42 18t41 20t28.5 14.5l57 -94q-3 -1 -20.5 -10.5t-25 -13 t-26.5 -12.5t-31 -13.5t-31.5 -12t-35 -11.5t-35 -8.5t-38 -6.5t-37.5 -2q-125 0 -212 88t-87 250z" />
<glyph horiz-adv-x="1505" d="M115 588q0 172 70 308t210.5 217t331.5 81q143 0 259 -47t191 -129t115.5 -192t40.5 -238t-40.5 -238t-115.5 -192t-191 -129t-259 -47q-191 0 -331.5 81t-210.5 217t-70 308zM184 588q0 -237 143.5 -390t397.5 -153q128 0 231.5 42t171 115.5t104 172t36.5 213.5 q0 154 -62 275.5t-187 194t-294 72.5q-170 0 -294.5 -72.5t-185.5 -194t-61 -275.5zM416 586q0 174 85.5 270t213.5 96q60 0 119 -19t90 -37t75 -48l-53 -60q-36 27 -58 41.5t-71.5 32t-99.5 17.5q-95 0 -154 -80.5t-59 -212.5q0 -130 59 -209.5t154 -79.5q50 0 98.5 16.5 t73 31.5t57.5 40l53 -59q-44 -30 -74.5 -48t-90.5 -37.5t-119 -19.5q-128 0 -213.5 96t-85.5 269z" />
<glyph horiz-adv-x="2549" d="M86 879q0 151 87.5 233t238.5 82q148 0 235.5 -82t87.5 -233t-87.5 -232.5t-235.5 -81.5q-151 0 -238.5 81.5t-87.5 232.5zM217 879q0 -100 51.5 -153.5t143.5 -53.5q90 0 141 53.5t51 153.5q0 99 -51 153.5t-141 54.5q-91 0 -143 -54.5t-52 -153.5zM502 0l651 1176h137 l-653 -1176h-135zM1055 295q0 151 88 233t237 82q148 0 236 -82t88 -233q0 -150 -88 -231.5t-236 -81.5q-150 0 -237.5 81t-87.5 232zM1186 295q0 -99 50.5 -153t143.5 -54q90 0 141.5 54t51.5 153q0 100 -51.5 155.5t-141.5 55.5q-92 0 -143 -55t-51 -156zM1815 295 q0 151 87.5 233t237.5 82q151 0 238.5 -82t87.5 -233t-87.5 -232t-238.5 -81t-238 81t-87 232zM1948 295q0 -99 50.5 -153t141.5 -54q92 0 142.5 53.5t50.5 153.5q0 101 -50.5 156t-142.5 55q-91 0 -141.5 -55t-50.5 -156z" />
<glyph horiz-adv-x="1140" d="M45 0l428 588l-405 588h190l311 -494l310 494h194l-409 -590l432 -586h-201l-326 481l-325 -481h-199z" />
<glyph horiz-adv-x="1230" d="M135 774v72h53v330h455q101 0 181.5 -18.5t143 -57t98.5 -103t42 -151.5h51v-72h-51q-22 -325 -465 -325h-289v-449h-166v774h-53zM354 588h289q271 0 295 186h-584v-186zM354 846h584q-24 188 -295 188h-289v-188z" />
<glyph horiz-adv-x="894" d="M92 252v61h41v240h338q323 0 340 -240h37v-61h-37q-20 -236 -340 -236h-203v-323h-135v559h-41zM268 127h199q186 0 207 125h-406v-125zM268 313h406q-19 127 -207 127h-199v-127z" />
<glyph horiz-adv-x="894" d="M92 1348v61h41v240h338q323 0 340 -240h37v-61h-37q-20 -236 -340 -236h-203v-324h-135v560h-41zM268 1223h199q186 0 207 125h-406v-125zM268 1409h406q-19 127 -207 127h-199v-127z" />
<glyph horiz-adv-x="829" d="M29 -307l309 428l-293 432h156l215 -354l217 354h155l-294 -432l311 -428h-164l-225 342l-226 -342h-161z" />
<glyph horiz-adv-x="800" d="M106 338h130v-82q112 96 235 96q116 0 188 -85.5t72 -252.5q0 -166 -72 -251t-188 -85q-124 0 -235 95v-330h-130v895zM236 -119q94 -98 206 -98q77 0 117.5 60.5t40.5 170.5q0 111 -40.5 171.5t-117.5 60.5q-113 0 -206 -96v-269z" />
<glyph horiz-adv-x="532" d="M-29 1497h121q0 -108 170 -108q172 0 172 108h123q0 -102 -78 -160.5t-217 -58.5q-137 0 -214 58.5t-77 160.5zM182 0v1176h166v-1176h-166z" />
<glyph horiz-adv-x="530" d="M102 1278l250 266h234l-342 -266h-142zM182 0v1176h166v-1176h-166z" />
<glyph horiz-adv-x="344" d="M100 788v166h144v-166h-144zM100 1196v166h144v-166h-144z" />
<glyph horiz-adv-x="735" d="M84 1219q0 161 86.5 248t212.5 87h12l23 95h71l-24 -105q16 -2 43 -10l29 115h71l-35 -140q23 -10 57.5 -28t37.5 -19l-58 -92q-8 3 -29 14t-34 17l-96 -402q22 5 47.5 15t42.5 18t40 20t29 15l58 -96q-139 -73 -246 -86l-23 -97h-73l22 97q-1 0 -43 6l-24 -103h-70 l31 127q-73 39 -115.5 116t-42.5 188zM219 1219q0 -111 53 -170l95 393q-67 -11 -107.5 -70.5t-40.5 -152.5zM334 1006q20 -10 41 -13l106 434l-43 13z" />
<glyph horiz-adv-x="800" d="M106 539v895h130v-82q112 96 235 96q116 0 188 -85.5t72 -252.5q0 -166 -72 -251t-188 -85q-125 0 -235 94v-329h-130zM236 977q94 -98 206 -98q77 0 117.5 60.5t40.5 170.5q0 111 -40.5 171t-117.5 60q-113 0 -206 -96v-268z" />
<glyph horiz-adv-x="1054" d="M178 0v1176h166v-1176h-166zM475 -131q56 18 88.5 29t58 26.5t36.5 25t18 32.5t7.5 39t0.5 55v1100h166v-1094q0 -61 -1.5 -89t-10.5 -68t-28 -59t-55 -44t-90.5 -43t-134.5 -37z" />
<glyph horiz-adv-x="800" d="M72 14q0 167 72 252.5t188 85.5q127 0 235 -96v82h129v-895h-129v330q-107 -95 -235 -95q-116 0 -188 85t-72 251zM205 14q0 -110 40 -170.5t117 -60.5q111 0 205 98v269q-93 96 -205 96q-77 0 -117 -60.5t-40 -171.5z" />
<glyph horiz-adv-x="800" d="M72 1110q0 167 72 252.5t188 85.5q127 0 235 -96v82h129v-895h-129v329q-106 -94 -235 -94q-116 0 -188 85t-72 251zM205 1110q0 -110 40 -170.5t117 -60.5q111 0 205 98v268q-93 96 -205 96q-77 0 -117 -60t-40 -171z" />
<glyph horiz-adv-x="522" d="M178 0v1176h166v-1176h-166z" />
<glyph horiz-adv-x="927" d="M66 1067q199 127 403 127q156 0 264.5 -77t108.5 -212q0 -73 -31 -131t-87.5 -99t-123 -68t-151.5 -48l-11 -203h-114l-13 293q91 18 153 37t112.5 46.5t75 64.5t24.5 86q0 78 -64.5 124t-162.5 46q-135 0 -308 -97zM291 0v207h182v-207h-182z" />
<glyph horiz-adv-x="937" d="M123 788v861h135v-353h424v353h135v-861h-135v396h-424v-396h-135z" />
<glyph horiz-adv-x="929" d="M86 270q0 73 31 131t87.5 99t123 68t151.5 48l10 203h115l12 -293q-72 -14 -125 -28.5t-100 -34.5t-76 -43.5t-46 -55.5t-17 -71q0 -78 64.5 -124t162.5 -46q135 0 307 96l76 -110q-199 -127 -403 -127q-156 0 -264.5 76.5t-108.5 211.5zM455 969v207h182v-207h-182z" />
<glyph horiz-adv-x="675" d="M61 -106q0 184 287 253l8 142h88l11 -211q-133 -29 -195.5 -65t-62.5 -101q0 -55 43.5 -88t113.5 -33q96 0 217 72l62 -90q-155 -95 -297 -95q-115 0 -195 58t-80 158zM328 397v156h147v-156h-147z" />
<glyph horiz-adv-x="675" d="M61 989q0 185 287 254l8 141h88l11 -210q-133 -29 -195.5 -65t-62.5 -101q0 -55 43.5 -88t113.5 -33q97 0 217 71l62 -90q-153 -94 -297 -94q-115 0 -195 57.5t-80 157.5zM328 1493v156h147v-156h-147z" />
<glyph horiz-adv-x="679" d="M49 473q153 94 297 94q115 0 195 -57.5t80 -157.5q0 -185 -287 -254l-8 -141h-88l-11 211q133 29 195.5 65t62.5 101q0 55 -43.5 88t-113.5 33q-96 0 -217 -72zM207 -152h147v-155h-147v155z" />
<glyph horiz-adv-x="679" d="M49 1569q153 94 297 94q115 0 195 -57.5t80 -157.5q0 -185 -287 -254l-8 -141h-88l-11 211q133 29 195.5 65t62.5 101q0 55 -43.5 87.5t-113.5 32.5q-97 0 -217 -71zM207 788v156h147v-156h-147z" />
<glyph horiz-adv-x="937" d="M123 -307v860h135v-352h424v352h135v-860h-135v395h-424v-395h-135z" />
<glyph horiz-adv-x="735" d="M84 123q0 82 24.5 147.5t66.5 106t95 61.5t113 21h12l23 94h71l-24 -104q9 -1 43 -11l29 115h71l-35 -139q23 -10 57.5 -28t37.5 -19l-58 -93q-8 3 -29 14t-34 17l-96 -401q22 5 48 14.5t42 17.5t40 20.5t29 14.5l58 -96q-139 -73 -246 -86l-23 -96h-73l22 96q-1 0 -43 6 l-24 -102h-70l31 127q-73 39 -115.5 115.5t-42.5 187.5zM219 123q0 -111 53 -170l95 393q-67 -11 -107.5 -70.5t-40.5 -152.5zM334 -90q17 -9 41 -12l106 434l-43 12z" />
<glyph horiz-adv-x="1019" d="M117 590q0 111 33.5 200.5t91 145t129.5 84.5t153 29h21l30 127h93l-35 -140q23 -4 63 -16l39 156h90l-45 -189q10 -4 131 -63l-71 -117l-92 45l-142 -580q23 5 48 13t44 15.5t44 19.5t37 18t35 18.5t26 14.5l71 -117q-62 -33 -93 -48.5t-107 -42t-140 -32.5l-30 -131 h-92l30 131q-32 3 -61 12l-35 -143h-92l41 174q-99 54 -157 159t-58 257zM281 590q0 -163 90 -256l139 575q-102 -11 -165.5 -97t-63.5 -222zM451 281q45 -13 63 -15l152 621q-26 10 -64 18z" />
<glyph horiz-adv-x="344" d="M100 100v166h144v-166h-144zM100 -141h144v-166h-144v166z" />
<glyph horiz-adv-x="829" d="M29 788l309 429l-293 432h156l215 -355l217 355h155l-294 -432l311 -429h-164l-225 342l-226 -342h-161z" />
<glyph horiz-adv-x="696" d="M70 16q0 160 87 248t212 88q52 0 114 -19t90.5 -33t75.5 -40l-57 -92q-5 3 -28.5 15t-41 20t-42.5 18t-49.5 15.5t-47.5 5.5q-79 0 -128.5 -62t-49.5 -164q0 -103 49.5 -165t128.5 -62q23 0 47.5 5.5t49.5 15.5t42.5 18t41 20t28.5 15l57 -94q-3 -1 -23 -11.5t-29 -15 t-31 -14.5t-36 -15.5t-36.5 -13t-40.5 -11.5t-40.5 -7t-43.5 -3q-125 0 -212 88t-87 250z" />
<glyph horiz-adv-x="1021" d="M117 590q0 106 31 192.5t84.5 142t121 86.5t144.5 36v129h123v-138q122 -23 290 -114l-71 -117q-10 4 -52.5 26t-84.5 40t-82 28v-625q31 7 67.5 21t57.5 24.5t55 28.5t39 21l71 -117q-171 -92 -290 -117v-137h-123v129q-77 5 -144.5 36t-121 87t-84.5 143t-31 195z M281 590q0 -133 60 -219t157 -101v637q-97 -18 -157 -102t-60 -215z" />
<glyph horiz-adv-x="1320" d="M53 870v105h135v201h166v-201h611v201h165v-201h134v-105h-134v-870h-165v547h-611v-547h-166v870h-135zM354 686h611v184h-611v-184z" />
<glyph horiz-adv-x="1298" d="M178 0v1176h166v-490h610v490h166v-1176h-166v547h-610v-547h-166z" />
<glyph horiz-adv-x="923" d="M82 1219q0 219 101.5 331.5t260.5 112.5q98 0 187.5 -36t185.5 -97l-67 -98q-48 28 -68.5 39t-65.5 32t-83 30t-76 9q-106 0 -171 -86.5t-65 -236.5q0 -151 63.5 -239.5t172.5 -88.5t245 113v153h-237v109h369v-478h-132v97q-139 -111 -270 -111q-71 0 -132.5 27t-111 80 t-78 140t-28.5 198z" />
<glyph horiz-adv-x="1169" d="M45 1176h188l351 -586l352 586h186l-454 -709v-467h-166v463z" />
<glyph horiz-adv-x="923" d="M82 123q0 219 101.5 331.5t260.5 112.5q98 0 187.5 -36t185.5 -97l-67 -98q-48 28 -68.5 39t-65.5 32t-83 30t-76 9q-106 0 -171 -86.5t-65 -236.5q0 -151 63.5 -239.5t172.5 -88.5t245 113v153h-237v109h369v-477h-132v96q-139 -111 -270 -111q-71 0 -132.5 27t-111 80 t-78 140t-28.5 198z" />
<glyph horiz-adv-x="1273" d="M117 588q0 154 39 272t107.5 190t156.5 108t192 36q135 0 257.5 -50t248.5 -132l-88 -121q-54 33 -88.5 52t-92.5 46.5t-113.5 41t-108.5 13.5q-153 0 -245.5 -122t-92.5 -334q0 -213 92 -338t246 -125q156 0 352 164v223h-338v135h498v-647h-160v137 q-189 -155 -379 -155q-98 0 -183 36t-153 107.5t-107.5 190.5t-39.5 272zM543 1298v191h170v-191h-170z" />
</font>
</defs>
</svg>
