<?xml version="1.0" standalone="no"?>
<!DOCTYPE svg PUBLIC "-//W3C//DTD SVG 1.1//EN" "http://www.w3.org/Graphics/SVG/1.1/DTD/svg11.dtd" >
<svg xmlns="http://www.w3.org/2000/svg">
<metadata>Generated by IcoMoon</metadata>
<defs>
<font id="etmodules" horiz-adv-x="512">
<font-face units-per-em="512" ascent="480" descent="-32" />
<missing-glyph horiz-adv-x="512" />
<glyph unicode="&#x20;" d="" horiz-adv-x="256" />
<glyph unicode="&#x21;" d="M272 32c8.832 0 16 7.168 16 16v313.376l68.672-68.672c6.24-6.24 16.384-6.24 22.624 0s6.24 16.384 0 22.624l-96 96c-1.472 1.472-3.232 2.624-5.184 3.424-3.904 1.632-8.32 1.632-12.224 0-1.92-0.768-3.616-1.92-5.088-3.36-0.032-0.032-0.064-0.032-0.128-0.064l-96-96c-6.24-6.24-6.24-16.384 0-22.624s16.384-6.24 22.624 0l68.704 68.672v-313.376c0-8.832 7.168-16 16-16z" />
<glyph unicode="&#x22;" d="M272 416c-8.832 0-16-7.168-16-16v-313.376l-68.672 68.672c-6.24 6.24-16.384 6.24-22.624 0s-6.24-16.384 0-22.624l96-96c0.032-0.032 0.096-0.032 0.128-0.096 1.44-1.408 3.168-2.592 5.056-3.36 3.904-1.632 8.32-1.632 12.224 0 1.952 0.8 3.712 1.984 5.184 3.456l96 96c6.24 6.24 6.24 16.384 0 22.624s-16.384 6.24-22.624 0l-68.672-68.672v313.376c0 8.832-7.168 16-16 16z" />
<glyph unicode="&#x23;" d="M64 239.936c0-2.048 0.448-4.096 1.248-6.048 0.768-1.888 1.92-3.584 3.328-5.024 0.032-0.064 0.064-0.128 0.096-0.192l96-96c6.24-6.24 16.384-6.24 22.624 0s6.24 16.384 0 22.624l-68.672 68.704h313.376c8.832 0 16 7.168 16 16s-7.168 16-16 16h-313.376l68.672 68.672c6.24 6.24 6.24 16.384 0 22.624s-16.384 6.24-22.624 0l-96-96c-0.032-0.032-0.064-0.128-0.096-0.16-1.408-1.44-2.56-3.136-3.328-5.024-0.832-1.952-1.248-4.032-1.248-6.112v0c0-0.032 0-0.032 0-0.064z" />
<glyph unicode="&#x24;" d="M64 240c0-8.832 7.168-16 16-16h313.376l-68.672-68.672c-6.24-6.24-6.24-16.384 0-22.624s16.384-6.24 22.624 0l96 96c1.472 1.472 2.656 3.232 3.456 5.184 0.768 1.952 1.216 4 1.216 6.048 0 0.032 0 0.032 0 0.064v0c0 2.080-0.416 4.16-1.248 6.112-0.8 1.952-1.984 3.712-3.456 5.184l-96 96c-6.24 6.24-16.384 6.24-22.624 0s-6.24-16.384 0-22.624l68.704-68.672h-313.376c-8.832 0-16-7.168-16-16z" />
<glyph unicode="&#x25;" d="M64 240c0-8.832 7.168-16 16-16s16 7.168 16 16v121.376l324.672-324.672c6.24-6.24 16.384-6.24 22.624 0s6.24 16.384 0 22.624l-324.672 324.672h121.376c8.832 0 16 7.168 16 16s-7.168 16-16 16h-160c-2.080 0-4.16-0.416-6.112-1.248-1.92-0.768-3.616-1.92-5.088-3.36-0.032-0.032-0.064-0.032-0.128-0.064-0.032-0.064-0.064-0.16-0.096-0.192-1.408-1.44-2.56-3.136-3.328-5.024-0.832-1.952-1.248-4.032-1.248-6.112v0-160z" />
<glyph unicode="&#x26;" d="M68.672 36.672c6.24-6.24 16.384-6.24 22.624 0l324.704 324.704v-121.376c0-8.832 7.168-16 16-16s16 7.168 16 16v160c0 2.080-0.416 4.16-1.248 6.112-1.632 3.904-4.736 7.040-8.64 8.64-1.952 0.832-4.032 1.248-6.112 1.248h-160c-8.832 0-16-7.168-16-16s7.168-16 16-16h121.376l-324.704-324.672c-6.24-6.272-6.24-16.384 0-22.656z" />
<glyph unicode="&#x27;" d="M432 224c-8.832 0-16-7.168-16-16v-121.376l-324.672 324.704c-6.24 6.24-16.384 6.24-22.624 0-6.24-6.24-6.24-16.384 0-22.624l324.672-324.704h-121.376c-8.832 0-16-7.168-16-16s7.168-16 16-16h160c2.080 0 4.16 0.416 6.112 1.248 3.904 1.632 7.040 4.736 8.64 8.64 0.8 1.952 1.248 4 1.248 6.048 0 0.032 0 0.032 0 0.064v160c0 8.832-7.168 16-16 16z" />
<glyph unicode="&#x28;" d="M80 224c-8.832 0-16-7.168-16-16v-160c0-0.032 0-0.032 0-0.064 0-2.080 0.416-4.128 1.216-6.048 0.768-1.888 1.92-3.584 3.328-5.024 0.064-0.064 0.064-0.128 0.128-0.192 0.032-0.032 0.096-0.032 0.128-0.096 1.44-1.408 3.168-2.592 5.056-3.36 1.984-0.8 4.064-1.216 6.144-1.216h160c8.832 0 16 7.168 16 16s-7.168 16-16 16h-121.376l324.704 324.672c6.24 6.24 6.24 16.384 0 22.624s-16.384 6.24-22.624 0l-324.704-324.672v121.376c0 8.832-7.168 16-16 16z" />
<glyph unicode="&#x29;" d="M324.672 388.672c6.24-6.24 16.384-6.24 22.624 0s6.24 16.384 0 22.624l-64 64c-1.472 1.504-3.232 2.656-5.184 3.456-3.904 1.632-8.32 1.632-12.224 0-1.92-0.768-3.616-1.92-5.088-3.36-0.032-0.032-0.064-0.032-0.128-0.064l-64-64c-6.24-6.24-6.24-16.384 0-22.624s16.384-6.24 22.624 0l36.704 36.672v-402.752l-36.672 36.672c-6.24 6.24-16.384 6.24-22.624 0s-6.24-16.384 0-22.624l64-64c0.032-0.032 0.096-0.032 0.128-0.096 1.44-1.408 3.168-2.592 5.056-3.36 3.904-1.632 8.32-1.632 12.224 0 1.952 0.8 3.712 1.984 5.184 3.456l64 64c6.24 6.24 6.24 16.384 0 22.624s-16.384 6.24-22.624 0l-36.672-36.672v402.752l36.672-36.704z" />
<glyph unicode="&#x2a;" d="M292.48-27.488c3.136-3.136 7.264-4.704 11.36-4.672 4.128 0 8.224 1.536 11.36 4.672l61.632 61.632c6.24 6.24 6.24 16.384 0 22.624s-16.384 6.24-22.624 0l-34.208-34.208v281.28c0 8.832-7.168 16-16 16s-16-7.168-16-16v-281.6l-36.864 36.864c-6.24 6.24-16.384 6.24-22.624 0s-6.24-16.384 0-22.624l63.968-63.968zM208 127.84c8.832 0 16 7.168 16 16v281.6l36.864-36.864c6.24-6.24 16.384-6.24 22.624 0s6.24 16.384 0 22.624l-63.968 63.968c-3.136 3.136-7.232 4.672-11.36 4.672s-8.224-1.536-11.36-4.672l-61.632-61.632c-6.24-6.24-6.24-16.384 0-22.624s16.384-6.24 22.624 0l34.208 34.208v-281.28c0-8.832 7.168-16 16-16z" />
<glyph unicode="&#x2b;" d="M88.928 103.008c6.24 6.24 6.24 16.384 0 22.624l-34.368 34.368h281.44c8.832 0 16 7.168 16 16s-7.168 16-16 16h-281.44l36.704 36.704c6.24 6.24 6.24 16.384 0 22.624s-16.384 6.24-22.624 0l-63.968-63.968c-3.136-3.136-4.672-7.232-4.672-11.36s1.536-8.224 4.672-11.36l61.632-61.632c6.272-6.272 16.384-6.272 22.624 0zM507.328 283.040l-61.632 61.632c-6.24 6.24-16.384 6.24-22.624 0s-6.24-16.384 0-22.624l34.368-34.368h-281.44c-8.832 0-16-7.168-16-16s7.168-16 16-16h281.44l-36.704-36.704c-6.24-6.24-6.24-16.384 0-22.624s16.384-6.24 22.624 0l63.968 63.968c3.136 3.136 4.672 7.232 4.672 11.36s-1.536 8.224-4.672 11.36z" />
<glyph unicode="&#x2c;" d="M510.752 246.112c-0.8 1.952-1.984 3.712-3.456 5.184l-64 64c-6.24 6.24-16.384 6.24-22.624 0s-6.24-16.384 0-22.624l36.704-36.672h-402.752l36.672 36.672c6.24 6.24 6.24 16.384 0 22.624s-16.384 6.24-22.624 0l-64-64c-0.032-0.032-0.064-0.128-0.096-0.16-1.408-1.44-2.56-3.136-3.328-5.024-0.832-1.952-1.248-4.032-1.248-6.112v0c0-0.032 0-0.032 0-0.064 0-2.048 0.448-4.096 1.248-6.048 0.768-1.888 1.92-3.584 3.328-5.024 0.032-0.064 0.064-0.128 0.096-0.192l64-64c6.24-6.24 16.384-6.24 22.624 0s6.24 16.384 0 22.624l-36.672 36.704h402.752l-36.672-36.672c-6.24-6.24-6.24-16.384 0-22.624s16.384-6.24 22.624 0l64 64c1.472 1.472 2.656 3.232 3.456 5.184 0.768 1.952 1.216 4 1.216 6.048 0 0.032 0 0.032 0 0.064v0c0 2.080-0.416 4.16-1.248 6.112z" />
<glyph unicode="&#x2d;" d="M64 240c0-8.832 7.168-16 16-16s16 7.168 16 16v121.376l297.376-297.376h-121.376c-8.832 0-16-7.168-16-16s7.168-16 16-16h160c2.080 0 4.16 0.416 6.112 1.248 3.904 1.632 7.040 4.736 8.64 8.64 0.8 1.952 1.248 4 1.248 6.048 0 0.032 0 0.032 0 0.064v160c0 8.832-7.168 16-16 16s-16-7.168-16-16v-121.376l-297.376 297.376h121.376c8.832 0 16 7.168 16 16s-7.168 16-16 16h-160c-2.080 0-4.16-0.416-6.112-1.248-1.92-0.768-3.616-1.92-5.088-3.36-0.032-0.032-0.064-0.032-0.128-0.064-0.032-0.064-0.064-0.16-0.096-0.192-1.408-1.44-2.56-3.136-3.328-5.024-0.832-1.952-1.248-4.032-1.248-6.112v0-160z" />
<glyph unicode="&#x2e;" d="M80 224c-8.832 0-16-7.168-16-16v-160c0-0.032 0-0.032 0-0.064 0-2.080 0.416-4.128 1.216-6.048 0.768-1.888 1.92-3.584 3.328-5.024 0.064-0.064 0.064-0.128 0.128-0.192 0.032-0.032 0.096-0.032 0.128-0.096 1.44-1.408 3.168-2.592 5.056-3.36 1.984-0.8 4.064-1.216 6.144-1.216h160c8.832 0 16 7.168 16 16s-7.168 16-16 16h-121.376l297.376 297.376v-121.376c0-8.832 7.168-16 16-16s16 7.168 16 16v160c0 2.080-0.416 4.16-1.248 6.112-1.632 3.904-4.736 7.040-8.64 8.64-1.952 0.832-4.032 1.248-6.112 1.248h-160c-8.832 0-16-7.168-16-16s7.168-16 16-16h121.376l-297.376-297.376v121.376c0 8.832-7.168 16-16 16z" />
<glyph unicode="&#x2f;" d="M475.328 443.328c-6.24 6.24-16.384 6.24-22.624 0l-132.704-132.704v89.376c0 8.832-7.168 16-16 16s-16-7.168-16-16v-128c0-0.032 0-0.032 0-0.064 0-2.048 0.448-4.096 1.248-6.048 0.768-1.888 1.92-3.584 3.328-5.024 0.032-0.064 0.064-0.128 0.096-0.192 0.064-0.032 0.096-0.032 0.128-0.064 1.44-1.408 3.168-2.592 5.056-3.36 1.984-0.832 4.064-1.248 6.144-1.248h128c8.832 0 16 7.168 16 16s-7.168 16-16 16h-89.376l132.672 132.672c6.272 6.272 6.272 16.384 0.032 22.656zM36.672 4.672c6.24-6.24 16.384-6.24 22.624 0l132.704 132.704v-89.376c0-8.832 7.168-16 16-16s16 7.168 16 16v128c0 2.080-0.416 4.16-1.248 6.112-1.632 3.904-4.736 7.040-8.64 8.64-1.952 0.832-4.032 1.248-6.112 1.248h-128c-8.832 0-16-7.168-16-16s7.168-16 16-16h89.376l-132.672-132.672c-6.272-6.272-6.272-16.384-0.032-22.656z" />
<glyph unicode="&#x30;" d="M478.752 438.112c-1.632 3.904-4.736 7.040-8.64 8.64-1.952 0.832-4.032 1.248-6.112 1.248h-128c-8.832 0-16-7.168-16-16s7.168-16 16-16h89.376l-132.704-132.672c-6.24-6.24-6.24-16.384 0-22.624s16.384-6.24 22.624 0l132.704 132.672v-89.376c0-8.832 7.168-16 16-16s16 7.168 16 16v128c0 2.080-0.416 4.16-1.248 6.112zM48 160c-8.832 0-16-7.168-16-16v-128c0-0.032 0-0.032 0-0.064 0-2.080 0.416-4.128 1.216-6.048 0.768-1.888 1.92-3.584 3.328-5.024 0.064-0.064 0.064-0.128 0.128-0.192 0.032-0.032 0.096-0.032 0.128-0.096 1.44-1.408 3.168-2.592 5.056-3.36 1.984-0.8 4.064-1.216 6.144-1.216h128c8.832 0 16 7.168 16 16s-7.168 16-16 16h-89.376l132.672 132.672c6.24 6.24 6.24 16.384 0 22.624s-16.384 6.24-22.624 0l-132.672-132.672v89.376c0 8.832-7.168 16-16 16z" />
<glyph unicode="&#x31;" d="M510.752 214.112c-0.8 1.952-1.984 3.712-3.456 5.184l-64 64c-6.24 6.24-16.384 6.24-22.624 0s-6.24-16.384 0-22.624l36.704-36.672h-169.376v169.376l36.672-36.672c6.24-6.24 16.384-6.24 22.624 0s6.24 16.384 0 22.624l-64 64c-0.032 0.032-0.128 0.064-0.16 0.096-1.44 1.408-3.136 2.56-5.024 3.328-1.952 0.832-4.032 1.248-6.112 1.248-0.032 0-0.032 0-0.064 0-2.048 0-4.096-0.448-6.048-1.248-1.888-0.768-3.584-1.92-5.024-3.328-0.064-0.032-0.128-0.064-0.192-0.096l-64-64c-6.24-6.24-6.24-16.384 0-22.624s16.384-6.24 22.624 0l36.704 36.672v-169.376h-169.376l36.672 36.672c6.24 6.24 6.24 16.384 0 22.624-6.24 6.24-16.384 6.24-22.624 0l-64-64c-0.032-0.032-0.064-0.128-0.096-0.16-1.408-1.44-2.56-3.136-3.328-5.024-0.832-1.952-1.248-4.032-1.248-6.112 0-0.032 0-0.032 0-0.064 0-2.048 0.448-4.096 1.248-6.048 0.768-1.888 1.92-3.584 3.328-5.024 0.032-0.064 0.064-0.128 0.096-0.192l64-64c6.24-6.24 16.384-6.24 22.624 0s6.24 16.384 0 22.624l-36.672 36.704h169.376v-169.376l-36.672 36.672c-6.24 6.24-16.384 6.24-22.624 0s-6.24-16.384 0-22.624l64-64c1.472-1.472 3.232-2.656 5.184-3.456 1.952-0.768 4-1.216 6.048-1.216 0.032 0 0.032 0 0.064 0 2.080 0 4.16 0.416 6.112 1.248 1.952 0.8 3.712 1.984 5.184 3.456l64 64c6.24 6.24 6.24 16.384 0 22.624s-16.384 6.24-22.624 0l-36.672-36.704v169.376h169.376l-36.672-36.672c-6.24-6.24-6.24-16.384 0-22.624s16.384-6.24 22.624 0l64 64c1.472 1.472 2.656 3.232 3.456 5.184 0.768 1.952 1.216 4 1.216 6.048 0 0.032 0 0.032 0 0.064 0 2.080-0.416 4.16-1.248 6.112z" />
<glyph unicode="&#x32;" d="M179.488 156.8l92.512 92.512 92.512-92.512c6.24-6.24 16.384-6.24 22.624 0s6.24 16.384 0 22.624l-103.776 103.776c-3.136 3.136-7.232 4.672-11.36 4.672s-8.224-1.536-11.36-4.672l-103.776-103.776c-6.24-6.24-6.24-16.384 0-22.624s16.384-6.24 22.624 0z" />
<glyph unicode="&#x33;" d="M364.512 259.2l-92.512-92.512-92.512 92.512c-6.24 6.24-16.384 6.24-22.624 0-6.24-6.24-6.24-16.384 0-22.624l103.776-103.776c3.136-3.136 7.264-4.704 11.36-4.672 4.128 0 8.224 1.536 11.36 4.672l103.776 103.776c6.24 6.24 6.24 16.384 0 22.624s-16.384 6.24-22.624 0z" />
<glyph unicode="&#x34;" d="M196.8 196.64l103.776-103.776c6.24-6.24 16.384-6.24 22.624 0s6.24 16.384 0 22.624l-92.512 92.512 92.512 92.512c6.24 6.24 6.24 16.384 0 22.624s-16.384 6.24-22.624 0l-103.776-103.776c-3.136-3.136-4.672-7.232-4.672-11.36s1.536-8.224 4.672-11.36z" />
<glyph unicode="&#x35;" d="M220.8 92.864c6.24-6.24 16.384-6.24 22.624 0l103.776 103.776c3.136 3.136 4.704 7.264 4.672 11.36 0 4.128-1.536 8.224-4.672 11.36l-103.776 103.776c-6.24 6.24-16.384 6.24-22.624 0s-6.24-16.384 0-22.624l92.512-92.512-92.512-92.512c-6.24-6.24-6.24-16.384 0-22.624z" />
<glyph unicode="&#x36;" d="M375.232 252.608l-107.040 94.688c-3.2 3.2-7.392 4.736-11.584 4.672-4.224 0.064-8.416-1.472-11.616-4.672l-107.040-94.688c-6.272-6.272-6.272-16.48 0-22.752 6.272-6.272 16.48-6.272 22.752 0l95.872 84.832 95.872-84.832c6.272-6.272 16.48-6.272 22.752 0 6.336 6.272 6.336 16.448 0.032 22.752zM268.192 232.544c-3.2 3.2-7.392 4.736-11.584 4.672-4.224 0.064-8.416-1.472-11.616-4.672l-107.040-94.688c-6.272-6.272-6.272-16.48 0-22.752s16.48-6.272 22.752 0l95.872 84.8 95.872-84.8c6.272-6.272 16.48-6.272 22.752 0s6.272 16.48 0 22.752l-107.008 94.688z" />
<glyph unicode="&#x37;" d="M351.296 218.176l-95.872-84.8-95.872 84.8c-6.272 6.272-16.48 6.272-22.752 0-6.272-6.272-6.272-16.48 0-22.752l107.040-94.688c3.2-3.2 7.392-4.736 11.584-4.672 4.192-0.064 8.384 1.44 11.584 4.64l107.040 94.688c6.272 6.272 6.272 16.48 0 22.752s-16.48 6.304-22.752 0.032zM374.048 332.928c-6.272 6.272-16.48 6.272-22.752 0l-95.872-84.8-95.872 84.8c-6.304 6.272-16.512 6.272-22.784 0s-6.272-16.48 0-22.752l107.040-94.688c3.2-3.2 7.392-4.736 11.584-4.672 4.192-0.064 8.416 1.472 11.584 4.672l107.040 94.688c6.336 6.272 6.336 16.448 0.032 22.752z" />
<glyph unicode="&#x38;" d="M132.704 212.992l94.688-107.040c6.272-6.272 16.48-6.272 22.752 0s6.272 16.48 0 22.752l-84.8 95.872 84.8 95.872c6.272 6.272 6.272 16.48 0 22.752s-16.48 6.272-22.752 0l-94.688-107.008c-3.2-3.2-4.704-7.392-4.672-11.584-0.032-4.192 1.472-8.416 4.672-11.616zM364.928 343.232c-6.272 6.272-16.48 6.272-22.752 0l-94.72-107.040c-3.2-3.2-4.736-7.392-4.672-11.584-0.032-4.192 1.472-8.416 4.672-11.616l94.688-107.040c6.272-6.272 16.48-6.272 22.752 0s6.272 16.48 0 22.752l-84.8 95.872 84.8 95.872c6.304 6.304 6.304 16.512 0.032 22.784z" />
<glyph unicode="&#x39;" d="M379.296 235.008l-94.688 107.040c-6.272 6.272-16.48 6.272-22.752 0s-6.272-16.48 0-22.752l84.8-95.872-84.8-95.872c-6.272-6.272-6.272-16.48 0-22.752s16.48-6.272 22.752 0l94.688 107.040c3.2 3.2 4.736 7.392 4.672 11.584 0.032 4.192-1.472 8.384-4.672 11.584zM147.072 104.768c6.272-6.272 16.48-6.272 22.752 0l94.688 107.040c3.2 3.2 4.736 7.392 4.672 11.584 0.064 4.192-1.472 8.416-4.672 11.584l-94.656 107.072c-6.272 6.272-16.48 6.272-22.752 0s-6.272-16.48 0-22.752l84.8-95.872-84.8-95.872c-6.304-6.304-6.304-16.512-0.032-22.784z" />
<glyph unicode="&#x3a;" d="M284.36 282.2c-3.136 3.136-7.232 4.672-11.36 4.672s-8.224-1.536-11.36-4.672l-103.776-103.776c-6.24-6.24-6.24-16.384 0-22.624s16.384-6.24 22.624 0l92.512 92.512 92.512-92.512c6.24-6.24 16.384-6.24 22.624 0s6.24 16.384 0 22.624l-103.776 103.776zM274.056 444.856c-131.968 0-238.944-106.976-238.944-238.944s107.008-238.912 238.944-238.912 238.944 106.976 238.944 238.944-106.976 238.912-238.944 238.912zM274.056-1c-114.112 0-206.944 92.832-206.944 206.944s92.832 206.944 206.944 206.944 206.944-92.864 206.944-206.944-92.832-206.944-206.944-206.944z" />
<glyph unicode="&#x3b;" d="M364.512 259.2l-92.512-92.512-92.512 92.512c-6.24 6.24-16.384 6.24-22.624 0-6.24-6.24-6.24-16.384 0-22.624l103.776-103.776c3.136-3.136 7.264-4.704 11.36-4.672 4.128 0 8.224 1.536 11.36 4.672l103.776 103.776c6.24 6.24 6.24 16.384 0 22.624s-16.384 6.24-22.624 0zM273.152 445.728c-131.904 0-238.848-106.944-238.848-238.848-0.032-131.936 106.912-238.88 238.848-238.88 131.904 0 238.848 106.944 238.848 238.848 0 131.936-106.944 238.88-238.848 238.88zM273.152 0c-114.048 0-206.848 92.8-206.848 206.848s92.8 206.848 206.848 206.848c114.048 0.032 206.848-92.768 206.848-206.848 0-114.048-92.8-206.848-206.848-206.848z" />
<glyph unicode="&#x3c;" d="M323.2 323.136c-6.24 6.24-16.384 6.24-22.624 0l-103.776-103.776c-3.136-3.136-4.672-7.232-4.672-11.36s1.536-8.224 4.672-11.36l103.776-103.776c6.24-6.24 16.384-6.24 22.624 0s6.24 16.384 0 22.624l-92.512 92.512 92.512 92.512c6.24 6.24 6.24 16.384 0 22.624zM272 448c-132.544 0-240-107.456-240-240s107.456-240 240-240 240 107.456 240 240-107.456 240-240 240zM272 0c-114.688 0-208 93.312-208 208s93.312 208 208 208 208-93.312 208-208-93.312-208-208-208z" />
<glyph unicode="&#x3d;" d="M347.2 219.36l-103.776 103.776c-6.24 6.24-16.384 6.24-22.624 0s-6.24-16.384 0-22.624l92.512-92.512-92.512-92.512c-6.24-6.24-6.24-16.384 0-22.624s16.384-6.24 22.624 0l103.776 103.776c3.136 3.136 4.704 7.264 4.672 11.36 0 4.128-1.536 8.224-4.672 11.36zM273.152 445.696c-131.904 0-238.848-106.944-238.848-238.848s106.944-238.848 238.848-238.848 238.848 106.944 238.848 238.848-106.944 238.848-238.848 238.848zM273.152 0c-114.048 0-206.848 92.8-206.848 206.848s92.8 206.848 206.848 206.848 206.848-92.8 206.848-206.848-92.8-206.848-206.848-206.848z" />
<glyph unicode="&#x3e;" d="M284.192 331.296c-3.2 3.2-7.392 4.736-11.584 4.672-4.224 0.064-8.416-1.472-11.616-4.672l-107.040-94.688c-6.272-6.272-6.272-16.48 0-22.752s16.48-6.272 22.752 0l95.872 84.832 95.872-84.832c6.272-6.272 16.48-6.272 22.752 0s6.272 16.48 0 22.752l-107.008 94.688zM284.192 216.544c-3.2 3.2-7.392 4.736-11.584 4.672-4.224 0.064-8.416-1.472-11.616-4.672l-107.040-94.688c-6.272-6.272-6.272-16.48 0-22.752s16.48-6.272 22.752 0l95.872 84.8 95.872-84.8c6.272-6.272 16.48-6.272 22.752 0s6.272 16.48 0 22.752l-107.008 94.688zM273.152 445.696c-131.904 0-238.848-106.944-238.848-238.848s106.944-238.848 238.848-238.848 238.848 106.944 238.848 238.848-106.944 238.848-238.848 238.848zM273.152 0c-114.048 0-206.848 92.8-206.848 206.848s92.8 206.848 206.848 206.848 206.848-92.8 206.848-206.848-92.8-206.848-206.848-206.848z" />
<glyph unicode="&#x3f;" d="M367.296 202.176l-95.872-84.8-95.872 84.8c-6.272 6.272-16.48 6.272-22.752 0-6.272-6.272-6.272-16.48 0-22.752l107.040-94.688c3.2-3.2 7.392-4.736 11.584-4.672 4.192-0.064 8.416 1.472 11.584 4.672l107.040 94.688c6.272 6.272 6.272 16.48 0 22.752s-16.48 6.272-22.752 0zM367.296 316.928l-95.872-84.8-95.872 84.8c-6.304 6.272-16.512 6.272-22.784 0s-6.272-16.48 0-22.752l107.040-94.688c3.2-3.2 7.392-4.736 11.584-4.672 4.192-0.064 8.416 1.472 11.584 4.672l107.040 94.688c6.272 6.272 6.272 16.48 0 22.752s-16.448 6.272-22.72 0zM273.152 445.696c-131.904 0-238.848-106.944-238.848-238.848s106.944-238.848 238.848-238.848 238.848 106.944 238.848 238.848-106.944 238.848-238.848 238.848zM273.152 0c-114.048 0-206.848 92.8-206.848 206.848s92.8 206.848 206.848 206.848 206.848-92.8 206.848-206.848-92.8-206.848-206.848-206.848z" />
<glyph unicode="&#x40;" d="M181.344 208.608l84.8 95.872c6.272 6.272 6.272 16.48 0 22.752s-16.48 6.272-22.752 0l-94.688-107.040c-3.2-3.2-4.736-7.392-4.672-11.584-0.032-4.192 1.472-8.416 4.672-11.616l94.688-107.040c6.272-6.272 16.48-6.272 22.752 0s6.272 16.48 0 22.752l-84.8 95.904zM380.928 327.232c-6.272 6.272-16.48 6.272-22.752 0l-94.72-107.040c-3.2-3.2-4.736-7.392-4.672-11.584-0.032-4.192 1.472-8.416 4.672-11.616l94.688-107.040c6.272-6.272 16.48-6.272 22.752 0s6.272 16.48 0 22.752l-84.8 95.872 84.8 95.872c6.304 6.304 6.304 16.512 0.032 22.784zM272 448c-132.544 0-240-107.456-240-240s107.456-240 240-240 240 107.456 240 240-107.456 240-240 240zM272 0c-114.688 0-208 93.312-208 208s93.312 208 208 208 208-93.312 208-208-93.312-208-208-208z" />
<glyph unicode="&#x41;" d="M395.296 219.008l-94.688 107.040c-6.272 6.272-16.48 6.272-22.752 0s-6.272-16.48 0-22.752l84.8-95.872-84.8-95.872c-6.272-6.272-6.272-16.48 0-22.752s16.48-6.272 22.752 0l94.688 107.040c3.2 3.2 4.736 7.392 4.672 11.584 0.032 4.192-1.472 8.384-4.672 11.584zM285.216 207.424c0.064 4.192-1.472 8.416-4.672 11.584l-94.688 107.040c-6.272 6.272-16.48 6.272-22.752 0s-6.272-16.48 0-22.752l84.8-95.872-84.8-95.872c-6.272-6.272-6.272-16.48 0-22.752s16.48-6.272 22.752 0l94.688 107.040c3.2 3.168 4.736 7.36 4.672 11.584zM272 448c-132.544 0-240-107.456-240-240s107.456-240 240-240 240 107.456 240 240-107.456 240-240 240zM272 0c-114.688 0-208 93.312-208 208s93.312 208 208 208 208-93.312 208-208-93.312-208-208-208z" />
<glyph unicode="&#x42;" d="M143.968 160h223.456c4.576 0 8.64 2.208 11.52 5.632l0.064-0.064c6.24 6.944 6.24 18.208 0 25.152l-111.968 124.064c-6.24 6.944-16.352 6.944-22.56 0-0.16-0.192-0.224-0.448-0.384-0.64l-111.744-123.424c-6.24-6.944-6.24-18.208 0-25.152 0.064-0.064 0.128-0.096 0.192-0.16 2.912-3.328 6.912-5.408 11.424-5.408z" />
<glyph unicode="&#x43;" d="M266.912 165.216c0.16 0.192 0.224 0.448 0.384 0.64l111.712 123.424c6.24 6.944 6.24 18.208 0 25.152-0.064 0.064-0.128 0.096-0.192 0.128-2.88 3.36-6.912 5.44-11.392 5.44h-223.456c-4.576 0-8.64-2.208-11.552-5.632l-0.064 0.064c-6.24-6.944-6.24-18.208 0-25.152l111.968-124.064c6.24-6.944 16.352-6.944 22.592 0z" />
<glyph unicode="&#x44;" d="M289.28 347.648l-124.064-112c-6.944-6.24-6.944-16.352 0-22.56 0.192-0.16 0.448-0.224 0.64-0.384l123.424-111.712c6.944-6.24 18.208-6.24 25.152 0 0.064 0.064 0.064 0.128 0.128 0.192 3.36 2.88 5.44 6.912 5.44 11.392v223.456c0 4.576-2.208 8.64-5.632 11.52l0.064 0.064c-6.944 6.24-18.208 6.24-25.152 0.032z" />
<glyph unicode="&#x45;" d="M222.304 100.384l122.432 112.256c6.848 6.24 6.848 16.384 0 22.624-0.192 0.16-0.448 0.224-0.64 0.384l-121.792 112c-6.848 6.24-17.984 6.24-24.832 0-0.032-0.064-0.064-0.16-0.128-0.224-3.264-2.88-5.344-6.912-5.344-11.424v-224c0-4.576 2.176-8.64 5.536-11.552l-0.064-0.064c6.88-6.272 17.984-6.272 24.832 0z" />
<glyph unicode="&#x46;" d="M272 448c-132.544 0-240-107.456-240-240s107.456-240 240-240 240 107.456 240 240-107.456 240-240 240zM272 0c-114.688 0-208 93.312-208 208s93.312 208 208 208 208-93.312 208-208-93.312-208-208-208zM281.6 282.784c-5.44 6.944-14.304 6.944-19.744 0-0.16-0.192-0.192-0.448-0.352-0.64l-97.728-123.424c-5.44-6.944-5.44-18.208 0-25.152 0.032-0.064 0.128-0.064 0.16-0.128 2.528-3.36 6.048-5.44 9.984-5.44h195.52c4 0 7.552 2.208 10.080 5.632l0.064-0.064c5.44 6.944 5.44 18.208 0 25.152l-97.984 124.064z" />
<glyph unicode="&#x47;" d="M272 448c-132.544 0-240-107.456-240-240s107.456-240 240-240 240 107.456 240 240-107.456 240-240 240zM272 0c-114.688 0-208 93.312-208 208s93.312 208 208 208 208-93.312 208-208-93.312-208-208-208zM379.744 250.592c-2.528 3.328-6.048 5.408-9.984 5.408h-195.52c-4 0-7.552-2.208-10.080-5.632l-0.064 0.064c-5.44-6.944-5.44-18.208 0-25.152l97.984-124.064c5.44-6.944 14.304-6.944 19.744 0 0.16 0.192 0.192 0.448 0.352 0.64l97.76 123.424c5.44 6.944 5.44 18.208 0 25.152-0.064 0.064-0.128 0.096-0.192 0.16z" />
<glyph unicode="&#x48;" d="M272 448c-132.544 0-240-107.456-240-240s107.456-240 240-240 240 107.456 240 240-107.456 240-240 240zM272 0c-114.688 0-208 93.312-208 208s93.312 208 208 208 208-93.312 208-208-93.312-208-208-208zM314.432 316.224c-6.944 5.44-18.208 5.44-25.152 0l-124.064-97.984c-6.944-5.44-6.944-14.304 0-19.744 0.192-0.16 0.448-0.192 0.64-0.352l123.424-97.76c6.944-5.44 18.208-5.44 25.152 0 0.064 0.032 0.064 0.128 0.128 0.16 3.36 2.56 5.44 6.080 5.44 10.016v195.52c0 4-2.208 7.552-5.632 10.080l0.064 0.064z" />
<glyph unicode="&#x49;" d="M272 448c-132.544 0-240-107.456-240-240s107.456-240 240-240 240 107.456 240 240-107.456 240-240 240zM272 0c-114.688 0-208 93.312-208 208s93.312 208 208 208 208-93.312 208-208-93.312-208-208-208zM378.144 218.464l-123.424 97.76c-6.944 5.44-18.208 5.44-25.152 0-0.064-0.064-0.096-0.128-0.16-0.16-3.328-2.528-5.408-6.048-5.408-9.984v-195.52c0-4 2.208-7.552 5.632-10.080l-0.064-0.064c6.944-5.44 18.208-5.44 25.152 0l124.064 97.984c6.944 5.44 6.944 14.304 0 19.744-0.192 0.16-0.448 0.192-0.64 0.32z" />
<glyph unicode="&#x4a;" d="M36.672 228.672l96-96c6.24-6.24 16.384-6.24 22.624 0s6.24 16.384 0 22.624l-68.672 68.704h233.376c64 0 96-59.072 96-112 0-8.832 7.168-16 16-16s16 7.168 16 16c0 70.592-32 144-128 144h-233.376l68.672 68.672c6.24 6.24 6.24 16.384 0 22.624s-16.384 6.24-22.624 0l-96-96c-6.24-6.24-6.24-16.352 0-22.624z" />
<glyph unicode="&#x4b;" d="M144 192h256c8.832 0 16 7.168 16 16s-7.168 16-16 16h-256c-8.832 0-16-7.168-16-16s7.168-16 16-16z" />
<glyph unicode="&#x4c;" d="M144 192h112v-112c0-8.832 7.168-16 16-16s16 7.168 16 16v112h112c8.832 0 16 7.168 16 16s-7.168 16-16 16h-112v112c0 8.832-7.168 16-16 16s-16-7.168-16-16v-112h-112c-8.832 0-16-7.168-16-16s7.168-16 16-16z" />
<glyph unicode="&#x4d;" d="M144.8 112.8c6.24-6.24 16.384-6.24 22.624 0l88.576 88.576 88.576-88.576c6.24-6.24 16.384-6.24 22.624 0s6.24 16.384 0 22.624l-88.576 88.576 88.576 88.576c6.24 6.24 6.24 16.384 0 22.624s-16.384 6.24-22.624 0l-88.576-88.576-88.576 88.576c-6.24 6.24-16.384 6.24-22.624 0s-6.24-16.384 0-22.624l88.576-88.576-88.576-88.576c-6.24-6.24-6.24-16.384 0-22.624z" />
<glyph unicode="&#x4e;" d="M220.608 70.592c0.64-0.512 1.024-1.216 1.696-1.696 0.96-0.64 2.048-0.768 3.072-1.216 1.216-0.576 2.4-1.12 3.68-1.472 1.248-0.32 2.464-0.48 3.744-0.576 1.824-0.192 3.584-0.192 5.376 0.064 0.736 0.128 1.44 0.32 2.176 0.512 2.208 0.544 4.256 1.408 6.272 2.624 0.352 0.224 0.64 0.48 0.992 0.704 1.312 0.896 2.72 1.568 3.84 2.784 0.8 0.864 1.152 1.984 1.792 2.944 0.032 0.032 0.096 0.064 0.096 0.096l190.688 305.632c6.784 10.336 3.872 24.224-6.496 31.008s-24.224 3.872-31.008-6.496l-176.128-282.272-97.408 94.752c-9.088 8.416-23.232 7.872-31.648-1.216-8.384-9.088-7.84-23.264 1.248-31.648l117.184-114.016c0.224-0.224 0.544-0.288 0.832-0.512z" />
<glyph unicode="&#x4f;" d="M272 448c-132.544 0-240-107.456-240-240s107.456-240 240-240 240 107.456 240 240-107.456 240-240 240zM272 0c-114.688 0-208 93.312-208 208s93.312 208 208 208 208-93.312 208-208-93.312-208-208-208zM400 224h-256c-8.832 0-16-7.168-16-16s7.168-16 16-16h256c8.832 0 16 7.168 16 16s-7.168 16-16 16z" />
<glyph unicode="&#x50;" d="M272 448c-132.544 0-240-107.456-240-240s107.456-240 240-240 240 107.456 240 240-107.456 240-240 240zM272 0c-114.688 0-208 93.312-208 208s93.312 208 208 208 208-93.312 208-208-93.312-208-208-208zM400 224h-112v112c0 8.832-7.168 16-16 16s-16-7.168-16-16v-112h-112c-8.832 0-16-7.168-16-16s7.168-16 16-16h112v-112c0-8.832 7.168-16 16-16s16 7.168 16 16v112h112c8.832 0 16 7.168 16 16s-7.168 16-16 16z" />
<glyph unicode="&#x51;" d="M272 448c-132.544 0-240-107.456-240-240s107.456-240 240-240 240 107.456 240 240-107.456 240-240 240zM272 0c-114.688 0-208 93.312-208 208s93.312 208 208 208 208-93.312 208-208-93.312-208-208-208zM360.576 319.2l-87.968-87.968-78.88 87.968c-6.24 6.24-16.384 6.24-22.624 0-6.24-6.24-6.24-16.384 0-22.624l78.912-87.968-89.184-89.184c-6.24-6.24-6.24-16.384 0-22.624s16.384-6.24 22.624 0l87.968 87.968 78.912-87.968c6.24-6.24 16.384-6.24 22.624 0s6.24 16.384 0 22.624l-78.944 87.968 89.184 89.184c6.24 6.24 6.24 16.384 0 22.624s-16.384 6.24-22.624 0z" />
<glyph unicode="&#x52;" d="M257.344 480c-141.376 0-256-114.624-256-256s114.624-256 256-256 256 114.624 256 256-114.624 256-256 256zM257.344 0c-123.52 0-224 100.48-224 224s100.48 224 224 224 224-100.48 224-224-100.512-224-224-224zM369.472 325.824c-10.336 6.784-24.224 3.872-31.008-6.496l-108.032-165.088-51.648 47.808c-9.088 8.384-23.264 7.84-31.68-1.248s-7.84-23.232 1.248-31.648l71.392-66.048c0.256-0.224 0.576-0.288 0.832-0.512 0.64-0.512 1.024-1.216 1.696-1.696 0.96-0.64 2.048-0.768 3.072-1.216 1.216-0.576 2.4-1.12 3.68-1.472 1.248-0.32 2.464-0.48 3.744-0.576 1.824-0.192 3.584-0.192 5.376 0.064 0.736 0.128 1.44 0.32 2.176 0.512 2.208 0.544 4.256 1.408 6.272 2.624 0.352 0.224 0.64 0.48 0.992 0.704 1.312 0.896 2.72 1.568 3.84 2.784 0.8 0.864 1.152 1.984 1.792 2.944 0.032 0.032 0.096 0.064 0.096 0.096l122.624 187.424c6.784 10.368 3.872 24.256-6.464 31.040z" />
<glyph unicode="&#x53;" d="M304 480c-114.88 0-208-93.12-208-208 0-49.44 17.312-94.752 46.112-130.464l-135.584-135.584c-8.672-8.672-8.672-22.752 0-31.424s22.752-8.672 31.424 0l135.584 135.584c35.712-28.8 81.024-46.112 130.464-46.112 114.88 0 208 93.12 208 208s-93.12 208-208 208zM304 96c-97.056 0-176 78.944-176 176s78.944 176 176 176 176-78.944 176-176-78.944-176-176-176zM400 288h-192c-8.832 0-16-7.168-16-16s7.168-16 16-16h192c8.832 0 16 7.168 16 16s-7.168 16-16 16z" />
<glyph unicode="&#x54;" d="M304 480c-114.88 0-208-93.12-208-208 0-49.44 17.312-94.752 46.112-130.464l-135.584-135.584c-8.672-8.672-8.672-22.752 0-31.424s22.752-8.672 31.424 0l135.584 135.584c35.712-28.8 81.024-46.112 130.464-46.112 114.88 0 208 93.12 208 208s-93.12 208-208 208zM304 96c-97.056 0-176 78.944-176 176s78.944 176 176 176 176-78.944 176-176-78.944-176-176-176zM400 288h-80v80c0 8.832-7.168 16-16 16s-16-7.168-16-16v-80h-80c-8.832 0-16-7.168-16-16s7.168-16 16-16h80v-80c0-8.832 7.168-16 16-16s16 7.168 16 16v80h80c8.832 0 16 7.168 16 16s-7.168 16-16 16z" />
<glyph unicode="&#x55;" d="M304 480c-114.88 0-208-93.12-208-208 0-49.44 17.344-94.816 46.144-130.528l-137.472-137.472c-8.64-8.64-8.64-22.688 0-31.328s22.688-8.64 31.328 0l137.472 137.472c35.712-28.8 81.088-46.144 130.528-46.144 114.88 0 208 93.12 208 208s-93.12 208-208 208zM304 96c-97.056 0-176 78.944-176 176s78.944 176 176 176 176-78.944 176-176-78.944-176-176-176z" />
<glyph unicode="&#x56;" d="M416 416h-320c-17.664 0-32-14.336-32-32v-320c0-17.664 14.336-32 32-32h320c17.664 0 32 14.336 32 32v320c0 17.664-14.336 32-32 32zM416 64h-320v320h320v-320z" />
<glyph unicode="&#x57;" d="M416 416h-320c-17.664 0-32-14.336-32-32v-320c0-17.664 14.336-32 32-32h320c17.664 0 32 14.336 32 32v320c0 17.664-14.336 32-32 32zM416 64h-320v320h320v-320zM192 128h128c17.664 0 32 14.336 32 32v128c0 17.664-14.336 32-32 32h-128c-17.664 0-32-14.336-32-32v-128c0-17.664 14.336-32 32-32z" />
<glyph unicode="&#x58;" d="M128 320v-224c0-17.664 14.336-32 32-32h224c17.664 0 32 14.336 32 32v224c0 17.664-14.336 32-32 32h-224c-17.664 0-32-14.336-32-32zM384 96h-224v224h224v-224zM208 192h128c8.832 0 16 7.168 16 16s-7.168 16-16 16h-128c-8.832 0-16-7.168-16-16s7.168-16 16-16z" />
<glyph unicode="&#x59;" d="M128 320v-224c0-17.664 14.336-32 32-32h224c17.664 0 32 14.336 32 32v224c0 17.664-14.336 32-32 32h-224c-17.664 0-32-14.336-32-32zM384 96h-224v224h224v-224zM208 192h48v-48c0-8.832 7.168-16 16-16s16 7.168 16 16v48h48c8.832 0 16 7.168 16 16s-7.168 16-16 16h-48v48c0 8.832-7.168 16-16 16s-16-7.168-16-16v-48h-48c-8.832 0-16-7.168-16-16s7.168-16 16-16z" />
<glyph unicode="&#x5a;" d="M416 64h-320v320h236.032l19.968 32h-256c-17.664 0-32-14.336-32-32v-320c0-17.664 14.336-32 32-32h320c17.664 0 32 14.336 32 32v211.296l-32-51.296v-160zM469.856 444.352c-3.776 2.464-8.032 3.648-12.224 3.648-7.296 0-14.464-3.584-18.752-10.144l-173.952-250.944-67.296 76.8c-9.12 8.416-23.264 7.872-31.68-1.216s-7.84-23.264 1.248-31.648l80.896-92.32c0.512-0.832 1.312-1.472 1.952-2.24l2.048-2.336c0.256-0.224 0.576-0.288 0.832-0.512 0.64-0.512 1.024-1.216 1.696-1.696 1.376-0.896 2.88-1.472 4.384-2.016 0.352-0.128 0.64-0.352 0.992-0.448 2.24-0.736 4.576-1.184 6.88-1.184 0.096 0 0.192 0.064 0.288 0.064 6.080-0.032 12.128 2.208 16.576 7.008 0.832 0.896 1.152 1.984 1.824 2.976 0.032 0.032 0.064 0.064 0.096 0.096l190.688 275.104c6.752 10.336 3.872 24.224-6.496 31.008z" />
<glyph unicode="&#x5b;" d="M256 416c-106.048 0-192-85.952-192-192s85.952-192 192-192 192 85.952 192 192-85.952 192-192 192zM256 64c-88.224 0-160 71.776-160 160s71.776 160 160 160 160-71.776 160-160-71.776-160-160-160z" />
<glyph unicode="&#x5c;" d="M256 416c-106.048 0-192-85.952-192-192s85.952-192 192-192 192 85.952 192 192-85.952 192-192 192zM256 64c-88.224 0-160 71.776-160 160s71.776 160 160 160 160-71.776 160-160-71.776-160-160-160zM160 224c0-53.019 42.981-96 96-96s96 42.981 96 96c0 53.019-42.981 96-96 96-53.019 0-96-42.981-96-96z" />
<glyph unicode="&#x5d;" d="M256 480c-141.376 0-256-114.624-256-256s114.624-256 256-256 256 114.624 256 256-114.624 256-256 256zM256 0c-123.52 0-224 100.48-224 224s100.48 224 224 224 224-100.48 224-224-100.48-224-224-224zM320 320h-128c-17.664 0-32-14.336-32-32v-128c0-17.664 14.336-32 32-32h128c17.664 0 32 14.336 32 32v128c0 17.664-14.336 32-32 32z" />
<glyph unicode="&#x5e;" d="M320 128c17.664 0 32 14.336 32 32v128c0 17.664-14.336 32-32 32h-128c-17.664 0-32-14.336-32-32v-128c0-17.664 14.336-32 32-32h128z" />
<glyph unicode="&#x5f;" d="M256-32c141.376 0 256 114.624 256 256s-114.624 256-256 256-256-114.624-256-256 114.624-256 256-256zM256 448c123.52 0 224-100.48 224-224s-100.48-224-224-224-224 100.48-224 224 100.48 224 224 224zM192 128c17.664 0 32 14.336 32 32v128c0 17.664-14.336 32-32 32s-32-14.336-32-32v-128c0-17.664 14.336-32 32-32zM320 128c17.664 0 32 14.336 32 32v128c0 17.664-14.336 32-32 32s-32-14.336-32-32v-128c0-17.664 14.336-32 32-32z" />
<glyph unicode="&#x60;" d="M192 320c-17.664 0-32-14.336-32-32v-128c0-17.664 14.336-32 32-32s32 14.336 32 32v128c0 17.664-14.336 32-32 32zM288 160c0-17.664 14.336-32 32-32s32 14.336 32 32v128c0 17.664-14.336 32-32 32s-32-14.336-32-32v-128z" />
<glyph unicode="&#x61;" d="M112 224h288c8.832 0 16 7.168 16 16s-7.168 16-16 16h-288c-8.832 0-16-7.168-16-16s7.168-16 16-16zM112 320h288c8.832 0 16 7.168 16 16s-7.168 16-16 16h-288c-8.832 0-16-7.168-16-16s7.168-16 16-16zM112 128h288c8.832 0 16 7.168 16 16s-7.168 16-16 16h-288c-8.832 0-16-7.168-16-16s7.168-16 16-16z" />
<glyph unicode="&#x62;" d="M480 448h-416c-17.664 0-32-14.336-32-32v-416c0-17.664 14.336-32 32-32h416c17.664 0 32 14.336 32 32v416c0 17.664-14.336 32-32 32zM480 0h-416v416h416v-416zM144 192h256c8.832 0 16 7.168 16 16s-7.168 16-16 16h-256c-8.832 0-16-7.168-16-16s7.168-16 16-16zM144 288h256c8.832 0 16 7.168 16 16s-7.168 16-16 16h-256c-8.832 0-16-7.168-16-16s7.168-16 16-16zM144 96h256c8.832 0 16 7.168 16 16s-7.168 16-16 16h-256c-8.832 0-16-7.168-16-16s7.168-16 16-16z" />
<glyph unicode="&#x63;" d="M272 448c-132.544 0-240-107.456-240-240s107.456-240 240-240 240 107.456 240 240-107.456 240-240 240zM272 0c-114.688 0-208 93.312-208 208s93.312 208 208 208 208-93.312 208-208-93.312-208-208-208zM400 224h-256c-8.832 0-16-7.168-16-16s7.168-16 16-16h256c8.832 0 16 7.168 16 16s-7.168 16-16 16zM400 320h-256c-8.832 0-16-7.168-16-16s7.168-16 16-16h256c8.832 0 16 7.168 16 16s-7.168 16-16 16zM400 128h-256c-8.832 0-16-7.168-16-16s7.168-16 16-16h256c8.832 0 16 7.168 16 16s-7.168 16-16 16z" />
<glyph unicode="&#x64;" d="M176 224h256c8.832 0 16 7.168 16 16s-7.168 16-16 16h-256c-8.832 0-16-7.168-16-16s7.168-16 16-16zM176 352h256c8.832 0 16 7.168 16 16s-7.168 16-16 16h-256c-8.832 0-16-7.168-16-16s7.168-16 16-16zM176 96h256c8.832 0 16 7.168 16 16s-7.168 16-16 16h-256c-8.832 0-16-7.168-16-16s7.168-16 16-16zM64 368c0-8.837 7.163-16 16-16s16 7.163 16 16c0 8.837-7.163 16-16 16-8.837 0-16-7.163-16-16zM64 240c0-8.837 7.163-16 16-16s16 7.163 16 16c0 8.837-7.163 16-16 16-8.837 0-16-7.163-16-16zM64 112c0-8.837 7.163-16 16-16s16 7.163 16 16c0 8.837-7.163 16-16 16-8.837 0-16-7.163-16-16z" />
<glyph unicode="&#x65;" d="M432 256h-256c-8.832 0-16-7.168-16-16s7.168-16 16-16h256c8.832 0 16 7.168 16 16s-7.168 16-16 16zM432 384h-256c-8.832 0-16-7.168-16-16s7.168-16 16-16h256c8.832 0 16 7.168 16 16s-7.168 16-16 16zM432 128h-256c-8.832 0-16-7.168-16-16s7.168-16 16-16h256c8.832 0 16 7.168 16 16s-7.168 16-16 16zM111.36 328.544v78.912h-9.12l-17.248-9.216 2.080-8.128 13.728 7.392h0.224v-68.96zM85.984 215.232l-8.352-8.128v-6.56h50.368v8.864h-35.456v0.224l6.304 5.824c16.64 16.032 27.2 27.808 27.2 42.368 0 11.296-7.168 22.944-24.16 22.944-9.12 0-16.864-3.392-22.336-8.032l3.392-7.52c3.648 3.040 9.6 6.688 16.768 6.688 11.776 0 15.648-7.392 15.648-15.424-0.096-11.872-9.216-22.080-29.376-41.248zM99.104 81.152c-7.392 0-14.432 3.040-17.472 4.96l-2.912-8.256c3.872-2.56 11.648-5.344 20.512-5.344 18.944 0 28.768 11.040 28.768 23.68 0 11.040-7.904 18.336-17.6 20.288v0.224c9.728 3.52 14.56 10.432 14.56 18.592 0 9.6-7.040 18.816-22.592 18.816-8.512 0-16.512-3.040-20.64-6.080l2.784-7.776c3.392 2.432 9.472 5.216 15.776 5.216 9.824 0 13.856-5.6 13.856-11.904 0-9.344-9.824-13.344-17.6-13.344h-5.952v-8h5.952c10.336 0 20.288-4.736 20.384-15.776 0.16-6.56-4.096-15.296-17.824-15.296z" />
<glyph unicode="&#x66;" d="M432 384h-48c0 17.664-14.336 32-32 32h-32c-17.664 0-32-14.336-32-32h-208c-8.832 0-16-7.168-16-16s7.168-16 16-16h208c0-17.664 14.336-32 32-32h32c17.664 0 32 14.336 32 32h48c8.832 0 16 7.168 16 16s-7.168 16-16 16zM352 352h-32v32h32v-32zM432 256h-208c0 17.664-14.336 32-32 32h-32c-17.664 0-32-14.336-32-32h-48c-8.832 0-16-7.168-16-16s7.168-16 16-16h48c0-17.664 14.336-32 32-32h32c17.664 0 32 14.336 32 32h208c8.832 0 16 7.168 16 16s-7.168 16-16 16zM192 224h-32v32h32v-32zM432 128h-112c0 17.664-14.336 32-32 32h-32c-17.664 0-32-14.336-32-32h-144c-8.832 0-16-7.168-16-16s7.168-16 16-16h144c0-17.664 14.336-32 32-32h32c17.664 0 32 14.336 32 32h112c8.832 0 16 7.168 16 16s-7.168 16-16 16zM288 96h-32v32h32v-32z" />
<glyph unicode="&#x67;" d="M160 352v48c0 8.832-7.168 16-16 16s-16-7.168-16-16v-48c-17.664 0-32-14.336-32-32v-32c0-17.664 14.336-32 32-32v-208c0-8.832 7.168-16 16-16s16 7.168 16 16v208c17.664 0 32 14.336 32 32v32c0 17.664-14.336 32-32 32zM128 320h32v-32h-32v32zM288 192v208c0 8.832-7.168 16-16 16s-16-7.168-16-16v-208c-17.664 0-32-14.336-32-32v-32c0-17.664 14.336-32 32-32v-48c0-8.832 7.168-16 16-16s16 7.168 16 16v48c17.664 0 32 14.336 32 32v32c0 17.664-14.336 32-32 32zM256 160h32v-32h-32v32zM416 288v112c0 8.832-7.168 16-16 16s-16-7.168-16-16v-112c-17.664 0-32-14.336-32-32v-32c0-17.664 14.336-32 32-32v-144c0-8.832 7.168-16 16-16s16 7.168 16 16v144c17.664 0 32 14.336 32 32v32c0 17.664-14.336 32-32 32zM384 256h32v-32h-32v32z" />
<glyph unicode="&#x68;" d="M64-32h384c17.664 0 32 14.336 32 32v448c0 17.664-14.336 32-32 32h-384c-17.664 0-32-14.336-32-32v-448c0-17.664 14.336-32 32-32zM64 448h384v-448h-384v448zM368 384h-128c-8.832 0-16-7.168-16-16s7.168-16 16-16h128c8.832 0 16 7.168 16 16s-7.168 16-16 16zM368 288h-224c-8.832 0-16-7.168-16-16s7.168-16 16-16h224c8.832 0 16 7.168 16 16s-7.168 16-16 16zM368 192h-224c-8.832 0-16-7.168-16-16s7.168-16 16-16h224c8.832 0 16 7.168 16 16s-7.168 16-16 16zM368 96h-224c-8.832 0-16-7.168-16-16s7.168-16 16-16h224c8.832 0 16 7.168 16 16s-7.168 16-16 16z" />
<glyph unicode="&#x69;" d="M64 32h32v-32c0-17.664 14.336-32 32-32h320c17.664 0 32 14.336 32 32v384c0 17.664-14.336 32-32 32h-32v32c0 17.664-14.336 32-32 32h-320c-17.664 0-32-14.336-32-32v-384c0-17.664 14.336-32 32-32zM384 64h-320v384h320v-384zM448 384v-384h-320v32h256c17.664 0 32 14.336 32 32v320h32zM160 368c0-8.832 7.168-16 16-16h160c8.832 0 16 7.168 16 16s-7.168 16-16 16h-160c-8.832 0-16-7.168-16-16zM112 256h224c8.832 0 16 7.168 16 16s-7.168 16-16 16h-224c-8.832 0-16-7.168-16-16s7.168-16 16-16zM112 192h224c8.832 0 16 7.168 16 16s-7.168 16-16 16h-224c-8.832 0-16-7.168-16-16s7.168-16 16-16zM112 128h224c8.832 0 16 7.168 16 16s-7.168 16-16 16h-224c-8.832 0-16-7.168-16-16s7.168-16 16-16z" />
<glyph unicode="&#x6a;" d="M481.952-1.952l-33.632 101.504-271.52 271.52-67.872-67.872 271.52-271.52zM63.68 348.448l67.872 67.872-33.6 33.6c-18.752 18.752-49.12 18.752-67.872 0-18.752-18.72-18.752-49.152 0-67.872l33.6-33.6z" />
<glyph unicode="&#x6b;" d="M329.92 92.512l86.080-28.512-28.512 86.080-164.48 164.48-57.568-57.568zM131.552 290.88l57.568 57.568-42.368 42.368c-15.904 15.904-41.664 15.904-57.568 0s-15.904-41.664 0-57.568l42.368-42.368zM480 480h-448c-17.664 0-32-14.336-32-32v-448c0-17.664 14.336-32 32-32h448c17.664 0 32 14.336 32 32v448c0 17.664-14.336 32-32 32zM480 0h-448v448h448v-448z" />
<glyph unicode="&#x6c;" d="M338.752 141.248l-28.512 86.080-164.48 164.48-57.568-57.568 164.48-164.48zM11.936 468.064c-15.904-15.904-15.904-41.664 0-57.568l42.368-42.368 57.568 57.568-42.368 42.368c-15.904 15.904-41.664 15.904-57.568 0zM480 384h-226.848l32-32h194.848v-352h-352v194.848l-32 32v-226.848c0-17.664 14.336-32 32-32h352c17.664 0 32 14.336 32 32v352c0 17.664-14.336 32-32 32z" />
<glyph unicode="&#x6d;" d="M480 448h-144.512c-17.664 0-37.984-8.992-47.488-32 0 0-4.16-29.344-32-32h-224c-17.664 0-32-13.824-32-31.488v-288.512c0-17.664 14.336-32 32-32h448c17.664 0 32 14.336 32 32v352c0 17.664-14.336 32-32 32zM480 352.512v-288.512h-448v288h224c1.024 0 2.016 0.064 3.040 0.16 30.016 2.848 48.576 23.84 57.152 45.44 8.32 20.896 22.816 18.4 22.816 18.4h140.992v-63.488z" />
<glyph unicode="&#x6e;" d="M512 352.512v63.488c0 17.664-14.336 32-32 32h-160c-17.664 0-32-14.336-32-32 0 0-4.16-29.344-32-32h-224c-17.664 0-32-13.824-32-31.488v-32.512h512v32.512zM32 0h448c17.664 0 32 14.336 32 32v256h-512v-256c0-17.664 14.336-32 32-32zM32 256h448v-224h-448v224z" />
<glyph unicode="&#x6f;" d="M448 416h-112.512c-17.664 0-37.984-8.992-47.488-32 0 0-4.16-29.344-32-32h-224c-17.664 0-32-13.824-32-31.488v-288.512c0-17.664 14.336-32 32-32h416c17.664 0 32 14.336 32 32v352c0 17.664-14.336 32-32 32zM448 320.512v-288.512h-416v288h224c1.024 0 2.016 0.064 3.040 0.16 30.016 2.848 48.576 23.872 57.152 45.472 8.32 20.864 22.816 18.368 22.816 18.368h108.992v-63.488zM320 192h-64v64c0 8.832-7.168 16-16 16s-16-7.168-16-16v-64h-64c-8.832 0-16-7.168-16-16s7.168-16 16-16h64v-64c0-8.832 7.168-16 16-16s16 7.168 16 16v64h64c8.832 0 16 7.168 16 16s-7.168 16-16 16z" />
<glyph unicode="&#x70;" d="M256 480c-141.376 0-256-114.624-256-256s114.624-256 256-256 256 114.624 256 256-114.624 256-256 256zM256 0c-123.52 0-224 100.48-224 224s100.48 224 224 224 224-100.48 224-224-100.48-224-224-224zM256 288c-17.664 0-32-14.336-32-32v-160c0-17.664 14.336-32 32-32s32 14.336 32 32v160c0 17.664-14.336 32-32 32zM224 351.488c0-17.673 14.327-32 32-32s32 14.327 32 32c0 17.673-14.327 32-32 32-17.673 0-32-14.327-32-32z" />
<glyph unicode="&#x71;" d="M371.424 470.624c-6.016 6.016-14.144 9.376-22.656 9.376h-185.536c-8.48 0-16.64-3.36-22.624-9.376l-131.2-131.232c-6.048-5.984-9.408-14.112-9.408-22.624v-185.568c0-8.48 3.36-16.64 9.376-22.624l131.2-131.232c6.016-5.984 14.144-9.344 22.656-9.344h185.568c8.48 0 16.64 3.36 22.624 9.376l131.2 131.232c6.016 5.984 9.376 14.112 9.376 22.624v185.536c0 8.48-3.36 16.64-9.376 22.624l-131.2 131.232zM480 131.232l-131.232-131.232h-185.536l-131.232 131.232v185.536l131.232 131.232h185.568l131.2-131.232v-185.536zM256 384c-17.664 0-32-14.336-32-32v-160c0-17.664 14.336-32 32-32s32 14.336 32 32v160c0 17.664-14.336 32-32 32zM224 96c0-17.673 14.327-32 32-32s32 14.327 32 32c0 17.673-14.327 32-32 32-17.673 0-32-14.327-32-32z" />
<glyph unicode="&#x72;" d="M256 480c-141.376 0-256-114.624-256-256s114.624-256 256-256 256 114.624 256 256-114.624 256-256 256zM256 0c-123.52 0-224 100.48-224 224s100.48 224 224 224 224-100.48 224-224-100.48-224-224-224zM256 384c-17.664 0-32-14.336-32-32v-160c0-17.664 14.336-32 32-32s32 14.336 32 32v160c0 17.664-14.336 32-32 32zM224 96.512c0-17.673 14.327-32 32-32s32 14.327 32 32c0 17.673-14.327 32-32 32-17.673 0-32-14.327-32-32z" />
<glyph unicode="&#x73;" d="M506.24 47.072l-222.016 416c-5.536 10.4-16.384 16.928-28.192 16.928h-0.032c-11.808 0-22.624-6.496-28.192-16.896l-223.008-416c-5.312-9.92-5.024-21.888 0.736-31.552 5.792-9.632 16.224-15.552 27.456-15.552h444.992c11.232 0 21.664 5.888 27.456 15.552 5.792 9.632 6.080 21.6 0.8 31.52zM32.992 32l223.008 416 222.016-416h-445.024zM224 287.488v-96c0-17.664 14.336-32 32-32s32 14.336 32 32v96c0 17.664-14.336 32-32 32s-32-14.304-32-32zM224 96c0-17.673 14.327-32 32-32s32 14.327 32 32c0 17.673-14.327 32-32 32-17.673 0-32-14.327-32-32z" />
<glyph unicode="&#x74;" d="M256 480c-141.376 0-256-114.624-256-256s114.624-256 256-256 256 114.624 256 256-114.624 256-256 256zM256 0c-123.52 0-224 100.48-224 224s100.48 224 224 224 224-100.48 224-224-100.48-224-224-224zM220.384 63.552c0 0 0 0 0 0 0-18.204 14.756-32.96 32.96-32.96 18.204 0 32.96 14.757 32.96 32.96 0 0 0 0 0 0 0 0 0 0 0 0 0 18.204-14.757 32.96-32.96 32.96-18.203 0-32.96-14.757-32.96-32.96s0 0 0 0zM253.344 416c-62.048 0-128-45.088-128-128.672 0-17.664 14.304-32 32-32s32 14.336 32 32c0 44.448 33.184 64.672 64 64.672 23.904 0 64-7.008 64-54.016 0-16.672-4.384-36.128-36.768-53.984-22.016-12.064-59.232-43.392-59.232-84 0-17.664 14.304-32 32-32s32 14.336 32 32c0 5.952 12.672 20.576 26.080 27.968 46.368 25.536 69.92 62.56 69.92 110.016 0 81.536-64.288 118.016-128 118.016z" />
<glyph unicode="&#x75;" d="M220.384 63.552c0 0 0 0 0 0 0-18.204 14.756-32.96 32.96-32.96 18.204 0 32.96 14.757 32.96 32.96 0 0 0 0 0 0 0 0 0 0 0 0 0 18.204-14.757 32.96-32.96 32.96-18.203 0-32.96-14.757-32.96-32.96s0 0 0 0zM311.424 187.968c46.368 25.536 69.92 62.56 69.92 110.016 0 81.504-64.288 118.016-128 118.016-62.048 0-128-45.088-128-128.672 0-17.664 14.304-32 32-32s32 14.336 32 32c0 44.448 33.184 64.672 64 64.672 23.904 0 64-7.008 64-54.016 0-16.672-4.384-36.128-36.768-53.984-22.016-12.064-59.232-43.392-59.232-84 0-17.664 14.304-32 32-32s32 14.336 32 32c0 5.952 12.64 20.576 26.080 27.968z" />
<glyph unicode="&#x76;" d="M30.368 9.888c2.624-5.632 8.288-9.216 14.496-9.216 45.92 0 84.768 11.168 128.896 37.184 21.408-3.392 63.68-7.584 82.24-7.584 140.096 0 254.048 93.536 254.048 208.544s-113.952 208.512-254.048 208.512-254.048-93.504-254.048-208.512c0-54.208 26.144-106.592 72.16-145.408-10.432-23.68-24.352-46.016-41.504-66.464-3.968-4.8-4.864-11.456-2.24-17.056zM33.952 238.816c0 97.344 99.616 176.544 222.048 176.544s222.048-79.2 222.048-176.544-99.616-176.544-222.048-176.544c-18.368 0-66.176 4.928-82.336 8.064-3.904 0.704-7.968-0.032-11.36-2.048-29.824-18.24-55.84-28.672-83.68-33.088 12 18.176 21.984 37.376 29.76 57.376 2.592 6.688 0.48 14.24-5.248 18.56-44.64 33.792-69.184 79.168-69.184 127.68z" />
<glyph unicode="&#x77;" d="M446.56 291.36c2.816-12.672 4.448-25.696 4.448-39.072 0-103.296-87.68-189.408-203.136-207.904 24.416-9.856 51.776-15.616 80.928-15.616 27.488 0 53.44 5.056 76.864 13.856 29.664-10.112 62.048-12.736 88.832-12.736-13.92 16.704-23.584 33.088-30.496 47.488 29.696 26.496 48 61.6 48 100.256 0 45.696-25.504 86.432-65.44 113.728zM23.552 73.312c2.784-5.28 8.256-8.576 14.176-8.576 0.256 0 0.544 0 0.768 0.032 16.928 0.8 50.592 12.032 86.24 34.656 19.072-3.36 61.792-9.696 76.704-9.696 112.544 0 200.672 78.368 200.672 178.432 0 98.4-89.984 178.432-200.672 178.432s-200.608-80-200.608-178.4c0-45.792 20.16-90.048 55.648-123.168-7.968-19.392-18.528-37.728-31.424-54.528-3.808-4.928-4.384-11.648-1.504-17.184zM32.832 268.192c0 80.736 75.648 146.432 168.672 146.432s168.672-65.696 168.672-146.432c0-83.456-72.512-146.432-168.672-146.432-12.64 0-62.944 7.328-76.768 10.24-4.224 0.832-8.608 0.064-12.128-2.336-13.728-9.088-26.656-15.968-37.92-21.024 6.112 11.488 11.392 23.392 15.808 35.68 2.272 6.368 0.32 13.472-4.864 17.76-34.048 28-52.8 65.696-52.8 106.112z" />
<glyph unicode="&#x78;" d="M32 91.936h73.312c5.792-5.76 139.232-118.080 139.232-118.080 6.944-4.224 12.992-5.856 18.272-5.856 0.8 0 1.6 0.032 2.368 0.096 11.84 1.12 20.288 11.040 22.816 21.504v468.768c-2.496 10.496-10.976 20.416-22.816 21.536-0.768 0.064-1.536 0.096-2.368 0.096-5.28 0-11.328-1.632-18.272-5.824 0 0-133.44-116.416-139.232-122.176h-73.312c-17.664 0-32-14.336-32-32v-196.064c0-17.696 14.336-32 32-32zM32 128v192h73.312c8.192 0 16.384 3.424 22.304 9.056 5.824 5.536 78.144 68.8 128.384 112.64v-435.68c-49.92 42.048-122.24 103.136-128.128 108.576-5.984 5.984-14.112 9.312-22.592 9.312h-73.28v4.096zM506.272 306.848c-7.616 7.616-20 7.616-27.616 0l-55.232-55.232-55.232 55.232c-7.616 7.616-20 7.616-27.616 0s-7.616-20 0-27.616l55.232-55.232-55.232-55.232c-7.616-7.616-7.616-20 0-27.616s20-7.616 27.616 0l55.232 55.232 55.232-55.232c7.616-7.616 20-7.616 27.616 0s7.616 20 0 27.616l-55.232 55.232 55.232 55.232c7.648 7.616 7.648 20 0 27.616z" />
<glyph unicode="&#x79;" d="M326.816 480c-5.28 0-11.328-1.632-18.272-5.824 0 0-133.44-116.416-139.232-122.176h-73.312c-17.664 0-32-14.336-32-32v-196.064c0-17.664 14.336-32 32-32h73.312c5.792-5.76 139.232-118.080 139.232-118.080 6.944-4.224 12.992-5.856 18.272-5.856 0.8 0 1.6 0.032 2.368 0.096 11.84 1.12 20.288 11.040 22.816 21.504v468.768c-2.496 10.496-10.976 20.416-22.816 21.504-0.768 0.096-1.536 0.128-2.368 0.128zM320 6.016c-49.92 42.048-122.24 103.136-128.128 108.576-5.984 5.984-14.112 9.312-22.592 9.312h-73.28v196.096h73.312c8.192 0 16.384 3.424 22.304 9.056 5.824 5.536 78.144 68.8 128.384 112.64v-435.68zM401.312 168.096c-7.904-4-11.072-13.6-7.104-21.504 2.816-5.568 8.448-8.8 14.272-8.8 2.432 0 4.864 0.544 7.2 1.696 32.352 16.32 52.448 48.672 52.448 84.512s-20.096 68.192-52.448 84.512c-7.904 4-17.504 0.8-21.472-7.104-3.968-7.904-0.8-17.504 7.104-21.504 21.472-10.816 34.816-32.224 34.816-55.904s-13.344-45.088-34.816-55.904z" />
<glyph unicode="&#x7a;" d="M32 91.936h73.312c5.792-5.76 139.232-118.080 139.232-118.080 6.944-4.224 12.992-5.856 18.272-5.856 0.8 0 1.6 0.032 2.368 0.096 11.84 1.12 20.288 11.040 22.816 21.504v468.768c-2.496 10.496-10.976 20.416-22.816 21.536-0.768 0.064-1.536 0.096-2.368 0.096-5.28 0-11.328-1.632-18.272-5.824 0 0-133.44-116.416-139.232-122.176h-73.312c-17.664 0-32-14.336-32-32v-196.064c0-17.696 14.336-32 32-32zM32 128v192h73.312c8.192 0 16.384 3.424 22.304 9.056 5.824 5.536 78.144 68.8 128.384 112.64v-435.68c-49.92 42.048-122.24 103.136-128.128 108.576-5.984 5.984-14.112 9.312-22.592 9.312h-73.28v4.096zM337.312 168.096c-7.904-4-11.072-13.6-7.104-21.504 2.816-5.568 8.448-8.8 14.272-8.8 2.432 0 4.864 0.544 7.2 1.696 32.352 16.32 52.448 48.672 52.448 84.512s-20.096 68.192-52.448 84.512c-7.904 4-17.504 0.8-21.472-7.104-3.968-7.904-0.8-17.504 7.104-21.504 21.472-10.816 34.816-32.224 34.816-55.904s-13.344-45.088-34.816-55.904zM315.296 40.352c1.504-7.648 8.192-12.928 15.68-12.928 1.024 0 2.048 0.096 3.104 0.288 93.824 18.304 161.92 100.864 161.92 196.288s-68.096 177.984-161.952 196.288c-8.512 1.728-17.088-3.968-18.752-12.64-1.696-8.672 3.968-17.088 12.64-18.784 78.848-15.36 136.064-84.704 136.064-164.864s-57.216-149.504-136.064-164.864c-8.672-1.696-14.336-10.112-12.64-18.784z" />
<glyph unicode="&#x7b;" d="M127.968 270.112c0-27.040 21.12-48.96 47.136-48.96 8.352 0 16.064 2.432 22.88 6.4-2.336-26.176-15.52-64.352-63.84-103.264-6.752-5.472-8-15.584-2.752-22.592 3.072-4.096 7.648-6.24 12.256-6.24 3.328 0 6.656 1.088 9.504 3.392 59.296 47.84 74.112 96.992 76.096 129.824 3.392 41.984-9.344 64.064-20.992 75.584-1.056 1.12-2.048 2.336-3.232 3.328-2.784 2.368-5.28 4.032-7.456 5.28-0.096 0.064-0.16 0.16-0.256 0.192-0.16 0.096-0.32 0.128-0.48 0.192-3.168 1.76-5.44 2.592-5.44 2.592l0.16-0.384c-5.152 2.112-10.56 3.616-16.448 3.616-26.048 0-47.136-21.92-47.136-48.96zM283.104 270.112c0-27.040 21.088-48.96 47.136-48.96 8.352 0 16.064 2.432 22.88 6.4-2.336-26.176-15.52-64.352-63.84-103.264-6.784-5.472-8-15.584-2.752-22.592 3.072-4.096 7.648-6.24 12.256-6.24 3.328 0 6.656 1.088 9.504 3.392 59.296 47.84 74.112 96.992 76.096 129.824 3.392 41.984-9.376 64.064-20.992 75.584-1.088 1.12-2.080 2.336-3.264 3.328-2.784 2.368-5.28 4.032-7.456 5.28-0.096 0.064-0.16 0.128-0.256 0.192-0.16 0.096-0.32 0.128-0.48 0.192-3.168 1.728-5.44 2.592-5.44 2.592l0.16-0.384c-5.152 2.112-10.592 3.616-16.448 3.616-26.016 0-47.104-21.92-47.104-48.96z" />
<glyph unicode="&#x7c;" d="M256 480c-141.376 0-256-114.624-256-256s114.624-256 256-256 256 114.624 256 256-114.624 256-256 256zM256 0c-123.52 0-224 100.48-224 224s100.48 224 224 224 224-100.48 224-224-100.48-224-224-224zM205.024 307.584c-2.784 2.368-5.28 4.032-7.456 5.28-0.096 0.064-0.16 0.16-0.256 0.192-0.16 0.096-0.32 0.128-0.48 0.192-3.168 1.76-5.44 2.592-5.44 2.592l0.16-0.384c-5.152 2.112-10.56 3.616-16.448 3.616-26.048 0-47.136-21.92-47.136-48.96 0-27.040 21.12-48.96 47.136-48.96 8.352 0 16.064 2.432 22.88 6.4-2.336-26.176-15.52-64.352-63.84-103.264-6.752-5.472-8-15.584-2.752-22.592 3.072-4.096 7.648-6.24 12.256-6.24 3.328 0 6.656 1.088 9.504 3.392 59.296 47.84 74.112 96.992 76.096 129.824 3.392 41.984-9.344 64.064-20.992 75.584-1.056 1.12-2.048 2.336-3.232 3.328zM360.16 307.584c-2.784 2.368-5.28 4.032-7.456 5.28-0.096 0.064-0.16 0.128-0.256 0.192-0.16 0.096-0.32 0.128-0.48 0.192-3.168 1.728-5.44 2.592-5.44 2.592l0.16-0.384c-5.152 2.112-10.592 3.616-16.448 3.616-26.048 0-47.136-21.92-47.136-48.96 0-27.040 21.088-48.96 47.136-48.96 8.352 0 16.064 2.432 22.88 6.4-2.336-26.176-15.52-64.352-63.84-103.264-6.784-5.472-8-15.584-2.752-22.592 3.072-4.096 7.648-6.24 12.256-6.24 3.328 0 6.656 1.088 9.504 3.392 59.296 47.84 74.112 96.992 76.096 129.824 3.392 41.984-9.376 64.064-20.992 75.584-1.056 1.12-2.048 2.336-3.232 3.328z" />
<glyph unicode="&#x7d;" d="M273.056 445.856c-61.152 0-122.304-23.328-168.96-69.984-93.312-93.312-93.312-244.608 0-337.888 46.688-46.656 107.808-69.984 168.96-69.984s122.304 23.328 168.96 69.984c93.312 93.312 93.312 244.608 0 337.888-46.656 46.656-107.808 69.984-168.96 69.984zM419.392 60.608c-39.072-39.072-91.040-60.608-146.336-60.608-55.264 0-107.232 21.536-146.336 60.608-39.072 39.072-60.608 91.040-60.608 146.336s21.536 107.232 60.608 146.336c39.072 39.072 91.040 60.608 146.336 60.608 55.264 0 107.232-21.536 146.336-60.608s60.608-91.072 60.608-146.336-21.536-107.264-60.608-146.336zM368 224h-80v112.224c0 8.832-7.168 16-16 16s-16-7.168-16-16v-128.128c0 0 0-0.032 0-0.032v-0.064c0-8.832 7.168-16 16-16h96c8.832 0 16 7.168 16 16s-7.168 16-16 16z" />
<glyph unicode="&#x7e;" d="M256 480c-88.352 0-160-72.736-160-162.464v-29.536h-32c-17.664 0-32-14.336-32-32v-256c0-17.664 14.336-32 32-32h384c17.664 0 32 14.336 32 32v256c0 17.664-14.336 32-32 32h-32v29.536c0 89.728-71.648 162.464-160 162.464zM128 317.536c0 71.936 57.408 130.464 128 130.464s128-58.528 128-130.464v-29.536h-256v29.536zM448 0h-384v256h384v-256zM320 128c0 35.36-28.64 64-64 64s-64-28.64-64-64 28.64-64 64-64 64 28.64 64 64zM256 96c-17.632 0-32 14.368-32 32s14.368 32 32 32 32-14.368 32-32-14.368-32-32-32z" />
<glyph unicode="&#xe000;" d="M480 0v256c0 17.664-14.336 32-32 32h-320.16l0.16 13.568c0 86.208 53.248 146.432 129.536 146.432 55.84 0 105.6-32.096 129.888-83.776 3.744-8 13.248-11.424 21.28-7.648 8 3.744 11.424 13.28 7.648 21.28-29.6 62.976-90.432 102.144-158.816 102.144-93.6 0-161.536-75.040-161.536-178.24l-0.16-13.76h-31.84c-17.664 0-32-14.336-32-32v-256c0-17.664 14.336-32 32-32h384c17.664 0 32 14.336 32 32zM64 256h384v-256h-384v256zM256 192c-35.36 0-64-28.64-64-64s28.64-64 64-64 64 28.64 64 64-28.64 64-64 64zM256 96c-17.632 0-32 14.368-32 32s14.368 32 32 32 32-14.368 32-32-14.368-32-32-32z" />
<glyph unicode="&#xe001;" d="M176 80c0 9.504-2.048 18.688-6.080 27.232-10.496 22.336-33.248 36.768-57.92 36.768-35.296 0-64-28.704-64-64 0-6.304 1.184-12.256 2.88-18.016 10.72-17.664 25.44-32.384 43.104-43.104 5.76-1.696 11.712-2.88 18.016-2.88 35.296 0 64 28.704 64 64zM112 112c12.352 0 23.712-7.232 28.992-18.4 1.984-4.256 3.008-8.832 3.008-13.6 0-17.632-14.368-32-32-32s-32 14.368-32 32 14.368 32 32 32zM496 480h-69.248c-3.776 0-7.424-1.344-10.336-3.776l-226.56-191.328c-10.432 2.080-20.256 3.104-29.856 3.104-88.224 0-160-71.776-160-160s71.776-160 160-160 160 71.776 160 160c0 16.832-2.688 33.472-8 49.6l48.704 31.648c4.544 2.944 7.296 8 7.296 13.408v58.144l60.832 3.2c7.936 0.416 14.336 6.592 15.072 14.496l5.824 61.632 53.152 25.408c5.6 2.688 9.12 8.32 9.12 14.464v64c0 8.832-7.168 16-16 16zM480 410.080l-52.224-24.96c-5.056-2.432-8.512-7.328-9.024-12.928l-5.376-56.928-62.208-3.264c-8.512-0.48-15.168-7.488-15.168-16v-64.64l-52.224-33.952c-6.496-4.224-9.056-12.512-6.016-19.648 6.816-16.032 10.24-32.768 10.24-49.76 0-70.592-57.408-128-128-128-24.224 0-46.656 7.136-66.016 18.88-17.664 10.72-32.384 25.44-43.104 43.104-11.744 19.36-18.88 41.792-18.88 66.016 0 70.592 57.408 128 128 128 9.44 0 19.36-1.312 30.336-3.968 4.96-1.216 10.208 0 14.112 3.328l228.16 192.64h47.392v-37.92z" />
<glyph unicode="&#xe002;" d="M416 256c-1.12 0-2.176-0.288-3.264-0.32 2.144 10.432 3.264 21.248 3.264 32.32 0 88.352-71.648 160-160 160s-160-71.648-160-160c0-0.544 0.16-1.056 0.16-1.6-54.272-7.744-96.16-53.984-96.16-110.4 0-56.384 41.792-102.56 96-110.4v-1.6h320c53.024 0 96 42.976 96 96s-42.976 96-96 96zM416 96h-309.952c-1.76 0.576-3.584 1.024-5.472 1.28-39.104 5.632-68.576 39.488-68.576 78.72 0 39.296 29.536 73.12 68.672 78.72 15.904 2.272 27.648 15.968 27.488 32 0 0.96-0.064 1.92-0.16 2.848 0.864 69.888 57.952 126.432 128 126.432 70.592 0 128-57.408 128-128 0-8.704-0.896-17.408-2.624-25.888-1.984-9.6 0.576-19.584 6.912-27.072 6.080-7.2 15.040-11.328 24.448-11.328 0.384 0 0.736 0 1.12 0.032 0.704-0.032 2.208 0.096 3.456 0.256 34.688-0.704 62.688-29.152 62.688-64 0-35.296-28.704-64-64-64z" />
<glyph unicode="&#xe003;" d="M416.832 256.032c-1.376 0-2.72 0-4.032-0.032 2.112 10.528 3.2 21.28 3.2 32 0 88.224-71.776 160-160 160-88.16 0-160-71.072-160.096-158.368 0-0.032 0.256-3.232 0.256-3.232v0c-54.816-7.84-96.16-55.296-96.16-110.4 0-55.872 40.256-103.936 96-112h80c8.832 0 16 7.168 16 16s-7.168 16-16 16l-77.664-0.16c-37.184 5.472-66.336 40.704-66.336 80.16 0 39.296 29.504 73.12 68.672 78.72l13.76 1.984c7.872 1.12 13.728 7.872 13.728 15.84l-0.256 17.024c0.096 69.728 57.536 126.432 128.096 126.432 70.592 0 128-57.408 128-128 0-8.672-0.864-17.408-2.624-25.888l-4.224-20.352c-1.056-5.088 0.448-10.336 3.968-14.144 3.52-3.776 8.576-5.728 13.824-4.928 0.352 0.032 10.368 1.344 21.888 1.344 34.848 0 63.168-28.704 63.168-64.032 0-35.296-28.704-64-64-64h-112c-44.8 0-47.84 26.848-48 32v106.176l37.856-37.824c6.24-6.24 16.384-6.24 22.624 0s6.24 16.384 0 22.624l-64.384 64.352c-3.136 3.136-7.264 4.672-11.392 4.672-0.256 0-0.448 0.128-0.704 0.128-4.608 0-8.672-1.984-11.584-5.088l-64.448-64.384c-6.24-6.24-6.24-16.384 0-22.624s16.384-6.24 22.624 0l37.408 37.376v-105.408c0-22.112 16.704-64 80-64h112c52.928 0 96 43.072 96 96s-42.688 96.032-95.168 96.032z" />
<glyph unicode="&#xe004;" d="M418.656 256c29.888 68.64 11.456 112.288-3.552 133.312-22.784 31.904-64.288 49.408-100.736 42.4-63.36-12.096-90.368-55.040-90.368-143.712v-74.048l-37.056 37.056c-6.24 6.24-16.384 6.24-22.624 0s-6.24-16.384 0-22.624l64.384-64.352c3.232-3.232 7.488-4.704 11.712-4.608 4.224-0.096 8.48 1.376 11.712 4.608l64.704 64.672c6.24 6.24 6.24 16.384 0 22.624s-16.384 6.24-22.624 0l-38.208-38.176v74.848c0 92.288 31.776 106.048 64.32 112.288 20.896 3.84 51.136-4.928 68.704-29.568 21.504-30.048 17.376-74.624-11.616-125.44-3.072-5.408-2.752-12.096 0.832-17.152s9.888-7.616 15.872-6.528c3.872 0.672 15.424 2.432 22.72 2.432 34.848 0 63.168-28.704 63.168-64.032 0-35.296-28.704-64-64-64l-317.664-0.192c-37.184 5.504-66.336 40.736-66.336 80.192 0 39.296 29.504 73.12 68.672 78.72l13.76 1.984c7.872 1.12 13.728 7.872 13.728 15.84l-0.256 17.024c0.096 57.312 35.424 104.416 84.096 112 8.704 1.376 14.688 9.536 13.344 18.272-1.376 8.736-9.344 14.656-18.304 13.344-64.32-10.016-111.040-70.4-111.136-143.552 0-0.032 0.256-3.232 0.256-3.232v0c-54.816-7.84-96.16-55.296-96.16-110.4 0-55.872 40.256-103.936 96-112h320c52.928 0 96 43.072 96 96 0 52.352-41.728 95.040-93.344 96z" />
<glyph unicode="&#xe005;" d="M275.648 324.992c0-24.583 19.928-44.512 44.512-44.512s44.512 19.928 44.512 44.512c0 24.584-19.928 44.512-44.512 44.512-24.584 0-44.512-19.929-44.512-44.512zM416 64h32v192l-128-96-160 128-96-96v-128h32zM480 448h-448c-17.664 0-32-14.336-32-32v-384c0-17.664 14.336-32 32-32h448c17.664 0 32 14.336 32 32v384c0 17.664-14.336 32-32 32zM480 32h-448v384h448v-384z" />
<glyph unicode="&#xe006;" d="M480 384h-32v64c0 17.664-14.336 32-32 32h-384c-17.664 0-32-14.336-32-32v-352c0-17.664 14.336-32 32-32h32v-64c0-17.664 14.336-32 32-32h384c17.664 0 32 14.336 32 32v352c0 17.664-14.336 32-32 32zM32 96v352h384v-352h-384zM480 0h-384v64h32v-32h320v320h32v-352zM236.64 348.992c0-24.583 19.928-44.512 44.512-44.512s44.512 19.928 44.512 44.512c0 24.584-19.928 44.512-44.512 44.512-24.584 0-44.512-19.929-44.512-44.512zM160 320l-96-64v-128h320v160l-128-64z" />
<glyph unicode="&#xe007;" d="M256 480c-105.856 0-192-86.144-192-192 0-61.888 30.080-120.32 80.512-156.32 0.768-0.544 1.568-1.056 2.368-1.536 11.712-6.88 12.864-29.056 12.608-33.12-0.032-0.672-0.064-1.344-0.064-1.984v-63.040c0-12.032 6.72-23.008 17.44-28.48l64.576-32.992c4.576-2.336 9.568-3.52 14.56-3.52 4.96 0 9.888 1.152 14.432 3.424l65.344 32.992c10.784 5.44 17.568 16.48 17.568 28.576v62.656c0 31.584 19.296 42.016 19.488 42.112 2.56 1.184 4.928 2.72 7.072 4.544 43.264 36.608 68.096 90.048 68.096 146.688 0 105.856-86.144 192-192 192zM191.424 95.008c0 0 0 0.64 0.032 0.992h129.984c0-0.48-0.128-0.832-0.128-1.344 0-12.576 0-22.528 0-30.656h-129.888v31.008zM256-0.992l-64.544 32.992h129.888l-65.344-32.992zM359.232 165.76c0 0-21.44-10.080-32.064-37.76h-140.864c-3.968 11.072-10.848 22.464-23.2 29.728-40.608 28.992-67.104 76.544-67.104 130.272 0 88.352 71.648 160 160 160s160-71.648 160-160c0-49.024-22.048-92.896-56.768-122.24zM272 416c-8.832 0-16-7.168-16-16s7.168-16 16-16c36 0 80-32.736 80-81.504 0-8.832 7.168-16 16-16s16 7.168 16 16c0 72.992-56.992 113.504-112 113.504z" />
<glyph unicode="&#xe008;" d="M480 352h-448c-17.664 0-32-14.336-32-32v-96h32v-224c0-17.664 14.336-32 32-32h384c17.664 0 32 14.336 32 32v224h32v96c0 17.664-14.336 32-32 32zM32 320h192v-64h-192v64zM64 0v224h160v-224h-160zM448 0h-159.328v224h159.328v-224zM480 256h-191.328v64h191.328v-64zM256 384c0 0.064-0.032 0.192-0.032 0.256h0.096c-0.032-0.064-0.064-0.192-0.064-0.256 0 0 83.808 0 128 0 44.192 0 64 21.504 64 48s-19.808 48-64 48c-41.376 0-73.952-18.624-96-40.224-9.664 5.728-20.832 9.216-32.928 9.216-11.584 0-22.304-3.264-31.712-8.576-22.016 21.344-54.4 39.584-95.36 39.584-44.192 0-64-21.504-64-48s19.808-48 64-48c44.192 0 128 0 128 0zM416 432c0-13.216-17.408-16-32-16h-72.672c-0.256 0.448-0.48 0.928-0.736 1.344 16.256 15.808 40.896 30.656 73.408 30.656 14.592 0 32-2.784 32-16zM96 432c0 13.216 17.408 16 32 16 31.808 0 55.936-14.24 72.192-29.504-0.512-0.8-0.896-1.664-1.376-2.496h-70.816c-14.592 0-32 2.784-32 16z" />
<glyph unicode="&#xe009;" d="M25.984 227.488l38.016 30.4v-225.888c0-17.664 14.336-32 32-32h96c17.664 0 32 14.336 32 32v128h64v-128c0-17.664 14.336-32 32-32h96c17.664 0 32 14.336 32 32v225.888l38.016-30.4c2.944-2.336 6.464-3.488 9.984-3.488 4.704 0 9.344 2.048 12.512 6.016 5.504 6.912 4.384 16.96-2.496 22.496l-240 192c-5.856 4.672-14.144 4.672-20 0l-86.016-68.8v40.288c0 17.664-14.336 32-32 32s-32-14.336-32-32v-91.488l-89.984-72c-6.88-5.536-8-15.584-2.496-22.496s15.552-8.032 22.464-2.528zM256 411.52l160-128v-251.52h-96v160h-128v-160h-96v251.488l160 128.032z" />
<glyph unicode="&#xe00a;" d="M40.704 85.504c7.68-11.936 23.808-26.144 57.088-26.144 20.928 0 47.712 6.112 77.536 16.768 12.896-56.832 36.608-108.128 80.672-108.128 44.8 0 68.608 53.056 81.344 111.072 29.888-10.112 56.768-15.936 77.792-15.936 35.2 0 51.712 14.976 59.392 27.52 24.832 40.704-13.92 92.384-60.704 135.104 8.64 8.32 16.768 16.64 23.904 24.736 40.448 46.048 51.744 83.712 33.568 112-7.68 11.936-23.808 26.144-57.088 26.144v0c-20.928 0-47.712-6.112-77.536-16.768-12.896 56.832-36.608 108.128-80.672 108.128-44.8 0-68.608-53.056-81.344-111.072-29.888 10.144-56.768 15.936-77.792 15.936v0c-35.2 0-51.744-14.976-59.392-27.52-24.832-40.704 13.92-92.384 60.704-135.104-8.64-8.352-16.768-16.64-23.904-24.736-40.448-46.048-51.744-83.744-33.568-112zM256 0c-20.704 0-39.072 34.592-50.784 88 16.832 7.264 34.24 15.744 52.064 25.44 17.088-8.768 33.792-16.416 49.984-23.072-11.648-54.752-30.24-90.368-51.264-90.368zM192 224c0 11.744 0.352 23.2 0.832 34.464 9.216 6.528 18.656 12.992 28.544 19.36 11.36 7.296 22.592 14.016 33.728 20.416 11.296-6.144 22.688-12.576 34.208-19.584 10.304-6.304 20.192-12.736 29.792-19.2 0.544-11.584 0.896-23.36 0.896-35.456 0-11.744-0.352-23.2-0.832-34.464-9.216-6.528-18.656-12.992-28.544-19.36-11.36-7.296-22.592-14.016-33.728-20.416-11.296 6.144-22.688 12.576-34.208 19.584-10.304 6.304-20.192 12.736-29.792 19.2-0.544 11.584-0.896 23.36-0.896 35.456zM160.16 211.968c-4.704 3.584-9.312 7.168-13.728 10.72 4.416 3.744 8.992 7.488 13.664 11.232-0.064-4.288-0.096-7.904-0.096-9.92 0-2.336 0.064-6.752 0.16-12.032zM195.744 299.072c0.928 9.088 2.016 17.888 3.264 26.4 7.296-3.104 14.752-6.528 22.368-10.112-5.76-3.52-11.52-6.88-17.312-10.592-2.88-1.888-5.472-3.84-8.32-5.696zM288.48 316.16c8.256 4.16 16.32 8.032 24.224 11.584 1.344-9.056 2.496-18.496 3.488-28.192-4.448 2.848-8.192 5.184-10.176 6.4-5.856 3.584-11.712 6.816-17.536 10.208zM351.84 236.032c4.704-3.584 9.312-7.168 13.728-10.72-4.416-3.744-8.992-7.456-13.696-11.232 0.096 4.288 0.128 7.904 0.128 9.92 0 2.336-0.064 6.752-0.16 12.032zM316.256 148.928c-0.928-9.088-1.984-17.92-3.232-26.4-7.296 3.104-14.784 6.528-22.368 10.112 5.76 3.52 11.52 6.88 17.312 10.592 2.848 1.888 5.44 3.84 8.288 5.696zM205.984 142.048c5.856-3.584 11.68-6.816 17.536-10.208-8.256-4.16-16.32-8.032-24.224-11.584-1.344 9.024-2.496 18.464-3.488 28.192 4.448-2.816 8.192-5.184 10.176-6.4zM447.2 107.328c-5.056-8.256-16.256-12.192-32.064-12.192-18.464 0-43.392 5.632-71.808 15.616 3.392 21.952 5.504 43.392 6.752 61.696 14.304 10.56 27.52 21.248 40.032 32 45.152-40.992 68.64-78.208 57.088-97.12zM414.208 356.64c14.656 0 25.184-3.68 30.176-11.456 12-18.656-10.656-56.448-54.88-98.528-13.76 11.2-27.328 21.44-39.552 30.112-1.312 18.88-3.488 40.896-7.104 63.392 28.384 10.528 53.184 16.48 71.36 16.48zM256 448c20.704 0 39.072-34.592 50.784-88-16.832-7.264-34.24-15.744-52.064-25.44-17.12 8.768-33.824 16.448-49.984 23.072 11.648 54.752 30.24 90.368 51.264 90.368zM64.8 340.672c5.056 8.256 16.256 12.192 32.064 12.192 18.464 0 43.392-5.632 71.808-15.616-3.424-21.952-5.504-43.36-6.752-61.696-14.304-10.56-27.52-21.248-40.032-32-45.152 40.992-68.64 78.208-57.088 97.12zM162.016 171.264c1.312-18.88 3.488-40.896 7.104-63.392-28.352-10.528-53.152-16.48-71.328-16.48-14.656 0-25.184 3.68-30.176 11.456-12 18.656 10.656 56.448 54.88 98.528 13.728-11.2 27.296-21.472 39.52-30.112z" />
<glyph unicode="&#xe00b;" d="M384-32c17.664 0 32 14.336 32 32v448c0 17.664-14.336 32-32 32h-224c-17.664 0-32-14.336-32-32v-448c0-17.664 14.336-32 32-32h224zM256 17.984c0 9.952 8.064 17.984 17.984 17.984s17.984-8.064 17.984-17.984-8.032-17.984-17.984-17.984-17.984 8.064-17.984 17.984zM336 448c8.832 0 16-7.168 16-16s-7.168-16-16-16h-32c-8.832 0-16 7.168-16 16s7.168 16 16 16h32zM256 432c0-8.832-7.168-16-16-16s-16 7.168-16 16c0 8.832 7.168 16 16 16s16-7.168 16-16zM160 384h224v-320h-224v320z" />
<glyph unicode="&#xe00c;" d="M416-32c17.664 0 32 14.336 32 32v448c0 17.664-14.336 32-32 32h-320c-17.664 0-32-14.336-32-32v-448c0-17.664 14.336-32 32-32h320zM256-17.984c-9.952 0-17.984 8.064-17.984 17.984s8.032 17.984 17.984 17.984 17.984-8.032 17.984-17.984-8.032-17.984-17.984-17.984zM128 416h256v-384h-256v384z" />
<glyph unicode="&#xe00d;" d="M495.488 96h-15.488v288c0 17.664-14.336 32-32 32h-384c-17.664 0-32-14.336-32-32v-288h-15.488c-9.12 0-16.512-7.168-16.512-16s7.392-16 16.512-16h478.976c9.12 0 16.512 7.168 16.512 16s-7.392 16-16.512 16zM448 384v-254.656h-384v254.656h384z" />
<glyph unicode="&#xe00e;" d="M480 448h-448c-17.664 0-32-14.336-32-32v-288c0-17.664 14.336-32 32-32h159.968c-0.064-23.136-0.992-53.184-9.76-64h-6.464c-8.704 0-15.744-7.168-15.744-16s7.040-16 15.744-16h160.48c8.736 0 15.776 7.168 15.776 16s-7.040 16-15.744 16h-6.464c-8.8 10.816-9.696 40.864-9.76 64h159.968c17.664 0 32 14.336 32 32v288c0 17.664-14.336 32-32 32zM224 96l-0.032-0.064c0 0.032 0 0.032 0.032 0.064v0zM288.032 95.936l-0.032 0.064h0.032c0-0.032 0-0.032 0-0.064zM480 160h-448v256h448v-256z" />
<glyph unicode="&#xe00f;" d="M480 352h-64c0 0-18.496 0-32 32-6.88 16.288-14.336 32-32 32h-128c-17.664 0-25.344-15.616-32-32-12.992-32-32-32-32-32h-32c0 17.664-14.336 32-32 32h-32c-17.664 0-32-14.336-32-32-17.664 0-32-14.336-32-32v-256c0-17.664 14.336-32 32-32h448c17.664 0 32 14.336 32 32v256c0 17.664-14.336 32-32 32zM480 64h-448v128h145.6c7.84-54.208 54.016-96 110.4-96 57.76 0 104.736 43.872 110.784 100h81.216v-132zM208 208c0 44.128 35.904 80 80 80s80-35.872 80-80c0-44.096-35.904-80-80-80s-80 35.904-80 80zM398.4 224c-7.84 54.208-54.016 96-110.4 96s-102.56-41.792-110.4-96h-145.6v96h128c18.688 0 46.080 13.6 61.632 51.968 2.656 6.496 4.448 10.080 5.632 12.032h121.344c2.144-3.52 4.896-10.016 5.92-12.448 20.704-49.056 54.848-51.552 61.472-51.552h64v-96h-81.6zM64 271.68c0-8.837 7.163-16 16-16s16 7.163 16 16c0 8.837-7.163 16-16 16-8.837 0-16-7.163-16-16z" />
<glyph unicode="&#xe010;" d="M480 416h-448c-17.664 0-32-14.336-32-32v-320c0-17.664 14.336-32 32-32h448c17.664 0 32 14.336 32 32v320c0 17.664-14.336 32-32 32zM181.76 191.136l74.304-50.496 73.856 50.848 127.456-127.488h-402.752l127.136 127.136zM32 86.624v206.336l122.816-83.488-122.816-122.848zM356.704 209.92l123.296 84.864v-208.16l-123.296 123.296zM480 384v-51.776l-0.672 0.96-223.392-153.824-223.936 152.256v52.384h448z" />
<glyph unicode="&#xe011;" d="M399.456 160l-12.128 32h-262.656l-12.128-32-48.544-128h384l-48.544 128zM146.784 160h218.464l36.416-96h-291.296l36.416 96zM328.832 256h34.24l-12.128 32-65.088 171.552c-4.768 12.32-16.64 20.448-29.856 20.448s-25.088-8.128-29.856-20.448l-77.184-203.552h179.872zM256 448l60.672-160h-121.344l60.672 160zM495.744 0h-479.488c-8.992 0-16.256-6.784-16.256-15.744s7.264-16.256 16.256-16.256h479.488c8.992 0 16.256 7.264 16.256 16.256s-7.264 15.744-16.256 15.744z" />
<glyph unicode="&#xe012;" d="M83.744-29.568c3.968-1.632 8.128-2.432 12.256-2.432 8.32 0 16.512 3.264 22.624 9.376l137.376 137.376 137.376-137.376c6.112-6.112 14.304-9.376 22.624-9.376 4.128 0 8.288 0.8 12.224 2.432 11.968 4.96 19.776 16.64 19.776 29.568v448c0 17.664-14.336 32-32 32h-320c-17.664 0-32-14.336-32-32v-448c0-12.928 7.808-24.608 19.744-29.568zM256 160l-160-160v352h320v-352l-160 160zM416 448v-64h-320v64h320z" />
<glyph unicode="&#xe013;" d="M96-32h320c17.664 0 32 14.336 32 32v352c0 17.664-14.336 32-32 32h-64.16c-0.768 53.152-43.328 96-95.84 96s-95.072-42.848-95.84-96h-64.16c-17.664 0-32-14.336-32-32v-352c0-17.664 14.336-32 32-32zM416 352v-352h-320v352h320zM256 448c34.784 0 63.072-28.576 63.84-64h-127.68c0.768 35.424 29.056 64 63.84 64zM208 288h96c8.832 0 16 7.168 16 16s-7.168 16-16 16h-96c-8.832 0-16-7.168-16-16s7.168-16 16-16z" />
<glyph unicode="&#xe014;" d="M480 416h-448c-17.664 0-32-14.336-32-32v-320c0-17.664 14.336-32 32-32h448c17.664 0 32 14.336 32 32v320c0 17.664-14.336 32-32 32zM480 64h-448v192h448v-192zM32 318.656v65.344h448v-65.344h-448zM80 96h160c8.832 0 16 7.168 16 16s-7.168 16-16 16h-160c-8.832 0-16-7.168-16-16s7.168-16 16-16zM288 112c0-8.837 7.163-16 16-16s16 7.163 16 16c0 8.837-7.163 16-16 16-8.837 0-16-7.163-16-16zM352 112c0-8.837 7.163-16 16-16s16 7.163 16 16c0 8.837-7.163 16-16 16-8.837 0-16-7.163-16-16zM416 112c0-8.837 7.163-16 16-16s16 7.163 16 16c0 8.837-7.163 16-16 16-8.837 0-16-7.163-16-16z" />
<glyph unicode="&#xe015;" d="M96 32c0-17.673 14.327-32 32-32s32 14.327 32 32c0 17.673-14.327 32-32 32-17.673 0-32-14.327-32-32zM384 32c0-17.673 14.327-32 32-32s32 14.327 32 32c0 17.673-14.327 32-32 32-17.673 0-32-14.327-32-32zM-0.928 432c0-8.832 7.168-16 16-16h33.248l19.872-84.992 27.808-139.008c0-1.152 0.544-2.144 0.672-3.264l-16.288-73.28c-1.056-4.736 0.096-9.696 3.136-13.472 3.040-3.808 7.616-5.984 12.48-5.984h363.008c8.832 0 16 7.168 16 16s-7.168 16-16 16h-343.040l7.328 32.96c1.6-0.256 3.040-0.96 4.704-0.96h291.68c17.664 0 28.32 3.488 36.832 24l51.968 159.424c9.024 28.576-10.784 40.576-28.48 40.576h-384c-2.496 0-4.672-0.864-7.008-1.408l-12.416 53.056c-1.696 7.232-8.128 12.352-15.584 12.352h-45.92c-8.864 0-16-7.168-16-16zM96.64 352h380.96l-51.072-156.768c-0.608-1.376-1.12-2.368-1.504-3.040-1.056-0.096-2.72-0.192-5.344-0.192h-291.68v3.168l-0.608 3.104-30.752 153.728z" />
<glyph unicode="&#xe016;" d="M225.216 368.352c-33.888 33.824-76.448 36.672-106.048 7.072-29.6-29.568-26.784-72.192 7.040-106.048l183.168-183.168c6.24-6.24 16.384-6.24 22.624 0s6.24 16.384 0 22.624l-183.168 183.168c-16.416 16.416-26.88 40.992-7.072 60.8 19.776 19.808 44.384 9.312 60.8-7.104l203.648-203.616c58.4-58.464 72.96-85.408 38.176-120.224-35.2-35.168-72.512-26.464-128.704 29.696l-226.24 226.304c-36.544 36.544-62.144 96.224-14.112 144.224 57.024 57.024 122.144 0.96 140.704-17.632l207.872-207.904c6.24-6.24 16.384-6.24 22.624 0s6.24 16.384 0 22.624l-207.872 207.904c-62.848 62.848-134.112 69.568-185.984 17.632-52.416-52.384-46.752-128.544 14.144-189.472l226.272-226.272c19.232-19.232 60.416-60.384 107.776-60.384 21.28 0 43.84 8.352 66.176 30.688 63.584 63.616 4.768 122.496-38.176 165.472l-203.648 203.616z" />
<glyph unicode="&#xe017;" d="M496.928 479.84c-0.288 0-0.576 0-0.864 0-0.256 0-0.48 0.032-0.736 0h-201.184c-4.896-0.224-16.032-7.872-17.472-9.312l-235.328-235.328c-12.48-12.48-12.48-32.704 0-45.184l180.672-180.672c6.272-6.24 14.432-9.344 22.592-9.344s16.352 3.104 22.592 9.344l235.328 235.328c1.44 1.44 9.472 11.328 9.472 17.472v201.824c0.448 8.928-6.304 15.872-15.072 15.872zM480 268.128c-0.48-0.736-0.96-1.504-1.408-2.112l-233.952-234.016-180.672 180.576 234.016 234.016c0.64 0.448 1.376 0.928 2.144 1.408h179.872v-179.872zM416 400c0-8.837 7.163-16 16-16s16 7.163 16 16c0 8.837-7.163 16-16 16-8.837 0-16-7.163-16-16z" />
<glyph unicode="&#xe018;" d="M465.28 480c-0.192 0-0.384 0-0.576 0-0.096 0-0.192 0-0.288 0-0.032 0-0.064 0-0.096 0-0.16 0-0.288 0-0.416 0-0.064 0-0.128 0-0.192 0h-169.216c-4.896-0.256-16.032-7.904-17.472-9.344l-203.68-203.648c-12.48-12.48-12.48-32.704 0-45.184l25.408-25.408-25.408-25.408c-12.48-12.48-12.48-32.704 0-45.184l148.672-148.672c6.24-6.24 14.4-9.344 22.592-9.344 8.16 0 16.352 3.104 22.592 9.344l203.648 203.68c1.472 1.44 9.152 11.296 9.152 17.44v265.824c0.448 8.928-5.952 15.904-14.72 15.904zM448.352 203.68c-0.096-0.16-0.16-0.256-0.128-0.256 0 0 0 0 0 0l-203.584-203.68-148.672 148.608 25.408 25.408 100.64-100.64c6.24-6.24 14.4-9.344 22.592-9.344 8.16 0 16.352 3.104 22.592 9.344l181.152 181.152v-50.592zM448.352 352v-52.32c-0.096-0.16-0.16-0.256-0.128-0.256v0c0 0 0 0 0 0l-203.584-203.68-148.672 148.608 202.304 202.272c0.608 0.448 1.344 0.928 2.080 1.376h148v-96zM384.352 400.128c0-8.837 7.163-16 16-16s16 7.163 16 16c0 8.837-7.163 16-16 16-8.837 0-16-7.163-16-16z" />
<glyph unicode="&#xe019;" d="M416 448h-64c0 17.664-14.336 32-32 32h-96c-17.664 0-32-14.336-32-32h-64c-17.664 0-32-14.336-32-32h352c0 17.664-14.336 32-32 32zM96 0c0-17.664 14.336-32 32-32h288c17.664 0 32 14.336 32 32v384h-352v-384zM128 352h288v-352h-288v352zM176 320c-8.832 0-16-7.168-16-16v-256c0-8.832 7.168-16 16-16s16 7.168 16 16v256c0 8.832-7.168 16-16 16zM272 320c-8.832 0-16-7.168-16-16v-256c0-8.832 7.168-16 16-16s16 7.168 16 16v256c0 8.832-7.168 16-16 16zM368 320c-8.832 0-16-7.168-16-16v-256c0-8.832 7.168-16 16-16s16 7.168 16 16v256c0 8.832-7.168 16-16 16z" />
<glyph unicode="&#xe01a;" d="M157.248 474.304c-4.352 5.152-11.424 7.040-17.728 4.736-6.304-2.304-10.528-8.32-10.528-15.040v-417.504c0-6.912 4.416-13.024 10.976-15.2 1.632-0.544 3.328-0.8 5.024-0.8 4.96 0 9.76 2.304 12.832 6.464l71.552 96.384 49.632-141.984c6.368-18.176 26.272-27.776 44.448-21.408s27.776 26.272 21.408 44.448l-48.704 139.296 111.936-21.664c6.688-1.344 13.408 1.76 16.832 7.584 3.424 5.856 2.816 13.216-1.568 18.4l-266.112 316.288zM247.2 195.808c-6.048 1.216-12.224-1.216-15.872-6.176l-70.304-94.72v325.216l208.768-248.064-122.592 23.744z" />
<glyph unicode="&#xe01b;" d="M224 67.072v-67.072h-48c-8.832 0-16-7.168-16-16s7.168-16 16-16h160c8.832 0 16 7.168 16 16s-7.168 16-16 16h-48v67.264c66.656 13.152 128 67.104 128 156.736v48c0 8.832-7.168 16-16 16s-16-7.168-16-16v-48c0-84.032-64.416-128-128-128-61.664 0-128 40.064-128 128v48c0 8.832-7.168 16-16 16s-16-7.168-16-16v-48c0-90.88 60.256-144.192 128-156.928zM256 128c52.928 0 96 43.072 96 96v160c0 52.928-43.072 96-96 96s-96-43.072-96-96v-160c0-52.928 43.072-96 96-96zM192 384c0 35.36 28.64 64 64 64s64-28.64 64-64v-160c0-35.36-28.64-64-64-64s-64 28.64-64 64v160z" />
<glyph unicode="&#xe01c;" d="M256 480c-141.376 0-256-114.624-256-256s114.624-256 256-256 256 114.624 256 256-114.624 256-256 256zM256 0c-123.52 0-224 100.48-224 224s100.48 224 224 224 224-100.48 224-224-100.48-224-224-224zM359.52 349.568l-99.328-61.984c31.936-2.112 57.28-27.424 59.392-59.392l61.984 99.328c3.968 6.304 3.040 14.528-2.24 19.776-5.312 5.312-13.568 6.208-19.808 2.272zM192.416 219.808l-61.984-99.36c-3.968-6.304-3.040-14.528 2.24-19.776 3.104-3.072 7.2-4.672 11.328-4.672 2.944 0 5.888 0.8 8.48 2.432l99.328 61.984c-31.936 2.112-57.28 27.456-59.392 59.392zM260.192 287.584c-1.408 0.096-2.752 0.416-4.192 0.416-35.36 0-64-28.64-64-64 0-1.44 0.32-2.784 0.416-4.192 2.112-31.936 27.456-57.28 59.392-59.392 1.408-0.096 2.752-0.416 4.192-0.416 35.36 0 64 28.64 64 64 0 1.44-0.32 2.784-0.416 4.192-2.112 31.936-27.456 57.28-59.392 59.392zM224 224c0 17.632 14.368 32 32 32s32-14.368 32-32-14.368-32-32-32-32 14.368-32 32z" />
<glyph unicode="&#xe01d;" d="M259.392 217.216c45.984 0 83.392 37.408 83.392 83.392s-37.408 83.392-83.392 83.392-83.392-37.408-83.392-83.392c0-45.984 37.408-83.392 83.392-83.392zM259.392 352c28.32 0 51.392-23.040 51.392-51.392s-23.040-51.392-51.392-51.392-51.392 23.072-51.392 51.392 23.040 51.392 51.392 51.392zM247.744-23.328c2.688-2.976 5.28-4.896 7.776-6.24 0.032-0.032 0.096-0.032 0.128-0.064 1.728-0.896 3.424-1.568 5.024-1.568 1.6 0 3.296 0.672 5.024 1.568 0.032 0.032 0.096 0.032 0.128 0.064 2.496 1.344 5.088 3.264 7.776 6.24 0 0 148.736 161.76 163.68 301.92 0.896 7.232 1.504 14.56 1.504 22.016 0 99.072-80.32 179.392-179.392 179.392s-179.392-80.32-179.392-179.392c0-7.584 0.608-14.976 1.536-22.304 15.328-140.096 166.208-301.632 166.208-301.632zM259.392 448c81.28 0 147.392-66.112 147.392-147.392 0-5.408-0.384-11.168-1.312-18.624-11.456-107.392-112.288-233.408-144.768-271.744-33.312 38.4-135.584 164.096-147.424 272-0.864 7.072-1.28 12.896-1.28 18.368 0 81.28 66.112 147.392 147.392 147.392z" />
<glyph unicode="&#xe01e;" d="M139.040 195.648c-6.816-7.744-9.472-18.304-7.168-28.352s9.344-18.368 18.848-22.336c22.72-9.504 61.344-15.52 105.312-16.736 0-0.064-0.032-0.128-0.032-0.224v-96c0-17.664 7.168-64 16-64s16 46.336 16 64v96c0 0.096-0.032 0.16-0.032 0.256 43.968 1.184 82.592 7.232 105.312 16.736 9.504 3.968 16.544 12.288 18.848 22.336 2.304 10.048-0.352 20.608-7.168 28.32-13.12 14.88-36.032 23.104-52.96 27.392v165.76c16.736 5.664 30.944 12.768 42.176 21.056 9.6 7.072 14.464 18.944 12.608 30.72s-10.112 21.568-21.44 25.376c-15.616 5.248-51.136 14.048-113.344 14.048-65.76 0-102.080-10.144-114.656-14.496-11.168-3.872-19.296-13.6-21.12-25.28-1.824-11.648 2.944-23.392 12.384-30.528 11.392-8.544 25.952-15.776 43.36-21.472h0.032v-165.184c-16.896-4.256-39.84-12.48-52.96-27.392zM201.952 418.624c-16.704 5.472-27.552 11.712-34.112 16.672 17.024 5.888 51.488 12.704 104.16 12.704 51.648 0 85.856-6.56 103.2-12.384-6.784-4.992-17.536-11.104-33.472-16.512l-21.728-7.36v-213.6l24.128-6.112c17.696-4.48 31.072-11.008 36.8-17.536-14.816-6.176-50.816-14.496-108.928-14.496s-94.112 8.32-108.928 14.496c5.76 6.528 19.136 13.056 36.8 17.536l24.128 6.112v213.28l-22.048 7.2z" />
<glyph unicode="&#xe01f;" d="M486.944 415.232l-144 64c-2.272 0.512-4.608 0.768-6.944 0.768-2.080 0-4.192-0.192-6.24-0.608l-154.048-62.688-136.736 62.528c-2.304 0.512-4.64 0.768-6.976 0.768-7.2 0-14.272-2.432-20-7.040-7.584-6.048-12-15.232-12-24.96v-384c0-14.976 10.4-27.968 25.024-31.232l143.328-64c2.304-0.512 4.64-0.768 6.976-0.768 2.080 0 4.192 0.192 6.24 0.608l154.048 62.688 137.408-62.528c2.336-0.512 4.672-0.768 6.976-0.768 7.2 0 14.304 2.432 20.032 7.040 7.552 6.080 11.968 15.264 11.968 24.96v384c0 15.008-10.432 28-25.056 31.232zM192 390.624l128 50.976v-384l-128-50.976v384zM32 448l128-57.152v-384l-128 57.152v384zM480 0l-128 56.896v384l128-56.896v-384z" />
<glyph unicode="&#xe020;" d="M404.992 448h-300.992c-17.664 0-32-12-40-32l-64-223.488v-176.512c0-8.832 7.168-16 16-16h480c8.832 0 16 7.168 16 16v174.528l-64 225.472c-8.992 20-25.312 32-43.008 32zM94.24 405.344c1.472 3.296 5.216 10.656 9.76 10.656h300.992c4.384 0 9.44-4.512 12.992-11.392l60.32-212.608h-142.304c-8.832 0-16-7.168-16-16v-48h-128v48c0 8.832-7.168 16-16 16h-142.848l61.088 213.344zM480 32h-448v128h128v-48c0-8.832 7.168-16 16-16h160c8.832 0 16 7.168 16 16v48h128v-128z" />
<glyph unicode="&#xe021;" d="M480 384h-128c0-17.664-14.336-32-32-32h160v-64h-160c17.664 0 32-14.336 32-32h128v-192h-448v192h128c0 17.664 14.336 32 32 32h-160v64h160c-17.664 0-32 14.336-32 32h-128c-17.664 0-32-14.336-32-32v-288c0-17.664 14.336-32 32-32h448c17.664 0 32 14.336 32 32v288c0 17.664-14.336 32-32 32zM192 352h128c17.664 0 32 14.336 32 32v32c0 17.664-14.336 32-32 32h-128c-17.664 0-32-14.336-32-32v-32c0-17.664 14.336-32 32-32zM192 416h128v-32h-128v32zM160 256v-32c0-17.664 14.336-32 32-32h128c17.664 0 32 14.336 32 32v32c0 17.664-14.336 32-32 32h-128c-17.664 0-32-14.336-32-32zM320 224h-128v32h128v-32z" />
<glyph unicode="&#xe022;" d="M464.672 480h-352c-44.16 0-79.904-35.488-80.544-79.488l-0.128 0.16v-352c0-44.544 36.128-80.672 80.672-80.672h272c17.664 0 31.328 14.336 31.328 32v336c0 8.832-6.496 16-15.328 16h-288c-26.848 0-48.672 20.512-48.672 47.328 0 26.848 21.824 48.672 48.672 48.672h335.328v-368c0-8.832 7.84-16 16.672-16s15.328 7.168 15.328 16v384c0 8.832-6.496 16-15.328 16zM112.672 320h271.36l0.64-320h-272c-26.848 0-48.672 21.824-48.672 48.672v286.976c13.44-9.856 30.24-15.648 48.672-15.648z" />
<glyph unicode="&#xe023;" d="M510.112 390.016c-4.032 13.024-15.744 22.656-30.112 22.656h-32v-49.664c0-26.464-21.536-48-48-48s-48 21.536-48 48v49.664h-192.16v-49.664c0-26.464-21.536-48-48-48s-48 21.536-48 48v49.664h-31.84c-14.368 0-26.080-9.632-30.112-22.656h-1.888v-390.016c0-17.664 14.336-32 32-32h448c17.664 0 32 14.336 32 32v390.016h-1.888zM480 0h-448v256h448v-256zM111.84 347.008c8.832 0 16 7.168 16 16v100.992c0 8.832-7.168 16-16 16s-16-7.168-16-16v-100.992c0-8.832 7.168-16 16-16zM400 347.008c8.832 0 16 7.168 16 16v100.992c0 8.832-7.168 16-16 16s-16-7.168-16-16v-100.992c0-8.832 7.168-16 16-16z" />
<glyph unicode="&#xe024;" d="M480 480h-448c-17.664 0-32-14.336-32-32v-448c0-17.664 14.336-32 32-32h448c17.664 0 32 14.336 32 32v448c0 17.664-14.336 32-32 32zM96 192v-64h-64v64h64zM32 256v64h64v-64h-64zM128 160h256v-160h-256v160zM384 192h-256v256h256v-256zM416 192h64v-64h-64v64zM416 256v64h64v-64h-64zM416 384v64h64v-64h-64zM96 384h-64v64h64v-64zM32 64h64v-64h-64v64zM416 64h64v-64h-64v64z" />
<glyph unicode="&#xe025;" d="M511.456 417.664c-1.408 16.48-14.72 30.336-31.456 30.336h-448c-16.736 0-30.048-13.856-31.456-30.336h-0.544v-417.664c0-17.664 14.336-32 32-32h448c17.664 0 32 14.336 32 32v417.664h-0.544zM192 256v96h128v-96h-128zM320 224v-98.656h-128v98.656h128zM160 352v-96h-128v96h128zM32 224h128v-98.656h-128v98.656zM32 0v96h128v-96h-128zM192 0v96h128v-96h-128zM480 0h-128v96h128v-96zM480 125.344h-128v98.656h128v-98.656zM480 256h-128v96h128v-96z" />
<glyph unicode="&#xe026;" d="M416 480h-384c-17.664 0-32-14.336-32-32v-448c0-17.664 14.336-32 32-32h384c17.664 0 32 14.336 32 32v448c0 17.664-14.336 32-32 32zM32 448h64v-448h-64v448zM416 0h-288v448h288v-448zM221.792 308.256c0 0 0 0 0 0 0-26.757 21.691-48.448 48.448-48.448 26.757 0 48.448 21.691 48.448 48.448 0 0 0 0 0 0 0 0 0 0 0 0 0 26.757-21.691 48.448-48.448 48.448-26.757 0-48.448-21.691-48.448-48.448 0 0 0 0 0 0zM271.232 240.448c-43.744 0-79.232-47.584-79.232-106.272s158.496-58.688 158.496 0-35.488 106.272-79.264 106.272zM480 448h32v-96h-32zM480 320h32v-96h-32zM480 192h32v-96h-32z" />
<glyph unicode="&#xe027;" d="M480 160v64c0 147.072-112.672 224-224 224-108.608 0-224-78.496-224-224v-64c-17.664 0-32-14.336-32-32v-64c0-17.664 14.336-32 32-32 0-17.664 14.336-32 32-32s32 14.336 32 32v128c0 17.664-14.336 32-32 32v32c0 126.048 96.608 192 192 192 92.48 0 192-60.064 192-192v-32c-17.664 0-32-14.336-32-32v-128c0-17.664 14.336-32 32-32s32 14.336 32 32c17.664 0 32 14.336 32 32v64c0 17.664-14.336 32-32 32z" />
<glyph unicode="&#xe028;" d="M256 480c-65.504 0-131.040-24.992-181.024-74.976-99.968-99.968-99.968-262.080 0-362.048 49.984-49.984 115.52-74.976 181.024-74.976s131.040 24.992 181.024 74.976c99.968 99.968 99.968 262.080 0 362.048-49.984 49.984-115.52 74.976-181.024 74.976zM165.504 133.504c-24.192 24.16-37.504 56.32-37.504 90.496s13.312 66.336 37.504 90.496c24.16 24.192 56.32 37.504 90.496 37.504s66.336-13.312 90.496-37.504c24.192-24.16 37.504-56.32 37.504-90.496 0-34.176-13.312-66.336-37.504-90.496-24.16-24.192-56.32-37.504-90.496-37.504s-66.336 13.312-90.496 37.504zM354.976 424.8l-49.376-49.376c-16.128 5.28-32.8 8.576-49.6 8.576-15.296 0-30.432-2.912-45.248-7.264l-49.92 49.92c29.44 13.792 61.696 21.344 95.168 21.344 34.944 0 68.544-8.16 98.976-23.2zM53.376 319.136l49.92-49.92c-9.152-31.040-8.768-64 1.28-94.848l-49.376-49.376c-15.040 30.464-23.2 64.064-23.2 99.008 0 33.472 7.552 65.728 21.376 95.136zM97.6 65.632v0c0-0.032 0-0.032 0 0v0zM164.704 19.552l50.432 50.432c13.408-3.552 27.072-5.984 40.864-5.984 15.296 0 30.432 2.912 45.248 7.296l49.92-49.92c-29.44-13.824-61.696-21.376-95.168-21.376-32.032 0-62.912 6.88-91.296 19.552zM458.56 128.928l-49.824 49.824c8.288 28.128 8.768 57.792 1.28 86.112l50.336 50.336c26.336-59.232 25.728-127.456-1.792-186.272z" />
<glyph unicode="&#xe029;" d="M256-32c82.528 0 155.744 39.232 202.56 99.872l-202.56 156.128v256c-141.376 0-256-114.624-256-256s114.624-256 256-256zM224 445.728v-221.728c0-9.92 4.608-19.296 12.448-25.344l175.424-135.232c-41.568-40.64-96.896-63.424-155.872-63.424-123.52 0-224 100.48-224 224 0 112.64 83.584 206.144 192 221.728zM300 475.712v-228.96l182.784-140.896c18.56 35.36 29.216 75.456 29.216 118.144 0 126.336-91.648 230.816-212 251.712z" />
<glyph unicode="&#xe02a;" d="M479.584 480c-17.92 0-32.416-14.528-32.416-32.416v-75.584c-36.544 44.256-78.656 108-194.56 108-139.264 0-252.608-113.312-252.608-252.608 0-139.296 113.344-252.608 252.608-252.608 109.376 0 205.824 69.856 240.064 173.824 5.664 17.312-3.744 35.968-21.056 41.664-17.312 5.696-35.968-3.712-41.664-21.024-25.28-76.832-96.544-128.448-177.344-128.448-102.912 0-186.624 83.712-186.624 186.624s83.712 186.24 186.624 186.24c72.864 0 113.344-45.344 146.368-92.896h-81.504c-17.92 0-32.416-14.528-32.416-32.416 0-17.92 14.528-32.416 32.416-32.416h162.112c17.888-0.064 32.416 14.464 32.416 32.352v159.296c0 17.888-14.528 32.416-32.416 32.416z" />
<glyph unicode="&#xe02b;" d="M152.928 415.104c18.72 18.72 49.152 18.72 67.872 0l171.616-171.616c8.448 31.968 0.544 67.36-24.512 92.416l-113.152 113.12c-37.504 37.504-98.272 37.504-135.776 0l-25.44-25.44c-37.504-37.504-37.504-98.272 0-135.776l113.152-113.152c25.056-25.056 60.448-32.96 92.416-24.512l-171.616 171.616c-18.72 18.72-18.72 49.152 0 67.872l25.44 25.472zM257.248-1.024c37.504-37.504 98.272-37.504 135.776 0l25.44 25.472c37.504 37.504 37.504 98.272 0 135.776l-113.152 113.088c-25.056 25.056-60.448 32.96-92.416 24.512l171.616-171.616c18.72-18.72 18.72-49.152 0-67.872l-25.472-25.472c-18.72-18.72-49.152-18.72-67.872 0l-171.584 171.648c-8.448-31.968-0.544-67.36 24.512-92.416l113.152-113.12z" />
<glyph unicode="&#xe02c;" d="M120.64 227.68c20.448-20.448 50.528-27.616 77.888-19.456l-151.168 151.136c-4.928 4.928-7.52 12.064-7.52 20.576 0 14.080 7.36 32.064 17.12 41.824 12.8 12.8 47.52 26.976 63.68 10.912l151.136-151.168c2.208 7.392 3.328 15.072 3.328 22.752 0 20.864-8.096 40.416-22.784 55.136l-102.496 102.464c-30.784 30.784-91.968 19.232-122.080-10.88-17.472-17.472-28.32-44.544-28.32-70.656 0-20.288 6.656-38.112 18.72-50.176l102.496-102.464zM391.36 220.32c-20.448 20.448-50.528 27.616-77.888 19.456l151.168-151.168c4.928-4.928 7.52-12.032 7.52-20.576 0-14.080-7.36-32.064-17.12-41.824-12.8-12.8-47.52-26.976-63.68-10.912l-151.136 151.2c-2.208-7.392-3.328-15.072-3.328-22.752 0-20.864 8.096-40.416 22.784-55.136l102.464-102.464c30.784-30.784 91.968-19.232 122.080 10.88 17.472 17.472 28.32 44.544 28.32 70.656 0 20.288-6.656 38.112-18.72 50.176l-102.464 102.464zM146.624 333.408c-4.096-4.064-6.336-9.504-6.336-15.264s2.24-11.168 6.304-15.232l188.288-188.32c8.416-8.384 22.080-8.384 30.496 0 4.096 4.064 6.304 9.504 6.304 15.264s-2.24 11.168-6.304 15.232l-188.288 188.32c-8.384 8.384-22.080 8.384-30.464 0z" />
<glyph unicode="&#xe02d;" d="M432.32 114.88c0-1.608 1.303-2.912 2.912-2.912s2.912 1.303 2.912 2.912c0 0 0 0 0 0 0 1.608-1.303 2.912-2.912 2.912-1.608 0-2.912-1.303-2.912-2.912 0 0 0 0 0 0zM368.032 48.544c0 0 0 0 0 0 0-3.199 2.593-5.792 5.792-5.792 3.199 0 5.792 2.593 5.792 5.792 0 0 0 0 0 0 0 0 0 0 0 0 0 3.199-2.593 5.792-5.792 5.792-3.199 0-5.792-2.593-5.792-5.792s0 0 0 0zM281.376 14.4c0-4.807 3.897-8.704 8.704-8.704s8.704 3.897 8.704 8.704c0 4.807-3.897 8.704-8.704 8.704-4.807 0-8.704-3.897-8.704-8.704zM188.096 18.976c0 0 0 0 0 0 0-6.397 5.186-11.584 11.584-11.584 6.398 0 11.584 5.187 11.584 11.584 0 0 0 0 0 0 0 0 0 0 0 0 0 6.397-5.186 11.584-11.584 11.584-6.398 0-11.584-5.187-11.584-11.584s0 0 0 0zM105.344 61.44c0-8.006 6.49-14.496 14.496-14.496s14.496 6.49 14.496 14.496c0 0 0 0 0 0 0 8.006-6.49 14.496-14.496 14.496-8.006 0-14.496-6.49-14.496-14.496 0 0 0 0 0 0zM48.032 133.632c0-9.614 7.794-17.408 17.408-17.408s17.408 7.794 17.408 17.408c0 9.614-7.794 17.408-17.408 17.408-9.614 0-17.408-7.794-17.408-17.408zM26.528 222.272c0-11.205 9.083-20.288 20.288-20.288s20.288 9.083 20.288 20.288c0 11.205-9.083 20.288-20.288 20.288-11.205 0-20.288-9.083-20.288-20.288zM44.224 310.336c0-12.813 10.387-23.2 23.2-23.2s23.2 10.387 23.2 23.2c0 12.813-10.387 23.2-23.2 23.2-12.813 0-23.2-10.387-23.2-23.2zM97.312 381.344c0-14.421 11.691-26.112 26.112-26.112s26.112 11.691 26.112 26.112c0 0 0 0 0 0 0 14.421-11.69 26.112-26.112 26.112-14.421 0-26.112-11.691-26.112-26.112 0 0 0 0 0 0zM175.264 422.016c0 0 0 0 0 0 0-16.012 12.98-28.992 28.992-28.992 16.012 0 28.992 12.98 28.992 28.992 0 0 0 0 0 0 0 0 0 0 0 0 0 16.012-12.98 28.992-28.992 28.992-16.012 0-28.992-12.98-28.992-28.992 0 0 0 0 0 0zM262.816 424.544c0-17.62 14.284-31.904 31.904-31.904s31.904 14.284 31.904 31.904c0 0 0 0 0 0 0 17.62-14.284 31.904-31.904 31.904-17.62 0-31.904-14.284-31.904-31.904 0 0 0 0 0 0zM342.976 388.48c0 0 0 0 0 0 0-19.211 15.574-34.784 34.784-34.784 19.211 0 34.784 15.573 34.784 34.784 0 0 0 0 0 0 0 0 0 0 0 0 0 19.21-15.574 34.784-34.784 34.784-19.211 0-34.784-15.574-34.784-34.784s0 0 0 0zM399.936 320.736c0-20.819 16.877-37.696 37.696-37.696s37.696 16.877 37.696 37.696c0 20.819-16.877 37.696-37.696 37.696-20.819 0-37.696-16.877-37.696-37.696zM422.592 232.992c0-22.427 18.181-40.608 40.608-40.608s40.608 18.181 40.608 40.608c0 22.427-18.181 40.608-40.608 40.608-22.427 0-40.608-18.181-40.608-40.608z" />
<glyph unicode="&#xe02e;" d="M256 480c-141.376 0-256-114.624-256-256s114.624-256 256-256 256 114.624 256 256-114.624 256-256 256zM256 416c105.856 0 192-86.144 192-192 0-41.408-13.312-79.68-35.68-111.072l-267.392 267.392c31.392 22.368 69.664 35.68 111.072 35.68zM64 224c0 41.408 13.312 79.68 35.68 111.072l267.392-267.392c-31.424-22.368-69.664-35.68-111.072-35.68-105.856 0-192 86.144-192 192z" />
<glyph unicode="&#xe02f;" d="M480 416h-448c-17.664 0-32-14.336-32-32v-64h512v64c0 17.664-14.336 32-32 32zM480 352h-448v32h448v-32zM32 0c0-17.664 14.336-32 32-32h384c17.664 0 32 14.336 32 32v288h-448v-288zM64 256h384v-256h-384v256zM336 224h-160c-8.832 0-16-7.168-16-16s7.168-16 16-16h160c8.832 0 16 7.168 16 16s-7.168 16-16 16z" />
<glyph unicode="&#xe030;" d="M511.744 290.656c-1.344 78.528-65.056 148.512-143.744 148.512-45.504 0-85.6-23.808-112-58.752-26.4 34.944-66.496 58.752-112 58.752-78.688 0-142.4-69.984-143.744-148.512h-0.256c0-0.48 0.096-0.928 0.096-1.408 0-0.352-0.096-0.704-0.096-1.088 0-2.208 0.544-3.872 0.64-5.984 7.040-200.128 253.344-282.176 253.344-282.176s249.92 81.952 257.312 281.856c0.128 2.24 0.704 4 0.704 6.304 0 0.384-0.096 0.736-0.096 1.088 0 0.512 0.096 0.928 0.096 1.408h-0.256zM479.328 283.040c-5.664-153.6-181.056-231.68-225.28-248.928-43.84 17.28-216.032 95.008-221.44 249.536-0.064 1.6-0.224 3.072-0.448 4.672 0.032 0.576 0.064 1.184 0.096 1.792 1.088 63.456 52.256 117.056 111.744 117.056 32.832 0 64.352-16.768 86.464-46.048 6.048-8 15.488-12.704 25.536-12.704s19.488 4.704 25.536 12.704c22.112 29.28 53.632 46.048 86.464 46.048 59.488 0 110.656-53.6 111.744-117.056 0-0.608 0.032-1.216 0.096-1.824-0.224-1.568-0.416-3.232-0.512-5.248z" />
<glyph unicode="&#xe031;" d="M510.144 272.864c-3.776 11.584-13.792 20.032-25.824 21.792l-137.92 20.032-61.696 124.96c-5.408 10.944-16.512 17.856-28.704 17.856s-23.296-6.912-28.704-17.856l-61.664-124.96-137.92-20.032c-12.064-1.76-22.080-10.208-25.824-21.792-3.776-11.584-0.64-24.288 8.096-32.8l99.808-97.28-23.552-137.376c-2.048-12 2.88-24.128 12.736-31.296 5.536-4.064 12.128-6.112 18.784-6.112 5.088 0 10.208 1.216 14.88 3.68l123.36 64.864 123.36-64.864c4.672-2.464 9.792-3.68 14.88-3.68 6.624 0 13.248 2.048 18.816 6.112 9.856 7.168 14.784 19.296 12.736 31.296l-23.552 137.376 99.808 97.28c8.704 8.48 11.84 21.216 8.096 32.8zM367.84 153.952l26.4-153.952-138.24 72.672-138.24-72.672 26.4 153.952-111.84 109.024 154.56 22.464 69.12 140.064 69.12-140.064 154.56-22.464-111.84-109.024z" />
<glyph unicode="&#xe032;" d="M510.144 272.864c-3.776 11.584-13.792 20.032-25.856 21.76l-137.92 20.032-61.664 124.992c-5.408 10.944-16.512 17.856-28.704 17.856s-23.296-6.912-28.704-17.856l-61.664-124.96-137.92-20.032c-12.064-1.76-22.080-10.208-25.824-21.792-3.776-11.584-0.64-24.288 8.096-32.8l99.808-97.28-23.552-137.376c-2.048-12 2.88-24.128 12.736-31.296 5.536-4.064 12.128-6.112 18.784-6.112 5.088 0 10.208 1.216 14.88 3.68l123.36 64.864 123.36-64.864c4.672-2.464 9.792-3.68 14.88-3.68 6.624 0 13.248 2.048 18.816 6.112 9.856 7.168 14.784 19.296 12.736 31.296l-23.552 137.376 99.808 97.28c8.736 8.512 11.872 21.216 8.096 32.8zM367.84 153.952l26.4-153.952-138.24 72.672v352.832l69.12-140.064 154.56-22.464-111.84-109.024z" />
<glyph unicode="&#xe033;" d="M332.096 291.712l-78.4 158.848-78.4-158.848-175.296-25.472 126.848-123.648-29.952-174.592 156.8 82.432 156.8-82.432-29.952 174.592 126.848 123.648z" />
<glyph unicode="&#xe034;" d="M256 50.432v400.128l-78.4-158.848-175.296-25.472 126.848-123.648-29.952-174.592z" />
<glyph unicode="&#xe035;" d="M13.568 49.44c-18.752-18.752-18.752-49.12 0-67.872 9.376-9.376 21.664-14.048 33.952-14.048 12.288 0 24.576 4.672 33.952 14.048l157.6 157.6-67.904 67.872-157.6-157.6zM407.456 341.536l68.576 35.488 35.968 69.472-33.504 33.504-69.472-35.968-35.488-68.576-83.584-83.584 33.92-33.92zM422.464 159.36c-2.176 0.128-4.256 0.64-6.464 0.64-11.712 0-22.816-2.4-33.184-6.24l-197.056 197.056c3.84 10.368 6.24 21.472 6.24 33.184 0 2.208-0.512 4.288-0.64 6.464-3.392 49.952-44.544 89.536-95.36 89.536-14.784 0-28.64-3.616-41.152-9.6l63.776-63.776c3.36-3.36 5.664-7.328 7.2-11.52 4.192-11.36 1.92-24.576-7.2-33.728-6.24-6.24-14.432-9.376-22.624-9.376-3.776 0-7.52 0.832-11.104 2.176-4.192 1.568-8.16 3.84-11.52 7.2l-63.776 63.776c-5.984-12.512-9.6-26.368-9.6-41.152 0-50.816 39.584-91.968 89.536-95.36 2.176-0.128 4.256-0.64 6.464-0.64 11.712 0 22.816 2.4 33.184 6.24l197.056-197.056c-3.84-10.368-6.24-21.472-6.24-33.184 0-2.208 0.512-4.288 0.64-6.464 3.392-49.952 44.544-89.536 95.36-89.536 14.784 0 28.64 3.616 41.152 9.6l-63.776 63.776c-3.36 3.36-5.664 7.328-7.2 11.52-4.192 11.36-1.92 24.576 7.2 33.728 6.24 6.24 14.432 9.376 22.624 9.376 3.776 0 7.52-0.832 11.104-2.176 4.192-1.568 8.16-3.84 11.52-7.2l63.776-63.776c5.984 12.512 9.6 26.368 9.6 41.152 0 50.816-39.584 91.968-89.536 95.36z" />
<glyph unicode="&#xe036;" d="M416 96c3.776 0 7.52-0.832 11.104-2.176 4.192-1.568 8.16-3.84 11.52-7.2l63.776-63.776c5.984 12.512 9.6 26.368 9.6 41.152 0 50.816-39.584 91.968-89.536 95.36-2.176 0.128-4.256 0.64-6.464 0.64-11.712 0-22.816-2.4-33.184-6.24l-197.056 197.056c3.84 10.368 6.24 21.472 6.24 33.184 0 2.208-0.512 4.288-0.64 6.464-3.392 49.952-44.544 89.536-95.36 89.536-14.784 0-28.64-3.616-41.152-9.6l63.776-63.776c3.36-3.36 5.664-7.328 7.2-11.52 4.192-11.36 1.92-24.576-7.2-33.728-6.24-6.24-14.432-9.376-22.624-9.376-3.776 0-7.52 0.832-11.104 2.176-4.192 1.568-8.16 3.84-11.52 7.2l-63.776 63.776c-5.984-12.512-9.6-26.368-9.6-41.152 0-50.816 39.584-91.968 89.536-95.36 2.176-0.128 4.256-0.64 6.464-0.64 11.712 0 22.816 2.4 33.184 6.24l197.056-197.056c-3.84-10.368-6.24-21.472-6.24-33.184 0-2.208 0.512-4.288 0.64-6.464 3.392-49.952 44.544-89.536 95.36-89.536 14.784 0 28.64 3.616 41.152 9.6l-63.776 63.776c-3.36 3.36-5.664 7.328-7.2 11.52-4.192 11.36-1.92 24.576 7.2 33.728 6.24 6.24 14.432 9.376 22.624 9.376z" />
<glyph unicode="&#xe037;" d="M440.416 277.088c-4.032 14.016-9.504 27.36-16.448 39.872l31.808 66.912c-11.808 14.72-25.184 28.096-39.904 39.904l-66.912-31.808c-12.48 6.912-25.856 12.416-39.872 16.448l-24.896 69.952c-9.248 1.024-18.656 1.632-28.192 1.632s-18.944-0.608-28.192-1.632l-24.896-69.952c-13.984-4.032-27.36-9.536-39.84-16.448l-66.944 31.808c-14.72-11.808-28.096-25.184-39.904-39.904l31.808-66.912c-6.912-12.48-12.416-25.856-16.448-39.872l-69.952-24.896c-1.024-9.248-1.632-18.656-1.632-28.192s0.608-18.944 1.632-28.192l69.984-24.896c4.032-14.016 9.504-27.36 16.448-39.872l-31.808-66.912c11.808-14.72 25.184-28.128 39.904-39.904l66.912 31.808c12.48-6.912 25.856-12.416 39.872-16.448l24.896-69.984c9.216-0.992 18.624-1.6 28.16-1.6s18.944 0.608 28.192 1.632l24.896 69.984c14.016 4.032 27.36 9.504 39.872 16.448l66.912-31.808c14.72 11.808 28.128 25.184 39.904 39.904l-31.808 66.912c6.912 12.48 12.416 25.856 16.448 39.872l69.984 24.896c0.992 9.216 1.6 18.624 1.6 28.16s-0.608 18.944-1.632 28.192l-69.952 24.896zM256 96c-70.688 0-128 57.312-128 128s57.312 128 128 128 128-57.312 128-128c0-70.688-57.312-128-128-128zM192 224c0-35.346 28.654-64 64-64s64 28.654 64 64c0 35.346-28.654 64-64 64-35.346 0-64-28.654-64-64z" />
<glyph unicode="&#xe038;" d="M15.648 204.832l55.52 2.048c6.56-8.512 14.144-16.256 22.592-23.168l-3.648-55.584c6.080-3.456 12.352-6.656 18.944-9.504 6.56-2.848 13.216-5.184 19.904-7.264l37.92 40.8c10.848-1.376 21.664-1.568 32.32-0.512l36.64-41.792c13.664 3.744 26.848 8.992 39.328 15.648l-2.016 55.552c8.48 6.56 16.224 14.144 23.136 22.592l55.584-3.648c3.456 6.080 6.656 12.352 9.504 18.944 2.848 6.56 5.184 13.216 7.264 19.904l-40.8 37.92c1.376 10.848 1.568 21.664 0.512 32.32l41.792 36.64c-3.744 13.664-8.992 26.848-15.648 39.328l-55.552-2.016c-6.56 8.48-14.144 16.224-22.592 23.136l3.648 55.584c-6.080 3.456-12.352 6.656-18.944 9.504-6.56 2.816-13.216 5.184-19.904 7.232l-37.888-40.8c-10.848 1.376-21.664 1.568-32.32 0.512l-36.672 41.792c-13.664-3.744-26.848-8.992-39.328-15.648l2.016-55.52c-8.48-6.56-16.224-14.112-23.136-22.56l-55.584 3.616c-3.456-6.080-6.656-12.352-9.504-18.944-2.816-6.56-5.184-13.216-7.232-19.904l40.8-37.92c-1.376-10.848-1.568-21.664-0.512-32.32l-41.792-36.64c3.744-13.632 8.992-26.848 15.648-39.328zM223.072 383.104c48.672-20.992 71.136-77.472 50.144-126.176s-77.472-71.136-126.176-50.144-71.136 77.472-50.144 126.176 77.472 71.136 126.176 50.144zM137.056 294.944c0-26.51 21.49-48 48-48s48 21.49 48 48c0 26.51-21.49 48-48 48-26.51 0-48-21.49-48-48zM480.672 103.232l-13.248 4.704 6.048 12.736 13.92 29.28c-5.152 6.432-11.008 12.288-17.472 17.472l-42.016-19.968-4.704 13.248-10.88 30.624c-4.032 0.416-8.16 0.672-12.32 0.672s-8.288-0.256-12.352-0.704l-15.584-43.872-42.016 19.968c-6.432-5.152-12.288-11.008-17.472-17.472l19.968-42.016-43.872-15.584c-0.416-4.032-0.672-8.16-0.672-12.32s0.256-8.288 0.704-12.32l43.872-15.584-6.048-12.736-13.92-29.28c5.152-6.432 11.008-12.288 17.472-17.472l42.016 19.968 4.704-13.248 10.88-30.624c4.032-0.448 8.16-0.704 12.32-0.704s8.288 0.256 12.352 0.704l15.584 43.872 42.016-19.968c6.432 5.152 12.288 11.008 17.472 17.472l-19.968 42.016 43.872 15.584c0.416 4.032 0.672 8.16 0.672 12.32s-0.256 8.288-0.704 12.352l-30.624 10.88zM400 56c-13.248 0-24 10.752-24 24s10.752 24 24 24 24-10.752 24-24c0-13.248-10.752-24-24-24z" />
<glyph unicode="&#xe039;" d="M272 448c-132.544 0-240-107.456-240-240s107.456-240 240-240 240 107.456 240 240-107.456 240-240 240zM379.328 228.672c-6.24-6.24-16.384-6.24-22.624 0l-68.704 68.704v-249.376c0-8.832-7.168-16-16-16s-16 7.168-16 16v249.376l-68.672-68.704c-6.24-6.24-16.384-6.24-22.624 0s-6.24 16.384 0 22.624l96 96c0.032 0.064 0.064 0.064 0.096 0.096 1.44 1.408 3.168 2.592 5.056 3.36 3.904 1.632 8.32 1.632 12.224 0 1.984-0.8 3.744-1.952 5.248-3.424l96-96c6.24-6.272 6.24-16.384 0-22.656z" />
<glyph unicode="&#xe03a;" d="M272 448c-132.544 0-240-107.456-240-240s107.456-240 240-240 240 107.456 240 240-107.456 240-240 240zM379.328 164.672l-96-96c-1.472-1.472-3.232-2.656-5.184-3.456-3.904-1.632-8.32-1.632-12.224 0-1.92 0.8-3.616 1.952-5.056 3.36-0.032 0.032-0.096 0.032-0.128 0.096l-96 96c-6.24 6.24-6.24 16.384 0 22.624s16.384 6.24 22.624 0l68.64-68.672v249.376c0 8.832 7.168 16 16 16s16-7.168 16-16v-249.376l68.672 68.672c6.24 6.24 16.384 6.24 22.624 0 6.272-6.24 6.272-16.352 0.032-22.624z" />
<glyph unicode="&#xe03b;" d="M272 448c-132.544 0-240-107.456-240-240s107.456-240 240-240 240 107.456 240 240-107.456 240-240 240zM448 208c0-8.832-7.168-16-16-16h-249.376l68.672-68.672c6.24-6.24 6.24-16.384 0-22.624s-16.384-6.24-22.624 0l-96 96c-0.032 0.032-0.064 0.096-0.096 0.16-1.408 1.44-2.56 3.136-3.328 5.024-0.8 1.952-1.248 4-1.248 6.048 0 0.032 0 0.032 0 0.064v0c0 2.080 0.416 4.16 1.248 6.112 0.768 1.888 1.92 3.584 3.328 5.024 0.064 0.064 0.064 0.128 0.128 0.192l96 96c6.24 6.24 16.384 6.24 22.624 0s6.24-16.384 0-22.624l-68.704-68.704h249.376c8.832 0 16-7.168 16-16z" />
<glyph unicode="&#xe03c;" d="M272 448c-132.544 0-240-107.456-240-240s107.456-240 240-240 240 107.456 240 240-107.456 240-240 240zM416 208c0-0.032 0-0.032 0-0.064 0-2.080-0.416-4.128-1.216-6.048-0.8-1.952-1.984-3.712-3.456-5.184l-96-96c-6.24-6.24-16.384-6.24-22.624 0s-6.24 16.384 0 22.624l68.672 68.672h-249.376c-8.832 0-16 7.168-16 16s7.168 16 16 16h249.376l-68.704 68.672c-6.24 6.24-6.24 16.384 0 22.624s16.384 6.24 22.624 0l96-96c1.472-1.472 2.656-3.232 3.456-5.184 0.832-1.952 1.248-4.032 1.248-6.112v0z" />
</font>
</defs>
</svg>
