<?xml version="1.0" standalone="no"?>
<!DOCTYPE svg PUBLIC "-//W3C//DTD SVG 1.1//EN" "http://www.w3.org/Graphics/SVG/1.1/DTD/svg11.dtd" >
<svg xmlns="http://www.w3.org/2000/svg">
<metadata>
This is a custom SVG webfont generated by Font Squirrel.
Copyright   : Copyright 19901993 Bitstream Inc  All rights reserved
</metadata>
<defs>
<font id="FuturaMdBTMedium" horiz-adv-x="1024" >
<font-face units-per-em="2048" ascent="1638" descent="-410" />
<missing-glyph horiz-adv-x="618" />
<glyph unicode=" "  horiz-adv-x="618" />
<glyph unicode="&#x09;" horiz-adv-x="618" />
<glyph unicode="&#xa0;" horiz-adv-x="618" />
<glyph unicode="!" horiz-adv-x="674" d="M223 1497h228v-1161h-228v1161zM205 92q0 54 38.5 92.5t92.5 38.5q55 0 93 -38t38 -93q0 -54 -38 -92.5t-93 -38.5q-54 0 -92.5 38.5t-38.5 92.5z" />
<glyph unicode="&#x22;" horiz-adv-x="643" d="M395 1436h164v-557h-164v557zM86 1436h164v-557h-164v557z" />
<glyph unicode="#" horiz-adv-x="1575" d="M709 852l-91 -254h256l91 254h-256zM735 1460h191l-154 -436h250l156 436h190l-154 -436h291l-59 -172h-293l-90 -252h309l-61 -172h-307l-156 -434h-191l156 434h-252l-158 -434h-190l156 434h-299l61 172h297l90 252h-315l61 172h316z" />
<glyph unicode="$" horiz-adv-x="1237" d="M137 317l189 84q24 -84 83.5 -132t157.5 -60v457q-204 84 -297.5 184.5t-93.5 236.5q0 159 104 261.5t287 126.5v112h105v-114q144 -12 235 -69.5t131 -162.5l-184 -92q-32 51 -77 82t-105 43v-402q244 -114 328.5 -208t84.5 -234q0 -179 -107.5 -291.5t-305.5 -136.5 v-170h-105v166q-86 0 -155.5 23.5t-130.5 68.5q-108 80 -144 227zM567 1268q-72 -21 -105.5 -61t-33.5 -105q0 -61 33 -107t106 -86v359zM672 215q80 21 124 72.5t44 128.5q0 66 -39 114t-129 93v-408z" />
<glyph unicode="%" horiz-adv-x="1622" d="M1237 80q75 0 112 67.5t37 200.5q0 130 -37 198t-108 68q-74 0 -112 -68q-17 -32 -27 -83t-10 -117q0 -127 37.5 -196.5t107.5 -69.5zM913 348q0 181 87 283t241 102q155 0 240.5 -100.5t85.5 -284.5q0 -181 -87 -284t-241 -103q-153 0 -239.5 102.5t-86.5 284.5z M57 1094q0 179 87 282t241 103q155 0 240.5 -100.5t85.5 -284.5q0 -183 -86 -284t-240 -101t-241 101t-87 284zM383 825q73 0 110 67.5t37 201.5q0 129 -36.5 198.5t-106.5 69.5q-73 0 -111 -69t-38 -201q0 -130 37.5 -198.5t107.5 -68.5zM455 -39h-138l854 1518h138z" />
<glyph unicode="&#x26;" horiz-adv-x="1374" d="M571 934l54 31q56 33 84 76q14 23 21 46t7 52q0 62 -38 101.5t-99 39.5q-67 0 -108 -39.5t-41 -103.5q0 -32 11.5 -60t35.5 -55zM834 295l-320 369l-37 -25q-106 -68 -147 -124.5t-41 -125.5q0 -96 68 -164q34 -34 75.5 -50.5t93.5 -16.5q39 0 75 8t76 26q77 33 157 103z M1087 0l-118 139q-104 -89 -213 -131.5t-240 -42.5q-200 0 -327.5 117t-127.5 301q0 123 77.5 228.5t248.5 213.5l-59 64q-49 53 -75 116.5t-26 127.5q0 143 105 236t272 93q164 0 261.5 -83.5t97.5 -225.5q0 -107 -67.5 -195t-217.5 -176l305 -354q24 24 43.5 45.5 t46.5 54.5q12 15 46 60q26 34 52 69l140 -149q-39 -64 -89 -122q-46 -55 -106 -107l246 -279h-275z" />
<glyph unicode="'" horiz-adv-x="334" d="M86 1436h164v-557h-164v557z" />
<glyph unicode="(" horiz-adv-x="621" d="M406 -446q-117 216 -177.5 465t-60.5 520q0 147 14 276.5t45 256.5q59 248 179 460l163 -49q-107 -212 -159 -443q-26 -117 -39 -239t-13 -260q0 -282 51 -510.5t160 -423.5z" />
<glyph unicode=")" horiz-adv-x="621" d="M207 -446l-162 53q108 195 159.5 425.5t51.5 508.5q0 270 -51.5 499t-159.5 443l162 49q119 -212 178 -460t59 -533q0 -277 -59 -521.5t-178 -463.5z" />
<glyph unicode="*" horiz-adv-x="901" d="M178 868l-72 121l226 115l-226 133l72 123l211 -135l-12 239h145l-14 -241l215 137l72 -123l-232 -127l232 -121l-76 -121l-211 140l14 -246h-145l10 244z" />
<glyph unicode="+" horiz-adv-x="1706" d="M768 1221h170v-527h514v-166h-514v-528h-170v528h-514v166h514v527z" />
<glyph unicode="," horiz-adv-x="618" d="M309 248l195 -72l-260 -536l-129 51z" />
<glyph unicode="-" horiz-adv-x="829" d="M147 571h535v-200h-535v200z" />
<glyph unicode="." horiz-adv-x="618" d="M178 111q0 55 38 94t93 39q54 0 92.5 -39.5t38.5 -93.5t-38.5 -91.5t-92.5 -37.5q-55 0 -93 37.5t-38 91.5z" />
<glyph unicode="/" horiz-adv-x="887" d="M717 1497h170l-717 -1687h-170z" />
<glyph unicode="0" horiz-adv-x="1237" d="M1145 705q0 -347 -140.5 -545.5t-386.5 -198.5q-249 0 -387.5 199.5t-138.5 560.5q0 358 140 558t389 200q251 0 387.5 -201t136.5 -573zM614 166q146 0 219.5 139.5t73.5 417.5q0 271 -73 412t-211 141q-144 0 -218.5 -141.5t-74.5 -415.5q0 -267 73.5 -410t210.5 -143z " />
<glyph unicode="1" horiz-adv-x="1237" d="M541 0v1262h-303l92 188h428v-1450h-217z" />
<glyph unicode="2" horiz-adv-x="1237" d="M1024 190v-190h-981l547 655q52 62 87.5 114t61.5 102q47 94 47 169q0 109 -64 171.5t-177 62.5q-99 0 -164 -62t-74 -165h-229q0 195 132.5 313.5t354.5 118.5q212 0 334.5 -108.5t122.5 -297.5q0 -135 -70.5 -271t-298.5 -396l-186 -216h557z" />
<glyph unicode="3" horiz-adv-x="1237" d="M94 391h228v-12q0 -99 69 -160t187 -61q131 0 204.5 66.5t73.5 191.5q0 129 -75 196.5t-222 67.5l-22 -1l-23 -1v192l21 -1l22 -1q128 0 195 54t67 161q0 92 -59.5 148.5t-159.5 56.5q-107 0 -168 -52q-30 -25 -46.5 -62t-16.5 -82h-215q0 90 33 162.5t94 124.5 q118 100 325 100q201 0 318.5 -105.5t117.5 -283.5q0 -136 -66 -221t-185 -105q138 -24 211 -121.5t73 -257.5q0 -195 -136 -309.5t-370 -114.5q-211 0 -340 116q-67 61 -101 138t-34 176z" />
<glyph unicode="4" horiz-adv-x="1237" d="M735 989l-373 -526h367v381l1 67zM729 0v297h-702l852 1182h67v-1016h178v-166h-178v-297h-217z" />
<glyph unicode="5" horiz-adv-x="1237" d="M236 350q52 -94 131.5 -144t177.5 -50q144 0 234.5 92.5t90.5 243.5q0 144 -94.5 235.5t-247.5 91.5q-94 0 -171.5 -31t-137.5 -94l-59 13l182 743h692v-193h-549l-86 -323q58 23 115 36t113 13q209 0 340 -134t131 -349q0 -246 -153.5 -392.5t-409.5 -146.5 q-153 0 -264 52t-193 163z" />
<glyph unicode="6" horiz-adv-x="1237" d="M340 449q0 -131 72.5 -211t189.5 -80q129 0 205 78t76 213q0 137 -74 214.5t-205 77.5q-116 0 -190 -81.5t-74 -210.5zM473 889q43 20 93.5 33.5t97.5 13.5q194 0 322 -133t128 -340q0 -225 -142 -363.5t-376 -138.5q-217 0 -350 135t-133 355q0 235 320 685l26 35 l256 363l182 -92z" />
<glyph unicode="7" horiz-adv-x="1237" d="M229 31l598 1231h-677v188h1009l-737 -1505z" />
<glyph unicode="8" horiz-adv-x="1237" d="M375 774q-107 46 -159 122t-52 191q0 175 123.5 283.5t328.5 108.5q209 0 332 -109t123 -293q0 -108 -53.5 -185.5t-157.5 -117.5q121 -39 190.5 -141t69.5 -240q0 -201 -133.5 -316.5t-370.5 -115.5q-233 0 -367 114.5t-134 313.5q0 145 68 245t192 140zM621 1286 q-103 0 -163.5 -54.5t-60.5 -148.5q0 -92 59 -144t160 -52q104 0 163 51t59 145t-57.5 148.5t-159.5 54.5zM616 156q129 0 202 67.5t73 186.5t-73 187.5t-202 68.5q-125 0 -198.5 -69.5t-73.5 -186.5q0 -118 72.5 -186t199.5 -68z" />
<glyph unicode="9" horiz-adv-x="1237" d="M879 993q0 130 -72 210.5t-189 80.5q-130 0 -206 -78t-76 -213q0 -139 74 -217t204 -78q116 0 190.5 82.5t74.5 212.5zM745 551q-44 -22 -93.5 -33.5t-96.5 -11.5q-196 0 -323.5 132.5t-127.5 338.5q0 225 142.5 363.5t376.5 138.5q217 0 351 -134.5t134 -353.5 q0 -233 -321 -685l-25 -36l-258 -362l-180 92z" />
<glyph unicode=":" horiz-adv-x="674" d="M205 795q0 53 39 91t92 38q55 0 93 -36.5t38 -92.5q0 -55 -38 -93t-93 -38t-93 38t-38 93zM205 111q0 53 38.5 92t92.5 39q55 0 93 -38t38 -93q0 -54 -38.5 -91.5t-92.5 -37.5q-55 0 -93 37.5t-38 91.5z" />
<glyph unicode=";" horiz-adv-x="674" d="M293 795q0 53 37.5 91t91.5 38q56 0 93.5 -36.5t37.5 -92.5q0 -55 -38 -93t-93 -38q-54 0 -91.5 38.5t-37.5 92.5zM315 248l195 -72l-260 -536l-131 51z" />
<glyph unicode="&#x3c;" horiz-adv-x="1706" d="M1442 1176v-185l-934 -381l934 -381v-182l-1178 483v160z" />
<glyph unicode="=" horiz-adv-x="1706" d="M254 487h1198v-165h-1198v165zM254 901h1198v-168h-1198v168z" />
<glyph unicode="&#x3e;" horiz-adv-x="1706" d="M264 1176l1178 -486v-160l-1178 -483v182l934 381l-934 381v185z" />
<glyph unicode="?" horiz-adv-x="1114" d="M381 1116h-172l-1 18l-1 19q0 156 96 251t254 95q162 0 259 -94t97 -250q0 -114 -56 -187t-224 -157l-24 -12q-197 -98 -197 -185q0 -49 39.5 -87t93.5 -38q66 0 103.5 40.5t37.5 115.5h178v-20q0 -147 -83 -228.5t-236 -81.5q-142 0 -234 83.5t-92 211.5 q0 116 62.5 194.5t248.5 168.5q124 58 159.5 97.5t35.5 92.5q0 65 -47.5 109.5t-120.5 44.5q-81 0 -128.5 -53.5t-47.5 -147.5zM397 92q0 53 39 92t92 39q56 0 93.5 -38t37.5 -93q0 -54 -38 -92.5t-93 -38.5q-54 0 -92.5 38.5t-38.5 92.5z" />
<glyph unicode="@" horiz-adv-x="2048" d="M1174 283q-54 -86 -128 -127t-176 -41q-151 0 -232 87t-81 249q0 231 138 394t333 163q89 0 149.5 -34t98.5 -108l55 107h154l-148 -586l-2 -12l-6 -37q0 -38 27 -61t69 -23q50 0 107 30t106 85q36 37 63 80.5t47 96.5q38 103 38 216q0 252 -187 410.5t-489 158.5 q-139 0 -256 -30.5t-215 -94.5q-180 -112 -278.5 -290.5t-98.5 -395.5q0 -312 210 -499t558 -187q166 0 323.5 48.5t291.5 142.5l67 -99q-147 -111 -317 -169t-357 -58q-192 0 -350.5 48t-281.5 142q-154 117 -232 275q-38 80 -57 168t-19 190q0 166 51.5 314t153.5 272 q146 178 353 271.5t460 93.5q167 0 316 -45.5t254 -127.5q133 -103 198.5 -235.5t65.5 -300.5q0 -163 -65 -303t-185 -236q-69 -54 -150 -84q-43 -14 -83 -21t-85 -7q-105 0 -156.5 40.5t-51.5 125.5v4zM1233 707q-14 85 -62 130.5t-122 45.5q-125 0 -216.5 -128.5 t-91.5 -310.5q0 -97 45 -150.5t129 -53.5q89 0 162.5 66t100.5 173z" />
<glyph unicode="A" horiz-adv-x="1356" d="M477 575h408l-150 334l-27 73l-28 93q-7 -28 -12.5 -48t-13.5 -42q-11 -39 -27 -76zM1135 0l-166 377h-580l-170 -377h-250l709 1522l708 -1522h-251z" />
<glyph unicode="B" horiz-adv-x="1180" d="M401 846h91q170 0 240.5 46.5t70.5 156.5q0 121 -65.5 169t-245.5 48h-91v-420zM401 199h82q127 0 188 9.5t97 35.5q42 28 67 77t25 109q0 70 -29 122t-83 81q-31 16 -78 25q-21 4 -47.5 6t-67.5 2h-72h-82v-467zM168 0v1464h369q79 0 137 -4t96 -13q77 -17 129 -56 q68 -50 105.5 -131.5t37.5 -178.5q0 -116 -54 -195t-157 -110q128 -19 201.5 -116.5t73.5 -243.5q0 -89 -30.5 -168.5t-89 -137.5t-149.5 -84t-298 -26h-371z" />
<glyph unicode="C" horiz-adv-x="1470" d="M1343 1108q-101 86 -214 129q-56 21 -114.5 32t-121.5 11q-240 0 -390.5 -153.5t-150.5 -399.5q0 -238 147 -391.5t369 -153.5q66 0 125.5 11t121.5 35q117 45 226 139v-269q-96 -69 -209 -103q-55 -16 -117.5 -25t-127.5 -9q-168 0 -309.5 54.5t-250 161t-166 249 t-57.5 303.5q0 159 57.5 302t166 250t250.5 162.5t305 55.5q66 0 126 -9t120 -29q118 -36 227 -113z" />
<glyph unicode="D" horiz-adv-x="1516" d="M406 215h200q166 0 248.5 21.5t142.5 74.5q82 70 124 175.5t42 246.5q0 138 -41.5 244.5t-124.5 177.5q-60 50 -149.5 73t-269.5 23h-86h-86v-1036zM168 0v1464h321q315 0 440.5 -31t223.5 -106q126 -96 192 -248.5t66 -347.5q0 -194 -65 -344t-193 -250 q-95 -73 -219 -106q-61 -15 -156 -23t-225 -8h-64h-321z" />
<glyph unicode="E" horiz-adv-x="1090" d="M168 0v1464h817v-202h-579v-367h579v-209h-579v-473h579v-213h-817z" />
<glyph unicode="F" horiz-adv-x="1075" d="M168 0v1464h817v-202h-579v-365h579v-209h-579v-688h-238z" />
<glyph unicode="G" horiz-adv-x="1645" d="M979 750h580l1 -42l3 -96q0 -309 -177 -480t-499 -171q-183 0 -322.5 52.5t-244 158.5t-160.5 251t-56 306q0 167 56.5 306t165 245.5t254.5 161.5t307 55q172 0 308.5 -63t244.5 -193l-174 -131q-73 85 -166.5 127.5t-208.5 42.5q-236 0 -387.5 -152.5t-151.5 -396.5 q0 -247 150.5 -402t390.5 -155q205 0 321.5 95t116.5 259v21h-352v201z" />
<glyph unicode="H" horiz-adv-x="1532" d="M168 0v1464h238v-540h720v540h238v-1464h-238v711h-720v-711h-238z" />
<glyph unicode="I" horiz-adv-x="584" d="M172 0v1464h238v-1464h-238z" />
<glyph unicode="J" horiz-adv-x="807" d="M156 266q36 -44 70.5 -64t72.5 -20q68 0 97.5 46t29.5 171v1065h236v-1142q0 -186 -81.5 -273.5t-256.5 -87.5q-97 0 -173.5 36.5t-146.5 115.5z" />
<glyph unicode="K" horiz-adv-x="1270" d="M168 0v1464h238v-606l526 606h291l-580 -651l649 -813h-307l-579 748v-748h-238z" />
<glyph unicode="L" horiz-adv-x="963" d="M168 0v1464h238v-1251h532v-213h-770z" />
<glyph unicode="M" horiz-adv-x="1767" d="M1362 723l-13 94l-14 106q-10 -54 -26 -104t-41 -98l-383 -780l-383 796q-25 51 -42 95l-30 91q0 -36 -1.5 -51.5t-6.5 -45.5q-6 -54 -19 -105l-157 -721h-219l346 1526l432 -924l30 -73l50 -126q20 61 66 160l18 40l422 923l354 -1526h-221z" />
<glyph unicode="N" horiz-adv-x="1645" d="M168 0v1522l930 -895l77 -81q38 -41 82 -97v1015h220v-1521l-949 911q-21 20 -37 37q-7 7 -37 41q-36 42 -67 86v-1018h-219z" />
<glyph unicode="O" horiz-adv-x="1774" d="M1421 729q0 113 -40 212t-115 176t-172.5 119t-206.5 42t-205.5 -40.5t-173.5 -119.5q-73 -75 -116 -177q-20 -51 -30 -102t-10 -110q0 -112 40 -210q20 -51 48 -94t68 -83q74 -77 172 -118.5t207 -41.5q108 0 204.5 41t171 118t116.5 177.5t42 210.5zM1669 729 q0 -158 -58 -295.5t-170 -245.5t-255.5 -167.5t-298.5 -59.5q-158 0 -301.5 58.5t-253.5 166t-169 247.5t-59 296t58 296t169.5 248.5t253.5 166t302 57.5q156 0 297.5 -57t253.5 -166.5t171.5 -249.5t59.5 -295z" />
<glyph unicode="P" horiz-adv-x="1090" d="M406 852h61q199 0 264.5 42.5t65.5 152.5q0 118 -70 165.5t-260 47.5h-61v-408zM391 657v-657h-223v1464h360q158 0 234 -17t133 -58q69 -51 108 -137.5t39 -190.5q0 -103 -39 -191t-108 -139q-55 -39 -132 -56.5t-235 -17.5h-47h-90z" />
<glyph unicode="Q" horiz-adv-x="1774" d="M1151 524l141 -151q64 79 96.5 168.5t32.5 189.5q0 112 -39.5 210.5t-116 176.5t-174.5 120t-204 42t-204 -42t-173.5 -118.5t-116.5 -178t-41 -210.5q0 -230 156 -387.5t385 -157.5q63 0 119 13t112 43l-262 282h289zM1448 199l311 -336h-284l-191 207 q-96 -52 -198.5 -78.5t-211.5 -26.5q-150 0 -292.5 59t-251 165t-167.5 246t-59 296t58.5 295.5t169 247.5t254 165.5t301.5 57.5q80 0 154 -14t147 -44q141 -57 251.5 -164.5t170 -247.5t59.5 -296q0 -151 -56.5 -288.5t-164.5 -243.5z" />
<glyph unicode="R" horiz-adv-x="1147" d="M406 840h43q189 0 251 44t62 156q0 119 -67 169.5t-246 50.5h-43v-420zM391 655v-655h-223v1464h332q147 0 227 -18.5t137 -63.5q68 -53 105 -137q17 -40 27 -87.5t10 -96.5q0 -176 -84 -275t-252 -120l504 -666h-269l-487 655h-27z" />
<glyph unicode="S" horiz-adv-x="1124" d="M84 293l190 88q27 -97 99 -149t184 -52q106 0 168.5 59t62.5 158q0 128 -214 230l-46 22q-240 116 -321.5 213t-81.5 234q0 178 121.5 289.5t318.5 111.5q161 0 270 -62t152 -180l-186 -96q-43 68 -96 100.5t-121 32.5q-97 0 -153 -50t-56 -134q0 -132 248 -246l30 -14 q216 -99 297.5 -195t81.5 -239q0 -207 -131 -330t-354 -123q-187 0 -306 86t-157 246z" />
<glyph unicode="T" horiz-adv-x="1042" d="M641 1262v-1262h-238v1262h-389v202h1014v-202h-387z" />
<glyph unicode="U" horiz-adv-x="1524" d="M162 1464h235v-889q0 -198 91.5 -297.5t273.5 -99.5q179 0 271.5 99.5t92.5 297.5v889h238v-911q0 -296 -150 -444t-452 -148q-301 0 -450.5 147t-149.5 445v911z" />
<glyph unicode="V" horiz-adv-x="1266" d="M633 -57l-653 1521h247l328 -780q29 -67 47.5 -125.5t30.5 -109.5q12 54 33 114q11 32 21.5 60.5t25.5 60.5l327 780h246z" />
<glyph unicode="W" horiz-adv-x="1923" d="M-6 1464h235l277 -739q29 -77 45 -128l33 -103q35 119 73 227l7 19l294 782l310 -797l41 -116l37 -117q9 45 27 99q13 42 24 74q6 17 20 54l275 745h237l-567 -1521l-334 835l-40 107l-32 98l-34 -111l-16 -50q-3 -8 -19 -48l-328 -831z" />
<glyph unicode="X" horiz-adv-x="1171" d="M0 0l475 766l-420 698h250l211 -358q10 -16 23.5 -41.5t39.5 -74.5l15 -29l35 66l45 77l223 360h244l-428 -694l461 -770h-263l-245 415l-4 7l-74 141l-37 -71l-43 -74l-256 -418h-252z" />
<glyph unicode="Y" horiz-adv-x="1214" d="M483 0v670l-493 794h250l307 -497l27 -50l34 -67q3 6 10.5 25.5t18.5 40.5q15 30 33 57l315 491h238l-504 -794v-670h-236z" />
<glyph unicode="Z" horiz-adv-x="1180" d="M18 0l746 1262h-621v202h987l-739 -1251h748v-213h-1121z" />
<glyph unicode="[" horiz-adv-x="621" d="M389 -256h191v-158h-381v1911h381v-156h-191v-1597z" />
<glyph unicode="\" horiz-adv-x="887" d="M717 -190l-717 1687h170l717 -1687h-170z" />
<glyph unicode="]" horiz-adv-x="621" d="M231 -256v1597h-188v156h379v-1911h-379v158h188z" />
<glyph unicode="^" horiz-adv-x="2048" d="M915 1460h218l495 -561h-207l-397 397l-399 -397h-207z" />
<glyph unicode="_" d="M0 -311h1024v-172h-1024v172z" />
<glyph unicode="`" d="M653 1092h-123l-292 272h225z" />
<glyph unicode="a" horiz-adv-x="1192" d="M1042 0h-217v123q-56 -80 -135 -121t-178 -41q-201 0 -316.5 138t-115.5 376q0 227 117.5 366.5t308.5 139.5q116 0 198 -48.5t121 -139.5v155h217v-948zM831 477q0 146 -68.5 228.5t-191.5 82.5q-122 0 -193 -85t-71 -234q0 -150 68 -232.5t192 -82.5q117 0 190.5 89 t73.5 234z" />
<glyph unicode="b" horiz-adv-x="1192" d="M360 477q0 -145 74.5 -234t192.5 -89q123 0 190.5 82t67.5 233t-70.5 235t-193.5 84t-192 -81.5t-69 -229.5zM367 1550v-757q37 90 121 139q41 23 92 36t108 13q190 0 307 -139.5t117 -366.5q0 -239 -115 -376.5t-317 -137.5q-99 0 -177.5 40t-135.5 122v-123h-217v1550 h217z" />
<glyph unicode="c" horiz-adv-x="930" d="M858 678q-49 54 -116.5 83.5t-143.5 29.5q-133 0 -213 -86t-80 -228q0 -147 80.5 -232t222.5 -85q39 0 74.5 7t66.5 22q61 30 109 90v-250q-60 -33 -129.5 -50.5t-144.5 -17.5q-222 0 -364 142q-70 71 -105 162t-35 206q0 228 145.5 369t380.5 141q73 0 136 -15 q32 -7 59 -17t57 -27v-244z" />
<glyph unicode="d" horiz-adv-x="1192" d="M831 477q0 146 -68.5 228.5t-191.5 82.5q-122 0 -193 -85t-71 -234q0 -150 68 -232.5t192 -82.5q116 0 190 89t74 234zM825 1550h217v-1550h-217v123q-56 -80 -135 -121t-178 -41q-201 0 -316.5 138t-115.5 376q0 227 117.5 366.5t308.5 139.5q116 0 198 -48.5 t121 -139.5v757z" />
<glyph unicode="e" horiz-adv-x="1139" d="M1063 442h-758q0 -65 20 -116t59 -92q71 -74 189 -74q106 0 174.5 43.5t122.5 142.5l183 -102q-79 -142 -198 -213q-58 -34 -127.5 -52t-149.5 -18q-228 0 -363 138.5t-135 371.5q0 223 139.5 366.5t358.5 143.5q229 0 357 -131t128 -367v-41zM838 588q-12 101 -77.5 155 t-178.5 54q-107 0 -171.5 -51.5t-91.5 -157.5h519z" />
<glyph unicode="f" horiz-adv-x="627" d="M180 0v758h-166v190h166v254q0 189 78 279t244 90q17 0 35 -1t35.5 -3.5t37 -6.5t39.5 -10v-196q-25 15 -46 20.5t-32.5 7.5t-27.5 2q-77 0 -111.5 -48.5t-34.5 -161.5v-226h228v-190h-228v-758h-217z" />
<glyph unicode="g" horiz-adv-x="1192" d="M831 477q0 146 -68.5 228.5t-191.5 82.5q-122 0 -193 -85t-71 -234q0 -150 68 -232.5t192 -82.5q117 0 190.5 89t73.5 234zM1042 59q0 -277 -111 -391t-374 -114q-196 0 -314 82.5t-118 219.5l233 1q0 -29 14.5 -52.5t42.5 -40.5q52 -32 146 -32q138 0 200 61.5t62 203.5 l2 126q-56 -80 -135 -121t-178 -41q-201 0 -316.5 138t-115.5 376q0 227 117.5 366.5t308.5 139.5q116 0 198 -48.5t121 -139.5v155h217v-889z" />
<glyph unicode="h" horiz-adv-x="1204" d="M150 0v1550h204v-757q63 96 151.5 142t215.5 46q106 0 180.5 -33.5t116.5 -99.5q24 -39 36 -91q5 -24 8 -69.5t3 -112.5v-575h-219v487q0 186 -45.5 248t-161.5 62q-76 0 -135.5 -27.5t-93.5 -79.5q-23 -32 -33 -86.5t-10 -171.5v-432h-217z" />
<glyph unicode="i" horiz-adv-x="537" d="M131 1358q0 54 41 94.5t96 40.5q57 0 96 -38.5t39 -96.5q0 -56 -39 -96.5t-96 -40.5q-56 0 -96.5 41t-40.5 96zM160 0v948h217v-948h-217z" />
<glyph unicode="j" horiz-adv-x="537" d="M131 1358q0 54 41 94.5t96 40.5q57 0 96 -38.5t39 -96.5q0 -56 -39 -96.5t-96 -40.5q-56 0 -96.5 41t-40.5 96zM160 -446v1394h217v-1394h-217z" />
<glyph unicode="k" horiz-adv-x="1057" d="M150 0v1550h217v-995l397 393h268l-430 -418l471 -530h-280l-426 489v-489h-217z" />
<glyph unicode="l" horiz-adv-x="537" d="M160 0v1550h217v-1550h-217z" />
<glyph unicode="m" horiz-adv-x="1792" d="M367 0h-217v948h204v-155q65 99 148 144.5t194 45.5q112 0 184 -46t111 -142q74 96 158.5 142t193.5 46q94 0 163.5 -34t109.5 -101q17 -28 26 -72t9 -125v-76v-575h-217v487q0 191 -40.5 251.5t-144.5 60.5q-128 0 -182.5 -81.5t-54.5 -285.5v-432h-219v487 q0 176 -42.5 244t-146.5 68q-65 0 -117.5 -29t-83.5 -80q-19 -32 -27.5 -82t-8.5 -176v-432z" />
<glyph unicode="n" horiz-adv-x="1204" d="M150 0v948h204v-155q63 96 151.5 142t215.5 46q106 0 180.5 -33.5t116.5 -99.5q24 -39 36 -91q5 -24 8 -69.5t3 -112.5v-575h-219v487q0 186 -45.5 248t-161.5 62q-76 0 -135.5 -27.5t-93.5 -79.5q-23 -32 -33 -86.5t-10 -171.5v-432h-217z" />
<glyph unicode="o" horiz-adv-x="1204" d="M895 471q0 132 -84.5 223.5t-208.5 91.5q-122 0 -207.5 -91.5t-85.5 -223.5t85.5 -223.5t207.5 -91.5t207.5 91.5t85.5 223.5zM80 473q0 103 39 196t112 164t169.5 109.5t199.5 38.5q109 0 202 -37.5t168.5 -111t114.5 -166t39 -193.5q0 -104 -38 -196t-114 -165 t-171.5 -112t-200.5 -39q-102 0 -197 38t-170 112t-114 166t-39 196z" />
<glyph unicode="p" horiz-adv-x="1192" d="M360 477q0 -147 73.5 -235t193.5 -88q123 0 190.5 82t67.5 233t-70.5 235t-193.5 84t-192 -81.5t-69 -229.5zM150 -446v1394h217v-155q37 90 121 139q41 23 92 36t108 13q190 0 307 -139.5t117 -366.5q0 -239 -115 -376.5t-317 -137.5q-99 0 -177.5 40t-135.5 122v-569 h-217z" />
<glyph unicode="q" horiz-adv-x="1192" d="M831 477q0 146 -68.5 228.5t-191.5 82.5q-122 0 -193 -85t-71 -234q0 -150 68 -232.5t192 -82.5q118 0 191 88t73 235zM1042 -446h-217v569q-56 -80 -135 -121t-178 -41q-201 0 -316.5 138t-115.5 376q0 227 117.5 366.5t308.5 139.5q116 0 198 -48.5t121 -139.5v155h217 v-1394z" />
<glyph unicode="r" horiz-adv-x="754" d="M367 797q35 93 92 138.5t143 45.5q49 0 90 -11q48 -11 88 -32l-78 -184q-25 18 -60.5 28.5t-72.5 10.5q-107 0 -154.5 -86.5t-47.5 -290.5v-416h-217v950h217v-153z" />
<glyph unicode="s" horiz-adv-x="872" d="M41 172l180 98q20 -71 75 -108t138 -37q72 0 114 33t42 92q0 77 -148 132l-77 30q-77 32 -129.5 63t-83.5 65q-60 65 -60 158q0 125 99.5 205t263.5 80q110 0 188 -40t115 -116l-154 -106q-16 44 -59 71t-99 27q-61 0 -99 -29.5t-38 -78.5q0 -73 168 -135q55 -19 82 -31 q130 -51 187 -117t57 -164q0 -141 -103 -222t-284 -81q-139 0 -230.5 51.5t-144.5 159.5z" />
<glyph unicode="t" horiz-adv-x="621" d="M201 0v758h-166v190h166v359h217v-359h166v-190h-166v-758h-217z" />
<glyph unicode="u" horiz-adv-x="1204" d="M360 948v-534q0 -138 57 -198t185 -60q126 0 184 60t58 198v534h217v-469q0 -271 -108.5 -394.5t-348.5 -123.5q-243 0 -352 122.5t-109 395.5v469h217z" />
<glyph unicode="v" horiz-adv-x="967" d="M483 -57l-497 1005h237l207 -477l24 -66l29 -105q5 21 10.5 42.5t12.5 42.5q12 38 33 86l206 477h236z" />
<glyph unicode="w" horiz-adv-x="1536" d="M1057 -57l-219 493l-41 101l-29 88l-39 -112l-27 -69l-225 -501l-491 1005h231l213 -457q11 -27 25 -80q10 -43 22 -111q0 36 12 75q11 41 37 96l232 512h18l236 -512q8 -19 17 -44t15 -46t9.5 -41t3.5 -40q4 25 10 52t13 50q15 53 32 87l209 459h229z" />
<glyph unicode="x" horiz-adv-x="928" d="M215 0h-240l359 510l-307 438h239l133 -196l37 -58l29 -57l27 50l40 67l132 194h237l-307 -440l356 -508h-237l-176 249l-8 12q-51 77 -66 118l-39 -71l-37 -60z" />
<glyph unicode="y" horiz-adv-x="965" d="M313 -446h-223l260 528l-348 866h240l174 -491q8 -24 14 -45q2 -7 12.5 -47.5t18.5 -93.5q6 25 21 64.5t41 94.5l5 12l234 506h235z" />
<glyph unicode="z" horiz-adv-x="920" d="M879 0h-881l528 758h-475v190h828l-517 -758h517v-190z" />
<glyph unicode="{" d="M874 1477v-179l-24 1l-23 1q-107 0 -146.5 -41.5t-39.5 -173.5v-241q0 -155 -43.5 -220t-159.5 -94q113 -27 158 -92.5t45 -220.5v-240q0 -132 39.5 -174.5t148.5 -42.5l22 1l23 1v-176h-63q-101 0 -165.5 12t-106.5 37q-56 32 -79.5 95.5t-23.5 203.5v248q0 144 -52 203 t-179 59l-22 -1l-21 -1v179l21 -2l22 -1q126 0 178.5 59t52.5 202v247q0 146 22.5 206.5t80.5 94.5q41 26 107.5 38t182.5 12h45z" />
<glyph unicode="|" d="M424 1565h178v-2048h-178v2048z" />
<glyph unicode="}" d="M152 1477h45q113 0 179 -11.5t109 -38.5q56 -33 80 -95q11 -30 17 -81.5t6 -124.5v-247q0 -144 52 -202.5t179 -58.5l21 1l22 2v-179l-22 1l-21 1q-126 0 -178.5 -59.5t-52.5 -202.5v-248q0 -145 -22.5 -204.5t-80.5 -94.5q-41 -25 -107 -37t-181 -12h-45v176l23 -1 l22 -1q108 0 147 42t39 175v240q0 153 45 219t160 94q-113 27 -159 93t-46 221v241q0 132 -38 173.5t-146 41.5l-23 -1l-24 -1v179z" />
<glyph unicode="~" horiz-adv-x="1706" d="M1530 784v-184q-100 -69 -196 -105t-185 -36q-35 0 -49.5 1.5t-43.5 6.5q-46 9 -98 27l-76 26q-213 74 -319 74q-83 0 -175.5 -38t-209.5 -122v187q102 70 200 106.5t187 36.5q60 0 123.5 -12t170.5 -48l42 -15q166 -58 250 -58q85 0 177.5 37t201.5 116z" />
<glyph unicode="&#xa1;" horiz-adv-x="674" d="M223 -39v1163h228v-1163h-228zM205 1368q0 54 38 91.5t93 37.5t93 -37t38 -92t-38 -93t-93 -38t-93 39t-38 92z" />
<glyph unicode="&#xa2;" horiz-adv-x="1237" d="M623 1042q-107 -18 -173.5 -99.5t-66.5 -192.5q0 -122 62.5 -201.5t177.5 -102.5v596zM993 961q-55 35 -122 56q-40 13 -72.5 20t-71.5 7v-598q96 16 158 38q33 13 59 26.5t49 32.5v-209q-57 -33 -123 -51q-36 -10 -70.5 -15.5t-72.5 -5.5v-203h-104v207q-93 0 -173 38.5 t-143 106.5q-121 130 -121 324q0 196 116 324.5t321 161.5v161h104v-157q62 0 130 -17q67 -14 136 -43v-204z" />
<glyph unicode="&#xa3;" horiz-adv-x="1237" d="M74 49q57 87 121.5 132.5t140.5 54.5q10 20 19.5 45t15.5 46q12 44 12 87q0 39 -11.5 83t-35.5 89h-250v141h188q-43 73 -66.5 149.5t-23.5 149.5q0 198 138.5 325.5t359.5 127.5q209 0 330.5 -113.5t140.5 -329.5l-223 -30q0 66 -20 118.5t-56 90.5q-65 71 -182 71 q-111 0 -181.5 -70t-70.5 -180q0 -80 74 -269l16 -40h358v-141h-313q6 -19 7.5 -26t4.5 -27l4 -56q0 -67 -24.5 -130t-71.5 -111h6q81 0 208 -45.5t179 -45.5q69 0 123 27.5t84 79.5l133 -119q-46 -83 -124 -129.5t-175 -46.5q-94 0 -255.5 48t-229.5 48q-58 0 -111.5 -25.5 t-107.5 -78.5z" />
<glyph unicode="&#xa4;" horiz-adv-x="1241" d="M623 1176q-120 0 -205.5 -86.5t-85.5 -204.5q0 -119 84 -204t207 -85q119 0 204.5 84.5t85.5 204.5q0 119 -85 205t-205 86zM168 1430l203 -203q53 40 116 61t134 21q69 0 133.5 -20.5t117.5 -61.5l203 203l94 -93l-204 -204q19 -26 33.5 -54.5t25.5 -62.5 q20 -63 20 -131q0 -39 -4 -68t-16 -65q-20 -63 -59 -115l204 -205l-94 -92l-203 205q-55 -40 -117.5 -61t-131.5 -21q-75 0 -137.5 21t-114.5 61l-203 -205l-92 92l203 205q-39 53 -60 115q-10 32 -15 63.5t-5 69.5q0 39 4 67t16 64q20 63 60 117l-203 204z" />
<glyph unicode="&#xa5;" horiz-adv-x="1237" d="M492 0v578h-482v145h445l-101 164h-344v145h256l-266 420h240l307 -494q7 -11 12 -20t15 -30l34 -70q14 40 15 41q9 17 13 25q15 33 34 61l315 487h229l-266 -420h256v-145h-350l-102 -164h452v-145h-493v-578h-219z" />
<glyph unicode="&#xa6;" d="M424 408h178v-758h-178v758zM424 1432h178v-758h-178v758z" />
<glyph unicode="&#xa7;" horiz-adv-x="1090" d="M551 281q104 0 178 75t74 181q0 105 -74 181.5t-178 76.5q-103 0 -176.5 -75.5t-73.5 -182.5q0 -106 72.5 -181t177.5 -75zM154 -88h202q0 -89 50 -137q47 -45 137 -45q88 0 139 40.5t51 108.5q0 94 -206 181l-42 18q-123 53 -184.5 86t-91.5 63q-62 59 -93.5 135.5 t-31.5 176.5q0 128 67.5 223.5t194.5 144.5q-90 42 -135 109.5t-45 161.5q0 148 105.5 234.5t289.5 86.5q173 0 266 -86.5t93 -249.5v-20h-187q0 88 -49 135t-137 47q-79 0 -128.5 -40.5t-49.5 -102.5q0 -56 46 -98q47 -39 210 -105q218 -87 301.5 -186t83.5 -261 q0 -138 -69 -228t-206 -132q92 -43 144.5 -119.5t52.5 -169.5q0 -153 -105.5 -243.5t-289.5 -90.5q-175 0 -279 93.5t-104 248.5v21z" />
<glyph unicode="&#xa8;" d="M573 1255q0 47 36 83t85 36t84 -35q35 -33 35 -84q0 -53 -34 -87.5t-85 -34.5t-86 35t-35 87zM209 1255q0 47 36 83t85 36t84 -35q35 -33 35 -84q0 -53 -34 -87.5t-85 -34.5t-86 35t-35 87z" />
<glyph unicode="&#xa9;" horiz-adv-x="1706" d="M1206 903h-166q-9 74 -60 114q-25 20 -56.5 30t-73.5 10q-98 0 -154.5 -86.5t-56.5 -239.5q0 -151 57.5 -234t163.5 -83q80 0 128.5 43.5t60.5 124.5h165q0 -65 -27.5 -120t-79.5 -97q-100 -82 -253 -82q-183 0 -290 119t-107 323q0 207 109.5 331t291.5 124 q148 0 243 -77q49 -39 77 -89.5t28 -110.5zM854 1362q-131 0 -243 -46t-201 -136.5t-138 -207t-49 -241.5q0 -126 48 -240.5t138 -203.5t204.5 -138t240.5 -49q124 0 238 47.5t211 141.5q89 88 135.5 201t46.5 241q0 131 -46.5 244t-135.5 202.5t-204.5 137t-244.5 47.5z M852 1470q152 0 286 -54.5t239.5 -161t160.5 -240.5t55 -283q0 -154 -55 -286q-27 -66 -66.5 -124.5t-91.5 -109.5q-107 -105 -243.5 -163t-284.5 -58q-76 0 -143 13t-137 43q-134 57 -240 162t-162.5 241t-56.5 282q0 143 57 279.5t162.5 243t236.5 161.5t283 55z" />
<glyph unicode="&#xaa;" horiz-adv-x="895" d="M782 801h-164v86q-42 -57 -101 -85t-132 -28q-149 0 -237.5 96t-88.5 263q0 158 89 256t231 98q87 0 149.5 -33.5t89.5 -97.5v108h164v-663zM625 1135q0 102 -52 160.5t-145 58.5q-91 0 -145 -60q-26 -31 -39 -71t-13 -95q0 -105 51 -162t144 -57q87 0 143 62 q28 32 42 72t14 92z" />
<glyph unicode="&#xab;" horiz-adv-x="930" d="M713 877l139 -84l-207 -324l207 -324l-139 -84l-254 408zM334 877l137 -84l-205 -324l205 -324l-137 -84l-254 408z" />
<glyph unicode="&#xac;" horiz-adv-x="1706" d="M254 862h1198v-502h-166v336h-1032v166z" />
<glyph unicode="&#xad;" horiz-adv-x="829" d="M147 571h535v-200h-535v200z" />
<glyph unicode="&#xae;" horiz-adv-x="1706" d="M729 1047v-261h117q98 0 145 30.5t47 96.5q0 68 -48 101t-152 33h-109zM551 1159h319q172 0 261.5 -57t89.5 -168q0 -89 -48 -149.5t-137 -79.5l185 -375h-199l-164 346h-129v-346h-178v829zM854 1362q-130 0 -240.5 -45.5t-200.5 -136t-140 -208.5t-50 -241 q0 -65 11 -122t36 -117q46 -112 135 -201.5t205 -140t234 -50.5q131 0 247 47t209 138q87 84 136 197.5t49 238.5q0 133 -45.5 247t-136 205t-205.5 140t-244 49zM852 1470q155 0 288 -55.5t242 -165.5q101 -103 156 -236t55 -282q0 -154 -55.5 -288t-161.5 -236.5 t-242.5 -159.5t-281.5 -57q-146 0 -282 57t-241.5 164t-160.5 241t-55 279q0 146 57 283t166 246q103 103 234.5 156.5t281.5 53.5z" />
<glyph unicode="&#xaf;" d="M248 1153v141h526v-141h-526z" />
<glyph unicode="&#xb0;" horiz-adv-x="674" d="M338 1350q-76 0 -131 -54t-55 -131q0 -74 54.5 -130t131.5 -56q76 0 130 54t54 132q0 75 -53.5 130t-130.5 55zM338 1460q119 0 207 -87t88 -210q0 -119 -87 -207t-210 -88t-208 86t-85 209q0 125 86 211t209 86z" />
<glyph unicode="&#xb1;" horiz-adv-x="1706" d="M254 182h1198v-168h-1198v168zM768 1206h170v-334h514v-165h-514v-334h-170v334h-514v165h514v334z" />
<glyph unicode="&#xb2;" horiz-adv-x="817" d="M676 690v-115h-647l360 394q31 34 56 66.5t42 62.5q31 57 31 102q0 64 -42.5 101.5t-115.5 37.5q-66 0 -108.5 -36.5t-48.5 -97.5l-152 -1q0 116 87.5 187t234.5 71q140 0 220.5 -65t80.5 -178q0 -78 -46 -160q-22 -38 -71.5 -99.5t-124.5 -140.5l-125 -129h369z" />
<glyph unicode="&#xb3;" horiz-adv-x="817" d="M62 811h151v-8q0 -59 45 -96t123 -37q89 0 136.5 39.5t47.5 115.5q0 78 -49 118t-147 40h-29v115l13 -1l16 -1q84 0 128 32.5t44 96.5q0 55 -40 89t-106 34q-69 0 -110.5 -31.5t-41.5 -85.5h-141q0 54 21.5 97t61.5 74q77 60 214 60q133 0 211 -63t78 -170 q0 -82 -43.5 -132.5t-122.5 -62.5q91 -15 140 -73.5t49 -153.5q0 -117 -91 -185.5t-245 -68.5q-139 0 -225 69q-43 36 -65.5 82.5t-22.5 106.5z" />
<glyph unicode="&#xb4;" d="M371 1092l190 272h225l-292 -272h-123z" />
<glyph unicode="&#xb5;" horiz-adv-x="1208" d="M205 1081h229l-125 -635l-9 -55l-3 -49q0 -97 46.5 -147t135.5 -50q121 0 193 88t112 293l109 555h225l-145 -739l-15 -82l-4 -51q0 -36 15 -51t53 -15h20q9 0 14 2l-32 -159q-28 -8 -69 -13l-81 -4q-74 0 -111.5 31.5t-37.5 93.5v15q-40 -66 -108 -104t-146 -38 q-42 0 -75.5 6t-62.5 20q-56 26 -97 83l-99 -506h-229z" />
<glyph unicode="&#xb6;" d="M969 1479v-99h-117v-1380h-129v1380h-168v-1380h-131v784q-83 0 -149.5 25.5t-119.5 75.5q-100 95 -100 245q0 158 107 253.5t284 95.5h523z" />
<glyph unicode="&#xb8;" d="M274 -393v106l140 -28q59 -9 102 -9q51 0 76.5 17t25.5 51q0 40 -31.5 57t-101.5 17l-20 -1l-21 -1v184h86v-86h17q111 0 167 -43.5t56 -130.5q0 -83 -61 -127.5t-177 -44.5q-51 0 -119 10t-139 29z" />
<glyph unicode="&#xb9;" horiz-adv-x="817" d="M358 575v758h-200l61 113h281v-871h-142z" />
<glyph unicode="&#xba;" horiz-adv-x="903" d="M672 1130q0 93 -63.5 157.5t-155.5 64.5q-93 0 -157.5 -64t-64.5 -158q0 -93 65 -157t157 -64q90 0 154.5 64.5t64.5 156.5zM59 1133q0 71 30 135.5t85.5 114.5t126.5 77t150 27q80 0 150.5 -26t126.5 -78t86 -115.5t30 -134.5q0 -36 -7 -71t-22 -67 q-29 -64 -85.5 -114.5t-128 -78.5t-150.5 -28q-77 0 -148 27t-127.5 78t-86.5 115.5t-30 138.5z" />
<glyph unicode="&#xbb;" horiz-adv-x="930" d="M598 61l-139 84l207 324l-207 324l139 84l254 -408zM219 61l-137 84l205 324l-205 324l137 84l254 -408z" />
<glyph unicode="&#xbc;" horiz-adv-x="1901" d="M1585 553l-233 -293h229v213l1 37zM1581 0v166h-442l536 661h43v-567h113v-94h-113v-166h-137zM438 -39l887 1518h137l-887 -1518h-137zM340 633v706h-190l57 105h270v-811h-137z" />
<glyph unicode="&#xbd;" horiz-adv-x="1901" d="M1767 106v-106h-618l344 367q64 67 94.5 119.5t30.5 95.5q0 61 -40.5 96t-111.5 35q-63 0 -103 -34t-46 -93h-146q0 110 83.5 175.5t224.5 65.5q132 0 209 -60.5t77 -166.5q0 -75 -44.5 -151.5t-186.5 -221.5l-117 -121h350zM438 -39l887 1518h137l-887 -1518h-137z M340 633v706h-190l57 105h270v-811h-137z" />
<glyph unicode="&#xbe;" horiz-adv-x="1901" d="M1585 553l-233 -293h229v213l1 37zM1581 0v166h-442l536 661h43v-567h113v-94h-113v-166h-137zM438 -39l887 1518h137l-887 -1518h-137zM60 852h143v-6q0 -56 43 -92q44 -33 119 -33q82 0 128 37.5t46 107.5q0 74 -47.5 111t-139.5 37l-14 -1l-14 -1v108l13 -1l13 -1 q80 0 123 30t43 91q0 50 -37 82.5t-100 32.5q-69 0 -105.5 -27.5t-42.5 -83.5h-135q0 50 21.5 90.5t59.5 70.5q73 56 204 56q128 0 202 -57.5t74 -159.5q0 -75 -41.5 -122.5t-117.5 -59.5q86 -13 133 -68.5t47 -144.5q0 -108 -87 -173t-233 -65q-132 0 -213 66 q-42 35 -63.5 77.5t-21.5 98.5z" />
<glyph unicode="&#xbf;" horiz-adv-x="1114" d="M725 344h172l1 -19l1 -18q0 -158 -94.5 -252t-253.5 -94q-163 0 -260.5 94t-97.5 250q0 114 56.5 188t225.5 156l20 10q199 100 199 187q0 50 -39.5 87.5t-93.5 37.5q-66 0 -104 -41t-38 -115h-177v21q0 148 83 228.5t236 80.5q141 0 233.5 -83.5t92.5 -211.5 q0 -117 -63 -195t-249 -168q-121 -57 -156.5 -96.5t-35.5 -93.5q0 -67 48 -110.5t120 -43.5q81 0 127.5 54t46.5 147zM711 1368q0 -54 -39.5 -92.5t-91.5 -38.5q-56 0 -93.5 38.5t-37.5 92.5t38 91.5t93 37.5t93 -37t38 -92z" />
<glyph unicode="&#xc0;" horiz-adv-x="1356" d="M477 575h408l-150 334l-27 73l-28 93q-7 -28 -12.5 -48t-13.5 -42q-11 -39 -27 -76zM1135 0l-166 377h-580l-170 -377h-250l709 1522l708 -1522h-251zM819 1608h-123l-292 272h225z" />
<glyph unicode="&#xc1;" horiz-adv-x="1356" d="M477 575h408l-150 334l-27 73l-28 93q-7 -28 -12.5 -48t-13.5 -42q-11 -39 -27 -76zM1135 0l-166 377h-580l-170 -377h-250l709 1522l708 -1522h-251zM537 1608l190 272h225l-292 -272h-123z" />
<glyph unicode="&#xc2;" horiz-adv-x="1356" d="M477 575h408l-150 334l-27 73l-28 93q-7 -28 -12.5 -48t-13.5 -42q-11 -39 -27 -76zM1135 0l-166 377h-580l-170 -377h-250l709 1522l708 -1522h-251zM381 1608l193 272h208l193 -272h-123l-174 157l-174 -157h-123z" />
<glyph unicode="&#xc3;" horiz-adv-x="1356" d="M477 575h408l-150 334l-27 73l-28 93q-7 -28 -12.5 -48t-13.5 -42q-11 -39 -27 -76zM1135 0l-166 377h-580l-170 -377h-250l709 1522l708 -1522h-251zM971 1857q-18 -99 -69.5 -153.5t-125.5 -54.5l-26 1l-27 5l-124 32l-24 4l-14 1q-35 0 -54.5 -15.5t-31.5 -52.5h-90 q22 104 69 156.5t120 52.5q20 0 30 -2l31 -6l117 -31l18 -3l29 -1q31 0 52 17.5t30 49.5h90z" />
<glyph unicode="&#xc4;" horiz-adv-x="1356" d="M477 575h408l-150 334l-27 73l-28 93q-7 -28 -12.5 -48t-13.5 -42q-11 -39 -27 -76zM1135 0l-166 377h-580l-170 -377h-250l709 1522l708 -1522h-251zM739 1771q0 47 36 83t85 36t84 -35q35 -33 35 -84q0 -53 -34 -87.5t-85 -34.5t-86 35t-35 87zM375 1771q0 47 36 83 t85 36t84 -35q35 -33 35 -84q0 -53 -34 -87.5t-85 -34.5t-86 35t-35 87z" />
<glyph unicode="&#xc5;" horiz-adv-x="1356" d="M565 1735q0 -48 33.5 -80.5t81.5 -32.5q46 0 80.5 33.5t34.5 79.5t-34 80t-81 34q-48 0 -81.5 -33.5t-33.5 -80.5zM442 1735q0 100 68.5 168.5t167.5 68.5q97 0 167 -70t70 -167q0 -99 -68.5 -167.5t-168.5 -68.5t-168 68t-68 168zM1135 0l-166 377h-580l-170 -377h-250 l684 1464h52l681 -1464h-251zM477 575h408l-150 334l-27 73l-28 93q-7 -28 -12.5 -48t-13.5 -42q-11 -39 -27 -76z" />
<glyph unicode="&#xc6;" horiz-adv-x="1866" d="M477 575h422l-123 334l-43 127q-7 25 -14.5 55.5t-13.5 61.5q-10 -51 -30 -109q-13 -40 -20 -58t-24 -56zM1329 1464l84 -202h-536l129 -359h491l78 -209h-490l179 -481h538l80 -213h-772l-139 377h-582l-170 -377h-250l684 1464h676z" />
<glyph unicode="&#xc7;" horiz-adv-x="1470" d="M800 -35q-117 10 -224 51q-140 54 -248.5 160.5t-166 249t-57.5 303.5q0 159 57.5 302t166 250t250.5 162.5t305 55.5q66 0 126 -9t120 -29q118 -36 227 -113l-13 -240q-101 86 -214 129q-56 21 -114.5 32t-121.5 11q-240 0 -390.5 -153.5t-150.5 -399.5 q0 -238 147 -391.5t369 -153.5q66 0 125.5 11t121.5 35q117 45 226 139v-269q-96 -69 -209 -103q-55 -16 -117.5 -25t-127.5 -9l-1 -47h17q111 0 167 -43.5t56 -130.5q0 -83 -61 -127.5t-177 -44.5q-51 0 -119 10t-139 29v106l140 -28q59 -9 102 -9q51 0 76.5 17t25.5 51 q0 40 -31.5 57t-101.5 17l-20 -1l-21 -1v149z" />
<glyph unicode="&#xc8;" horiz-adv-x="1090" d="M168 0v1464h817v-202h-579v-367h579v-209h-579v-473h579v-213h-817zM721 1608h-123l-292 272h225z" />
<glyph unicode="&#xc9;" horiz-adv-x="1090" d="M168 0v1464h817v-202h-579v-367h579v-209h-579v-473h579v-213h-817zM439 1608l190 272h225l-292 -272h-123z" />
<glyph unicode="&#xca;" horiz-adv-x="1090" d="M168 0v1464h817v-202h-579v-367h579v-209h-579v-473h579v-213h-817zM283 1608l193 272h208l193 -272h-123l-174 157l-174 -157h-123z" />
<glyph unicode="&#xcb;" horiz-adv-x="1090" d="M168 0v1464h817v-202h-579v-367h579v-209h-579v-473h579v-213h-817zM641 1771q0 47 36 83t85 36t84 -35q35 -33 35 -84q0 -53 -34 -87.5t-85 -34.5t-86 35t-35 87zM277 1771q0 47 36 83t85 36t84 -35q35 -33 35 -84q0 -53 -34 -87.5t-85 -34.5t-86 35t-35 87z" />
<glyph unicode="&#xcc;" horiz-adv-x="584" d="M172 0v1464h238v-1464h-238zM434 1608h-123l-292 272h225z" />
<glyph unicode="&#xcd;" horiz-adv-x="584" d="M172 0v1464h238v-1464h-238zM152 1608l190 272h225l-292 -272h-123z" />
<glyph unicode="&#xce;" horiz-adv-x="584" d="M172 0v1464h238v-1464h-238zM-4 1608l193 272h208l193 -272h-123l-174 157l-174 -157h-123z" />
<glyph unicode="&#xcf;" horiz-adv-x="584" d="M172 0v1464h238v-1464h-238zM354 1771q0 47 36 83t85 36t84 -35q35 -33 35 -84q0 -53 -34 -87.5t-85 -34.5t-86 35t-35 87zM-10 1771q0 47 36 83t85 36t84 -35q35 -33 35 -84q0 -53 -34 -87.5t-85 -34.5t-86 35t-35 87z" />
<glyph unicode="&#xd0;" horiz-adv-x="1645" d="M979 750h580l1 -42l3 -96q0 -309 -177 -480t-499 -171q-183 0 -322.5 52.5t-244 158.5t-160.5 251t-56 306q0 167 56.5 306t165 245.5t254.5 161.5t307 55q172 0 308.5 -63t244.5 -193l-174 -131q-73 85 -166.5 127.5t-208.5 42.5q-236 0 -387.5 -152.5t-151.5 -396.5 q0 -247 150.5 -402t390.5 -155q205 0 321.5 95t116.5 259v21h-352v201zM524 1876l121 -1q9 -63 51.5 -93.5t126.5 -30.5q80 0 123 30t53 94l119 1q-15 -138 -85.5 -201t-209.5 -63q-138 0 -211 63.5t-88 200.5z" />
<glyph unicode="&#xd1;" horiz-adv-x="1645" d="M168 0v1522l930 -895l77 -81q38 -41 82 -97v1015h220v-1521l-949 911q-21 20 -37 37q-7 7 -37 41q-36 42 -67 86v-1018h-219zM1116 1857q-18 -99 -69.5 -153.5t-125.5 -54.5l-26 1l-27 5l-124 32l-24 4l-14 1q-35 0 -54.5 -15.5t-31.5 -52.5h-90q22 104 69 156.5 t120 52.5q20 0 30 -2l31 -6l117 -31l18 -3l29 -1q31 0 52 17.5t30 49.5h90z" />
<glyph unicode="&#xd2;" horiz-adv-x="1774" d="M1421 729q0 113 -40 212t-115 176t-172.5 119t-206.5 42t-205.5 -40.5t-173.5 -119.5q-73 -75 -116 -177q-20 -51 -30 -102t-10 -110q0 -112 40 -210q20 -51 48 -94t68 -83q74 -77 172 -118.5t207 -41.5q108 0 204.5 41t171 118t116.5 177.5t42 210.5zM1669 729 q0 -158 -58 -295.5t-170 -245.5t-255.5 -167.5t-298.5 -59.5q-158 0 -301.5 58.5t-253.5 166t-169 247.5t-59 296t58 296t169.5 248.5t253.5 166t302 57.5q156 0 297.5 -57t253.5 -166.5t171.5 -249.5t59.5 -295zM1028 1608h-123l-292 272h225z" />
<glyph unicode="&#xd3;" horiz-adv-x="1774" d="M1421 729q0 113 -40 212t-115 176t-172.5 119t-206.5 42t-205.5 -40.5t-173.5 -119.5q-73 -75 -116 -177q-20 -51 -30 -102t-10 -110q0 -112 40 -210q20 -51 48 -94t68 -83q74 -77 172 -118.5t207 -41.5q108 0 204.5 41t171 118t116.5 177.5t42 210.5zM1669 729 q0 -158 -58 -295.5t-170 -245.5t-255.5 -167.5t-298.5 -59.5q-158 0 -301.5 58.5t-253.5 166t-169 247.5t-59 296t58 296t169.5 248.5t253.5 166t302 57.5q156 0 297.5 -57t253.5 -166.5t171.5 -249.5t59.5 -295zM746 1608l190 272h225l-292 -272h-123z" />
<glyph unicode="&#xd4;" horiz-adv-x="1774" d="M1421 729q0 113 -40 212t-115 176t-172.5 119t-206.5 42t-205.5 -40.5t-173.5 -119.5q-73 -75 -116 -177q-20 -51 -30 -102t-10 -110q0 -112 40 -210q20 -51 48 -94t68 -83q74 -77 172 -118.5t207 -41.5q108 0 204.5 41t171 118t116.5 177.5t42 210.5zM1669 729 q0 -158 -58 -295.5t-170 -245.5t-255.5 -167.5t-298.5 -59.5q-158 0 -301.5 58.5t-253.5 166t-169 247.5t-59 296t58 296t169.5 248.5t253.5 166t302 57.5q156 0 297.5 -57t253.5 -166.5t171.5 -249.5t59.5 -295zM590 1608l193 272h208l193 -272h-123l-174 157l-174 -157 h-123z" />
<glyph unicode="&#xd5;" horiz-adv-x="1774" d="M1421 729q0 113 -40 212t-115 176t-172.5 119t-206.5 42t-205.5 -40.5t-173.5 -119.5q-73 -75 -116 -177q-20 -51 -30 -102t-10 -110q0 -112 40 -210q20 -51 48 -94t68 -83q74 -77 172 -118.5t207 -41.5q108 0 204.5 41t171 118t116.5 177.5t42 210.5zM1669 729 q0 -158 -58 -295.5t-170 -245.5t-255.5 -167.5t-298.5 -59.5q-158 0 -301.5 58.5t-253.5 166t-169 247.5t-59 296t58 296t169.5 248.5t253.5 166t302 57.5q156 0 297.5 -57t253.5 -166.5t171.5 -249.5t59.5 -295zM1180 1857q-18 -99 -69.5 -153.5t-125.5 -54.5l-26 1l-27 5 l-124 32l-24 4l-14 1q-35 0 -54.5 -15.5t-31.5 -52.5h-90q22 104 69 156.5t120 52.5q20 0 30 -2l31 -6l117 -31l18 -3l29 -1q31 0 52 17.5t30 49.5h90z" />
<glyph unicode="&#xd6;" horiz-adv-x="1774" d="M1421 729q0 113 -40 212t-115 176t-172.5 119t-206.5 42t-205.5 -40.5t-173.5 -119.5q-73 -75 -116 -177q-20 -51 -30 -102t-10 -110q0 -112 40 -210q20 -51 48 -94t68 -83q74 -77 172 -118.5t207 -41.5q108 0 204.5 41t171 118t116.5 177.5t42 210.5zM1669 729 q0 -158 -58 -295.5t-170 -245.5t-255.5 -167.5t-298.5 -59.5q-158 0 -301.5 58.5t-253.5 166t-169 247.5t-59 296t58 296t169.5 248.5t253.5 166t302 57.5q156 0 297.5 -57t253.5 -166.5t171.5 -249.5t59.5 -295zM948 1771q0 47 36 83t85 36t84 -35q35 -33 35 -84 q0 -53 -34 -87.5t-85 -34.5t-86 35t-35 87zM584 1771q0 47 36 83t85 36t84 -35q35 -33 35 -84q0 -53 -34 -87.5t-85 -34.5t-86 35t-35 87z" />
<glyph unicode="&#xd7;" horiz-adv-x="1706" d="M403 1188l459 -459l461 459l117 -117l-459 -461l459 -458l-117 -119l-461 461l-459 -461l-116 119l458 458l-458 461z" />
<glyph unicode="&#xd8;" horiz-adv-x="1774" d="M233 -74l-124 109l184 196q-94 106 -141.5 231.5t-47.5 268.5q0 156 58.5 295.5t168 247t254.5 167.5q71 28 147.5 43t154.5 15q115 0 227.5 -35.5t226.5 -109.5l172 184l129 -104l-176 -189q102 -114 152.5 -240.5t50.5 -273.5q0 -158 -58.5 -295.5t-170.5 -246 t-255.5 -166.5t-297.5 -58q-134 0 -249.5 38.5t-223.5 117.5zM571 289q65 -52 141 -78.5t160 -26.5q119 0 217 39.5t177 120.5q74 77 114.5 178t40.5 209q0 94 -30 180.5t-88 161.5zM1184 1186q-65 46 -140 70t-157 24q-108 0 -206 -41t-172 -117.5t-117 -178.5 q-20 -51 -30 -102t-10 -110q0 -94 25.5 -173.5t79.5 -149.5z" />
<glyph unicode="&#xd9;" horiz-adv-x="1524" d="M162 1464h235v-889q0 -198 91.5 -297.5t273.5 -99.5q179 0 271.5 99.5t92.5 297.5v889h238v-911q0 -296 -150 -444t-452 -148q-301 0 -450.5 147t-149.5 445v911zM903 1608h-123l-292 272h225z" />
<glyph unicode="&#xda;" horiz-adv-x="1524" d="M162 1464h235v-889q0 -198 91.5 -297.5t273.5 -99.5q179 0 271.5 99.5t92.5 297.5v889h238v-911q0 -296 -150 -444t-452 -148q-301 0 -450.5 147t-149.5 445v911zM621 1608l190 272h225l-292 -272h-123z" />
<glyph unicode="&#xdb;" horiz-adv-x="1524" d="M162 1464h235v-889q0 -198 91.5 -297.5t273.5 -99.5q179 0 271.5 99.5t92.5 297.5v889h238v-911q0 -296 -150 -444t-452 -148q-301 0 -450.5 147t-149.5 445v911zM465 1608l193 272h208l193 -272h-123l-174 157l-174 -157h-123z" />
<glyph unicode="&#xdc;" horiz-adv-x="1524" d="M162 1464h235v-889q0 -198 91.5 -297.5t273.5 -99.5q179 0 271.5 99.5t92.5 297.5v889h238v-911q0 -296 -150 -444t-452 -148q-301 0 -450.5 147t-149.5 445v911zM823 1771q0 47 36 83t85 36t84 -35q35 -33 35 -84q0 -53 -34 -87.5t-85 -34.5t-86 35t-35 87zM459 1771 q0 47 36 83t85 36t84 -35q35 -33 35 -84q0 -53 -34 -87.5t-85 -34.5t-86 35t-35 87z" />
<glyph unicode="&#xdd;" horiz-adv-x="584" d="M172 0v1464h238v-1464h-238zM166 1771q0 51 38 89t89 38t89 -36.5t38 -90.5q0 -53 -36 -90t-91 -37q-54 0 -90.5 36.5t-36.5 90.5z" />
<glyph unicode="&#xde;" horiz-adv-x="1124" d="M507 -38q-76 0 -143.5 22t-123.5 63q-118 86 -156 246l190 88q27 -97 99 -149t184 -52q106 0 168.5 59t62.5 158q0 128 -214 230l-46 22q-240 116 -321.5 213t-81.5 234q0 178 121.5 289.5t318.5 111.5q161 0 270 -62t152 -180l-186 -96q-43 68 -96 100.5t-121 32.5 q-97 0 -153 -50t-56 -134q0 -132 248 -246l30 -14q216 -99 297.5 -195t81.5 -239q0 -207 -131 -331q-62 -57 -139 -88.5t-169 -31.5v-49h17q111 0 167 -43.5t56 -130.5q0 -83 -61 -127.5t-177 -44.5q-51 0 -119 10t-139 29v106l140 -28q59 -9 102 -9q51 0 76.5 17t25.5 51 q0 40 -31.5 57t-101.5 17l-20 -1l-21 -1v146z" />
<glyph unicode="&#xdf;" horiz-adv-x="1233" d="M512 193q31 -15 64 -24q17 -3 34.5 -5t36.5 -2q132 0 203.5 74t71.5 213q0 144 -84.5 216t-255.5 72h-35v201l17 -1l16 -1q105 0 164 54.5t59 156.5q0 112 -53 171.5t-152 59.5q-120 0 -168.5 -70t-48.5 -286v-1022h-217v743h-117v205h117v234q0 171 122 280 q61 53 141.5 81t178.5 28q192 0 308 -105.5t116 -281.5q0 -127 -68 -209.5t-208 -124.5q93 0 165 -30.5t126 -88.5q104 -109 104 -301q0 -225 -120.5 -347t-344.5 -122q-54 0 -95.5 9.5t-76.5 29.5v193z" />
<glyph unicode="&#xe0;" horiz-adv-x="1192" d="M1042 0h-217v123q-56 -80 -135 -121t-178 -41q-201 0 -316.5 138t-115.5 376q0 227 117.5 366.5t308.5 139.5q116 0 198 -48.5t121 -139.5v155h217v-948zM831 477q0 146 -68.5 228.5t-191.5 82.5q-122 0 -193 -85t-71 -234q0 -150 68 -232.5t192 -82.5q117 0 190.5 89 t73.5 234zM747 1092h-123l-292 272h225z" />
<glyph unicode="&#xe1;" horiz-adv-x="1192" d="M1042 0h-217v123q-56 -80 -135 -121t-178 -41q-201 0 -316.5 138t-115.5 376q0 227 117.5 366.5t308.5 139.5q116 0 198 -48.5t121 -139.5v155h217v-948zM831 477q0 146 -68.5 228.5t-191.5 82.5q-122 0 -193 -85t-71 -234q0 -150 68 -232.5t192 -82.5q117 0 190.5 89 t73.5 234zM465 1092l190 272h225l-292 -272h-123z" />
<glyph unicode="&#xe2;" horiz-adv-x="1192" d="M1042 0h-217v123q-56 -80 -135 -121t-178 -41q-201 0 -316.5 138t-115.5 376q0 227 117.5 366.5t308.5 139.5q116 0 198 -48.5t121 -139.5v155h217v-948zM831 477q0 146 -68.5 228.5t-191.5 82.5q-122 0 -193 -85t-71 -234q0 -150 68 -232.5t192 -82.5q117 0 190.5 89 t73.5 234zM309 1092l193 272h208l193 -272h-123l-174 157l-174 -157h-123z" />
<glyph unicode="&#xe3;" horiz-adv-x="1192" d="M1042 0h-217v123q-56 -80 -135 -121t-178 -41q-201 0 -316.5 138t-115.5 376q0 227 117.5 366.5t308.5 139.5q116 0 198 -48.5t121 -139.5v155h217v-948zM831 477q0 146 -68.5 228.5t-191.5 82.5q-122 0 -193 -85t-71 -234q0 -150 68 -232.5t192 -82.5q117 0 190.5 89 t73.5 234zM899 1341q-18 -99 -69.5 -153.5t-125.5 -54.5l-26 1l-27 5l-124 32l-24 4l-14 1q-35 0 -54.5 -15.5t-31.5 -52.5h-90q22 104 69 156.5t120 52.5q20 0 30 -2l31 -6l117 -31l18 -3l29 -1q31 0 52 17.5t30 49.5h90z" />
<glyph unicode="&#xe4;" horiz-adv-x="1192" d="M1042 0h-217v123q-56 -80 -135 -121t-178 -41q-201 0 -316.5 138t-115.5 376q0 227 117.5 366.5t308.5 139.5q116 0 198 -48.5t121 -139.5v155h217v-948zM831 477q0 146 -68.5 228.5t-191.5 82.5q-122 0 -193 -85t-71 -234q0 -150 68 -232.5t192 -82.5q117 0 190.5 89 t73.5 234zM667 1255q0 47 36 83t85 36t84 -35q35 -33 35 -84q0 -53 -34 -87.5t-85 -34.5t-86 35t-35 87zM303 1255q0 47 36 83t85 36t84 -35q35 -33 35 -84q0 -53 -34 -87.5t-85 -34.5t-86 35t-35 87z" />
<glyph unicode="&#xe5;" horiz-adv-x="1192" d="M455 1284q0 -49 33 -81t79 -32q48 0 81.5 33.5t33.5 79.5q0 48 -34 81.5t-81 33.5q-46 0 -80 -34q-32 -34 -32 -81zM330 1284q0 99 69.5 168.5t167.5 69.5q97 0 166.5 -69.5t69.5 -168.5q0 -96 -68.5 -165.5t-167.5 -69.5q-100 0 -168.5 68t-68.5 167zM831 477 q0 146 -68.5 228.5t-191.5 82.5q-122 0 -193 -85t-71 -234q0 -150 68 -232.5t192 -82.5q117 0 190.5 89t73.5 234zM1042 0h-217v123q-56 -80 -135 -121t-178 -41q-201 0 -316.5 138t-115.5 376q0 227 117.5 366.5t308.5 139.5q116 0 198 -48.5t121 -139.5v155h217v-948z" />
<glyph unicode="&#xe6;" horiz-adv-x="1765" d="M1456 588q-12 102 -76 155.5t-178 53.5q-106 0 -171.5 -51.5t-92.5 -157.5h518zM1681 442h-757q0 -65 20.5 -118t57.5 -91.5t83.5 -57.5t106.5 -19q101 0 172 45t125 145l182 -102q-80 -144 -197 -213.5t-278 -69.5q-121 0 -206 37.5t-148 118.5q-65 -74 -169 -116 q-53 -20 -106.5 -30t-117.5 -10q-173 0 -276 91t-103 241q0 141 102 228t268 87q43 0 82.5 -4t73.5 -13q70 -17 129 -52l1 13l1 23q0 109 -70 165.5t-206 56.5q-73 0 -148 -25q-35 -11 -73.5 -29.5t-75.5 -42.5v203q69 39 145 60q38 10 76.5 15t83.5 5q143 0 232 -39.5 t151 -128.5q59 81 151 124.5t203 43.5q230 0 357.5 -133t127.5 -371v-37zM735 299q0 64 -59 103.5t-160 39.5q-102 0 -161.5 -39t-59.5 -106q0 -66 53 -104q26 -17 64 -27t84 -10q56 0 99 9t76 29q64 38 64 105z" />
<glyph unicode="&#xe7;" horiz-adv-x="930" d="M487 -32q-157 25 -267 135q-70 71 -105 162t-35 206q0 228 145.5 369t380.5 141q73 0 136 -15q32 -7 59 -17t57 -27v-244q-49 54 -116.5 83.5t-143.5 29.5q-133 0 -213 -86t-80 -228q0 -147 80.5 -232t222.5 -85q39 0 74.5 7t66.5 22q61 30 109 90v-250 q-60 -33 -129.5 -50.5t-144.5 -17.5h-11v-47h17q111 0 167 -43.5t56 -130.5q0 -83 -61 -127.5t-177 -44.5q-51 0 -119 10t-139 29v106l140 -28q59 -9 102 -9q51 0 76.5 17t25.5 51q0 40 -31.5 57t-101.5 17l-20 -1l-21 -1v152z" />
<glyph unicode="&#xe8;" horiz-adv-x="1139" d="M1063 442h-758q0 -65 20 -116t59 -92q71 -74 189 -74q106 0 174.5 43.5t122.5 142.5l183 -102q-79 -142 -198 -213q-58 -34 -127.5 -52t-149.5 -18q-228 0 -363 138.5t-135 371.5q0 223 139.5 366.5t358.5 143.5q229 0 357 -131t128 -367v-41zM838 588q-12 101 -77.5 155 t-178.5 54q-107 0 -171.5 -51.5t-91.5 -157.5h519zM719 1092h-123l-292 272h225z" />
<glyph unicode="&#xe9;" horiz-adv-x="1139" d="M1063 442h-758q0 -65 20 -116t59 -92q71 -74 189 -74q106 0 174.5 43.5t122.5 142.5l183 -102q-79 -142 -198 -213q-58 -34 -127.5 -52t-149.5 -18q-228 0 -363 138.5t-135 371.5q0 223 139.5 366.5t358.5 143.5q229 0 357 -131t128 -367v-41zM838 588q-12 101 -77.5 155 t-178.5 54q-107 0 -171.5 -51.5t-91.5 -157.5h519zM437 1092l190 272h225l-292 -272h-123z" />
<glyph unicode="&#xea;" horiz-adv-x="1139" d="M1063 442h-758q0 -65 20 -116t59 -92q71 -74 189 -74q106 0 174.5 43.5t122.5 142.5l183 -102q-79 -142 -198 -213q-58 -34 -127.5 -52t-149.5 -18q-228 0 -363 138.5t-135 371.5q0 223 139.5 366.5t358.5 143.5q229 0 357 -131t128 -367v-41zM838 588q-12 101 -77.5 155 t-178.5 54q-107 0 -171.5 -51.5t-91.5 -157.5h519zM281 1092l193 272h208l193 -272h-123l-174 157l-174 -157h-123z" />
<glyph unicode="&#xeb;" horiz-adv-x="1139" d="M1063 442h-758q0 -65 20 -116t59 -92q71 -74 189 -74q106 0 174.5 43.5t122.5 142.5l183 -102q-79 -142 -198 -213q-58 -34 -127.5 -52t-149.5 -18q-228 0 -363 138.5t-135 371.5q0 223 139.5 366.5t358.5 143.5q229 0 357 -131t128 -367v-41zM838 588q-12 101 -77.5 155 t-178.5 54q-107 0 -171.5 -51.5t-91.5 -157.5h519zM639 1255q0 47 36 83t85 36t84 -35q35 -33 35 -84q0 -53 -34 -87.5t-85 -34.5t-86 35t-35 87zM275 1255q0 47 36 83t85 36t84 -35q35 -33 35 -84q0 -53 -34 -87.5t-85 -34.5t-86 35t-35 87z" />
<glyph unicode="&#xec;" horiz-adv-x="537" d="M160 0v948h217v-948h-217zM409 1092h-123l-292 272h225z" />
<glyph unicode="&#xed;" horiz-adv-x="537" d="M160 0v948h217v-948h-217zM127 1092l190 272h225l-292 -272h-123z" />
<glyph unicode="&#xee;" horiz-adv-x="537" d="M160 0v948h217v-948h-217zM-29 1092l193 272h208l193 -272h-123l-174 157l-174 -157h-123z" />
<glyph unicode="&#xef;" horiz-adv-x="537" d="M160 0v948h217v-948h-217zM329 1255q0 47 36 83t85 36t84 -35q35 -33 35 -84q0 -53 -34 -87.5t-85 -34.5t-86 35t-35 87zM-35 1255q0 47 36 83t85 36t84 -35q35 -33 35 -84q0 -53 -34 -87.5t-85 -34.5t-86 35t-35 87z" />
<glyph unicode="&#xf0;" horiz-adv-x="1192" d="M831 477q0 146 -68.5 228.5t-191.5 82.5q-122 0 -193 -85t-71 -234q0 -150 68 -232.5t192 -82.5q117 0 190.5 89t73.5 234zM1042 59q0 -277 -111 -391t-374 -114q-196 0 -314 82.5t-118 219.5l233 1q0 -29 14.5 -52.5t42.5 -40.5q52 -32 146 -32q138 0 200 61.5t62 203.5 l2 126q-56 -80 -135 -121t-178 -41q-201 0 -316.5 138t-115.5 376q0 227 117.5 366.5t308.5 139.5q116 0 198 -48.5t121 -139.5v155h217v-889zM297 1360l121 -1q9 -63 51.5 -93.5t126.5 -30.5q80 0 123 30t53 94l119 1q-15 -138 -85.5 -201t-209.5 -63q-138 0 -211 63.5 t-88 200.5z" />
<glyph unicode="&#xf1;" horiz-adv-x="1204" d="M150 0v948h204v-155q63 96 151.5 142t215.5 46q106 0 180.5 -33.5t116.5 -99.5q24 -39 36 -91q5 -24 8 -69.5t3 -112.5v-575h-219v487q0 186 -45.5 248t-161.5 62q-76 0 -135.5 -27.5t-93.5 -79.5q-23 -32 -33 -86.5t-10 -171.5v-432h-217zM911 1341 q-18 -99 -69.5 -153.5t-125.5 -54.5l-26 1l-27 5l-124 32l-24 4l-14 1q-35 0 -54.5 -15.5t-31.5 -52.5h-90q22 104 69 156.5t120 52.5q20 0 30 -2l31 -6l117 -31l18 -3l29 -1q31 0 52 17.5t30 49.5h90z" />
<glyph unicode="&#xf2;" horiz-adv-x="1204" d="M895 471q0 132 -84.5 223.5t-208.5 91.5q-122 0 -207.5 -91.5t-85.5 -223.5t85.5 -223.5t207.5 -91.5t207.5 91.5t85.5 223.5zM80 473q0 103 39 196t112 164t169.5 109.5t199.5 38.5q109 0 202 -37.5t168.5 -111t114.5 -166t39 -193.5q0 -104 -38 -196t-114 -165 t-171.5 -112t-200.5 -39q-102 0 -197 38t-170 112t-114 166t-39 196zM743 1092h-123l-292 272h225z" />
<glyph unicode="&#xf3;" horiz-adv-x="1204" d="M895 471q0 132 -84.5 223.5t-208.5 91.5q-122 0 -207.5 -91.5t-85.5 -223.5t85.5 -223.5t207.5 -91.5t207.5 91.5t85.5 223.5zM80 473q0 103 39 196t112 164t169.5 109.5t199.5 38.5q109 0 202 -37.5t168.5 -111t114.5 -166t39 -193.5q0 -104 -38 -196t-114 -165 t-171.5 -112t-200.5 -39q-102 0 -197 38t-170 112t-114 166t-39 196zM461 1092l190 272h225l-292 -272h-123z" />
<glyph unicode="&#xf4;" horiz-adv-x="1204" d="M895 471q0 132 -84.5 223.5t-208.5 91.5q-122 0 -207.5 -91.5t-85.5 -223.5t85.5 -223.5t207.5 -91.5t207.5 91.5t85.5 223.5zM80 473q0 103 39 196t112 164t169.5 109.5t199.5 38.5q109 0 202 -37.5t168.5 -111t114.5 -166t39 -193.5q0 -104 -38 -196t-114 -165 t-171.5 -112t-200.5 -39q-102 0 -197 38t-170 112t-114 166t-39 196zM305 1092l193 272h208l193 -272h-123l-174 157l-174 -157h-123z" />
<glyph unicode="&#xf5;" horiz-adv-x="1204" d="M895 471q0 132 -84.5 223.5t-208.5 91.5q-122 0 -207.5 -91.5t-85.5 -223.5t85.5 -223.5t207.5 -91.5t207.5 91.5t85.5 223.5zM80 473q0 103 39 196t112 164t169.5 109.5t199.5 38.5q109 0 202 -37.5t168.5 -111t114.5 -166t39 -193.5q0 -104 -38 -196t-114 -165 t-171.5 -112t-200.5 -39q-102 0 -197 38t-170 112t-114 166t-39 196zM895 1341q-18 -99 -69.5 -153.5t-125.5 -54.5l-26 1l-27 5l-124 32l-24 4l-14 1q-35 0 -54.5 -15.5t-31.5 -52.5h-90q22 104 69 156.5t120 52.5q20 0 30 -2l31 -6l117 -31l18 -3l29 -1q31 0 52 17.5 t30 49.5h90z" />
<glyph unicode="&#xf6;" horiz-adv-x="1204" d="M895 471q0 132 -84.5 223.5t-208.5 91.5q-122 0 -207.5 -91.5t-85.5 -223.5t85.5 -223.5t207.5 -91.5t207.5 91.5t85.5 223.5zM80 473q0 103 39 196t112 164t169.5 109.5t199.5 38.5q109 0 202 -37.5t168.5 -111t114.5 -166t39 -193.5q0 -104 -38 -196t-114 -165 t-171.5 -112t-200.5 -39q-102 0 -197 38t-170 112t-114 166t-39 196zM663 1255q0 47 36 83t85 36t84 -35q35 -33 35 -84q0 -53 -34 -87.5t-85 -34.5t-86 35t-35 87zM299 1255q0 47 36 83t85 36t84 -35q35 -33 35 -84q0 -53 -34 -87.5t-85 -34.5t-86 35t-35 87z" />
<glyph unicode="&#xf7;" horiz-adv-x="1706" d="M854 367q57 0 97 -40.5t40 -97.5q0 -56 -39.5 -95.5t-97.5 -39.5q-56 0 -96.5 39t-40.5 96t40.5 97.5t96.5 40.5zM254 694h1198v-166h-1198v166zM854 1128q57 0 97 -41.5t40 -97.5t-39.5 -95.5t-97.5 -39.5q-56 0 -96.5 39t-40.5 96t40.5 98t96.5 41z" />
<glyph unicode="&#xf8;" horiz-adv-x="1204" d="M424 217q37 -28 80.5 -42.5t89.5 -14.5q129 0 215 87t86 218q0 45 -11 86.5t-34 83.5zM778 723q-34 30 -78 47q-21 8 -41 12t-47 4q-131 0 -219 -89.5t-88 -221.5q0 -45 11 -84q10 -42 34 -86zM150 -53l-80 82l125 127q-55 71 -84 149.5t-29 163.5q0 222 150 368t376 146 q46 0 90 -7t84 -22q80 -27 144 -84l125 127l84 -79l-127 -130q56 -73 85 -152t29 -163q0 -219 -151 -365.5t-377 -146.5q-92 0 -172 28q-38 13 -74 34t-67 49z" />
<glyph unicode="&#xf9;" horiz-adv-x="1204" d="M360 948v-534q0 -138 57 -198t185 -60q126 0 184 60t58 198v534h217v-469q0 -271 -108.5 -394.5t-348.5 -123.5q-243 0 -352 122.5t-109 395.5v469h217zM743 1092h-123l-292 272h225z" />
<glyph unicode="&#xfa;" horiz-adv-x="1204" d="M360 948v-534q0 -138 57 -198t185 -60q126 0 184 60t58 198v534h217v-469q0 -271 -108.5 -394.5t-348.5 -123.5q-243 0 -352 122.5t-109 395.5v469h217zM461 1092l190 272h225l-292 -272h-123z" />
<glyph unicode="&#xfb;" horiz-adv-x="1204" d="M360 948v-534q0 -138 57 -198t185 -60q126 0 184 60t58 198v534h217v-469q0 -271 -108.5 -394.5t-348.5 -123.5q-243 0 -352 122.5t-109 395.5v469h217zM305 1092l193 272h208l193 -272h-123l-174 157l-174 -157h-123z" />
<glyph unicode="&#xfc;" horiz-adv-x="1204" d="M360 948v-534q0 -138 57 -198t185 -60q126 0 184 60t58 198v534h217v-469q0 -271 -108.5 -394.5t-348.5 -123.5q-243 0 -352 122.5t-109 395.5v469h217zM663 1255q0 47 36 83t85 36t84 -35q35 -33 35 -84q0 -53 -34 -87.5t-85 -34.5t-86 35t-35 87zM299 1255q0 47 36 83 t85 36t84 -35q35 -33 35 -84q0 -53 -34 -87.5t-85 -34.5t-86 35t-35 87z" />
<glyph unicode="&#xfd;" horiz-adv-x="537" d="M160 0v948h217v-948h-217z" />
<glyph unicode="&#xfe;" horiz-adv-x="872" d="M368 -37q-51 0 -96 13t-87 37q-91 51 -144 159l180 98q20 -71 75 -108t138 -37q72 0 114 33t42 92q0 77 -148 132l-77 30q-77 32 -129.5 63t-83.5 65q-60 65 -60 158q0 125 99.5 205t263.5 80q110 0 188 -40t115 -116l-154 -106q-16 44 -59 71t-99 27q-61 0 -99 -29.5 t-38 -78.5q0 -73 168 -135q55 -19 82 -31q130 -51 187 -117t57 -164q0 -141 -103 -223q-48 -37 -109 -58t-137 -21v-48h17q111 0 167 -43.5t56 -130.5q0 -83 -61 -127.5t-177 -44.5q-51 0 -119 10t-139 29v106l140 -28q59 -9 102 -9q51 0 76.5 17t25.5 51q0 40 -31.5 57 t-101.5 17l-20 -1l-21 -1v147z" />
<glyph unicode="&#xff;" horiz-adv-x="965" d="M313 -446h-223l260 528l-348 866h240l174 -491q8 -24 14 -45q2 -7 12.5 -47.5t18.5 -93.5q6 25 21 64.5t41 94.5l5 12l234 506h235zM544 1255q0 47 36 83t85 36t84 -35q35 -33 35 -84q0 -53 -34 -87.5t-85 -34.5t-86 35t-35 87zM180 1255q0 47 36 83t85 36t84 -35 q35 -33 35 -84q0 -53 -34 -87.5t-85 -34.5t-86 35t-35 87z" />
<glyph unicode="&#x106;" horiz-adv-x="1470" d="M1343 1108q-101 86 -214 129q-56 21 -114.5 32t-121.5 11q-240 0 -390.5 -153.5t-150.5 -399.5q0 -238 147 -391.5t369 -153.5q66 0 125.5 11t121.5 35q117 45 226 139v-269q-96 -69 -209 -103q-55 -16 -117.5 -25t-127.5 -9q-168 0 -309.5 54.5t-250 161t-166 249 t-57.5 303.5q0 159 57.5 302t166 250t250.5 162.5t305 55.5q66 0 126 -9t120 -29q118 -36 227 -113zM725 1608l190 272h225l-292 -272h-123z" />
<glyph unicode="&#x107;" horiz-adv-x="930" d="M858 678q-49 54 -116.5 83.5t-143.5 29.5q-133 0 -213 -86t-80 -228q0 -147 80.5 -232t222.5 -85q39 0 74.5 7t66.5 22q61 30 109 90v-250q-60 -33 -129.5 -50.5t-144.5 -17.5q-222 0 -364 142q-70 71 -105 162t-35 206q0 228 145.5 369t380.5 141q73 0 136 -15 q32 -7 59 -17t57 -27v-244zM434 1092l190 272h225l-292 -272h-123z" />
<glyph unicode="&#x10c;" horiz-adv-x="1470" d="M1343 1108q-101 86 -214 129q-56 21 -114.5 32t-121.5 11q-240 0 -390.5 -153.5t-150.5 -399.5q0 -238 147 -391.5t369 -153.5q66 0 125.5 11t121.5 35q117 45 226 139v-269q-96 -69 -209 -103q-55 -16 -117.5 -25t-127.5 -9q-168 0 -309.5 54.5t-250 161t-166 249 t-57.5 303.5q0 159 57.5 302t166 250t250.5 162.5t305 55.5q66 0 126 -9t120 -29q118 -36 227 -113zM569 1880h123l174 -158l174 158h123l-193 -272h-208z" />
<glyph unicode="&#x10d;" horiz-adv-x="930" d="M858 678q-49 54 -116.5 83.5t-143.5 29.5q-133 0 -213 -86t-80 -228q0 -147 80.5 -232t222.5 -85q39 0 74.5 7t66.5 22q61 30 109 90v-250q-60 -33 -129.5 -50.5t-144.5 -17.5q-222 0 -364 142q-70 71 -105 162t-35 206q0 228 145.5 369t380.5 141q73 0 136 -15 q32 -7 59 -17t57 -27v-244zM278 1364h123l174 -158l174 158h123l-193 -272h-208z" />
<glyph unicode="&#x111;" horiz-adv-x="1210" d="M831 477q0 146 -68.5 228.5t-191.5 82.5q-122 0 -193 -85t-71 -234q0 -150 69 -232.5t191 -82.5q116 0 190 88t74 235zM825 1169h-336v162h336v219h217v-219h168v-162h-168v-1169h-217v123q-56 -79 -134.5 -120.5t-178.5 -41.5q-200 0 -316 137t-116 377q0 226 117.5 366 t308.5 140q114 0 196 -48t123 -140v376z" />
<glyph unicode="&#x11e;" horiz-adv-x="1645" d="M979 750h580l1 -42l3 -96q0 -309 -177 -480t-499 -171q-183 0 -322.5 52.5t-244 158.5t-160.5 251t-56 306q0 167 56.5 306t165 245.5t254.5 161.5t307 55q172 0 308.5 -63t244.5 -193l-174 -131q-73 85 -166.5 127.5t-208.5 42.5q-236 0 -387.5 -152.5t-151.5 -396.5 q0 -247 150.5 -402t390.5 -155q205 0 321.5 95t116.5 259v21h-352v201zM524 1876l121 -1q9 -63 51.5 -93.5t126.5 -30.5q80 0 123 30t53 94l119 1q-15 -138 -85.5 -201t-209.5 -63q-138 0 -211 63.5t-88 200.5z" />
<glyph unicode="&#x11f;" horiz-adv-x="1192" d="M831 477q0 146 -68.5 228.5t-191.5 82.5q-122 0 -193 -85t-71 -234q0 -150 68 -232.5t192 -82.5q117 0 190.5 89t73.5 234zM1042 59q0 -277 -111 -391t-374 -114q-196 0 -314 82.5t-118 219.5l233 1q0 -29 14.5 -52.5t42.5 -40.5q52 -32 146 -32q138 0 200 61.5t62 203.5 l2 126q-56 -80 -135 -121t-178 -41q-201 0 -316.5 138t-115.5 376q0 227 117.5 366.5t308.5 139.5q116 0 198 -48.5t121 -139.5v155h217v-889zM297 1360l121 -1q9 -63 51.5 -93.5t126.5 -30.5q80 0 123 30t53 94l119 1q-15 -138 -85.5 -201t-209.5 -63q-138 0 -211 63.5 t-88 200.5z" />
<glyph unicode="&#x130;" horiz-adv-x="584" d="M172 0v1464h238v-1464h-238zM166 1771q0 51 38 89t89 38t89 -36.5t38 -90.5q0 -53 -36 -90t-91 -37q-54 0 -90.5 36.5t-36.5 90.5z" />
<glyph unicode="&#x131;" horiz-adv-x="537" d="M160 0v948h217v-948h-217z" />
<glyph unicode="&#x141;" horiz-adv-x="977" d="M182 0v547l-145 -101l-103 144l248 178v696h238v-561l233 164l103 -147l-336 -236v-471h532v-213h-770z" />
<glyph unicode="&#x142;" horiz-adv-x="563" d="M172 0v557l-111 -78l-96 142l207 147v782h219v-649l111 78l98 -141l-209 -148v-690h-219z" />
<glyph unicode="&#x152;" horiz-adv-x="2304" d="M1401 731q0 112 -39.5 210.5t-113.5 176.5t-170.5 120t-200.5 42q-107 0 -202 -41t-169 -118.5t-114 -177.5t-40 -212q0 -111 39 -210.5t113 -176.5t171 -118.5t202 -41.5q106 0 201 40.5t169.5 119t114 179t39.5 208.5zM1407 1464h788v-202h-569v-361h569v-209h-569 v-479h569v-213h-788l-2 225q-93 -126 -230 -193q-68 -33 -141.5 -50t-156.5 -17q-155 0 -293.5 57t-248.5 166.5t-168 248t-58 294.5q0 154 57 293t168 250q107 107 248.5 166t294.5 59q159 0 291 -63t237 -189z" />
<glyph unicode="&#x153;" horiz-adv-x="1944" d="M1636 588q-12 102 -76 155.5t-178 53.5q-105 0 -171 -51t-93 -158h518zM993 147q-86 -95 -180 -140.5t-207 -45.5q-70 0 -137.5 17.5t-126.5 52.5q-125 71 -193.5 186.5t-68.5 255.5q0 103 38 192.5t111 162.5t172.5 113t210.5 40q123 0 222.5 -51.5t166.5 -149.5 q63 101 156.5 151t218.5 50q230 0 358 -131t128 -367v-41h-758q0 -65 20.5 -117t58.5 -93q71 -76 189 -76q101 0 172 45t125 145l182 -102q-78 -143 -197 -213t-278 -70q-127 0 -219 45t-164 141zM895 471q0 133 -86 224t-209 91q-122 0 -207.5 -91.5t-85.5 -223.5 t85.5 -223.5t207.5 -91.5q121 0 208 91.5t87 223.5z" />
<glyph unicode="&#x15e;" horiz-adv-x="1124" d="M84 293l190 88q27 -97 99 -149t184 -52q106 0 168.5 59t62.5 158q0 128 -214 230l-46 22q-240 116 -321.5 213t-81.5 234q0 178 121.5 289.5t318.5 111.5q161 0 270 -62t152 -180l-186 -96q-43 68 -96 100.5t-121 32.5q-97 0 -153 -50t-56 -134q0 -132 248 -246l30 -14 q216 -99 297.5 -195t81.5 -239q0 -207 -131 -330t-354 -123q-187 0 -306 86t-157 246zM337 -393v106l140 -28q59 -9 102 -9q51 0 76.5 17t25.5 51q0 40 -31.5 57t-101.5 17l-20 -1l-21 -1v184h86v-86h17q111 0 167 -43.5t56 -130.5q0 -83 -61 -127.5t-177 -44.5 q-51 0 -119 10t-139 29z" />
<glyph unicode="&#x15f;" horiz-adv-x="872" d="M41 172l180 98q20 -71 75 -108t138 -37q72 0 114 33t42 92q0 77 -148 132l-77 30q-77 32 -129.5 63t-83.5 65q-60 65 -60 158q0 125 99.5 205t263.5 80q110 0 188 -40t115 -116l-154 -106q-16 44 -59 71t-99 27q-61 0 -99 -29.5t-38 -78.5q0 -73 168 -135q55 -19 82 -31 q130 -51 187 -117t57 -164q0 -141 -103 -222t-284 -81q-139 0 -230.5 51.5t-144.5 159.5zM198 -393v106l140 -28q59 -9 102 -9q51 0 76.5 17t25.5 51q0 40 -31.5 57t-101.5 17l-20 -1l-21 -1v184h86v-86h17q111 0 167 -43.5t56 -130.5q0 -83 -61 -127.5t-177 -44.5 q-51 0 -119 10t-139 29z" />
<glyph unicode="&#x160;" horiz-adv-x="1124" d="M84 293l190 88q27 -97 99 -149t184 -52q106 0 168.5 59t62.5 158q0 128 -214 230l-46 22q-240 116 -321.5 213t-81.5 234q0 178 121.5 289.5t318.5 111.5q161 0 270 -62t152 -180l-186 -96q-43 68 -96 100.5t-121 32.5q-97 0 -153 -50t-56 -134q0 -132 248 -246l30 -14 q216 -99 297.5 -195t81.5 -239q0 -207 -131 -330t-354 -123q-187 0 -306 86t-157 246zM266 1880h123l174 -158l174 158h123l-193 -272h-208z" />
<glyph unicode="&#x161;" horiz-adv-x="872" d="M41 172l180 98q20 -71 75 -108t138 -37q72 0 114 33t42 92q0 77 -148 132l-77 30q-77 32 -129.5 63t-83.5 65q-60 65 -60 158q0 125 99.5 205t263.5 80q110 0 188 -40t115 -116l-154 -106q-16 44 -59 71t-99 27q-61 0 -99 -29.5t-38 -78.5q0 -73 168 -135q55 -19 82 -31 q130 -51 187 -117t57 -164q0 -141 -103 -222t-284 -81q-139 0 -230.5 51.5t-144.5 159.5zM139 1364h123l174 -158l174 158h123l-193 -272h-208z" />
<glyph unicode="&#x178;" horiz-adv-x="1214" d="M483 0v670l-493 794h250l307 -497l27 -50l34 -67q3 6 10.5 25.5t18.5 40.5q15 30 33 57l315 491h238l-504 -794v-670h-236zM669 1771q0 47 36 83t85 36t84 -35q35 -33 35 -84q0 -53 -34 -87.5t-85 -34.5t-86 35t-35 87zM305 1771q0 47 36 83t85 36t84 -35q35 -33 35 -84 q0 -53 -34 -87.5t-85 -34.5t-86 35t-35 87z" />
<glyph unicode="&#x17d;" horiz-adv-x="1180" d="M18 0l746 1262h-621v202h987l-739 -1251h748v-213h-1121zM293 1880h123l174 -158l174 158h123l-193 -272h-208z" />
<glyph unicode="&#x17e;" horiz-adv-x="920" d="M879 0h-881l528 758h-475v190h828l-517 -758h517v-190zM164 1364h123l174 -158l174 158h123l-193 -272h-208z" />
<glyph unicode="&#x192;" horiz-adv-x="1237" d="M725 782l-96 -757q-35 -280 -107 -377t-227 -97q-23 0 -36 1t-44.5 6.5t-77.5 17.5l41 202l48 -16q21 -6 36 -6q67 0 99 51q14 24 29 95.5t30 183.5l84 696h-209l14 166h211l21 154q26 195 101 287t210 92q42 0 87 -9q23 -4 46.5 -10t48.5 -16l-18 -189q-14 6 -27 10 t-32 8.5t-31.5 6.5t-24.5 2q-63 0 -93.5 -42t-51.5 -185l-15 -109h232l-17 -166h-231z" />
<glyph unicode="&#x2c6;" d="M215 1092l193 272h208l193 -272h-123l-174 157l-174 -157h-123z" />
<glyph unicode="&#x2c7;" d="M215 1364h123l174 -158l174 158h123l-193 -272h-208z" />
<glyph unicode="&#x2d8;" d="M213 1360l121 -1q9 -63 51.5 -93.5t126.5 -30.5q80 0 123 30t53 94l119 1q-15 -138 -85.5 -201t-209.5 -63q-138 0 -211 63.5t-88 200.5z" />
<glyph unicode="&#x2d9;" d="M385 1255q0 51 38 89t89 38t89 -36.5t38 -90.5q0 -53 -36 -90t-91 -37q-54 0 -90.5 36.5t-36.5 90.5z" />
<glyph unicode="&#x2da;" d="M399 1284q0 -49 33 -81t80 -32q46 0 80.5 33.5t34.5 79.5q0 48 -34 81.5t-81 33.5q-46 0 -79.5 -33.5t-33.5 -81.5zM274 1284q0 99 69.5 168.5t168.5 69.5q98 0 168 -70t70 -168q0 -96 -69.5 -165.5t-168.5 -69.5q-100 0 -169 68t-69 167z" />
<glyph unicode="&#x2db;" d="M625 0q-69 -59 -100 -110q-15 -26 -23 -51.5t-8 -51.5q0 -42 20.5 -61t67.5 -19h94v-156h-96q-119 0 -175.5 44t-56.5 137q0 63 46 129.5t143 138.5h88z" />
<glyph unicode="&#x2dc;" d="M805 1341q-18 -99 -69.5 -153.5t-125.5 -54.5l-26 1l-27 5l-124 32l-24 4l-14 1q-35 0 -54.5 -15.5t-31.5 -52.5h-90q22 104 69 156.5t120 52.5q20 0 30 -2l31 -6l117 -31l18 -3l29 -1q31 0 52 17.5t30 49.5h90z" />
<glyph unicode="&#x3a9;" horiz-adv-x="1569" d="M1194 213h305v-213h-602v229q158 92 241 244t83 352q0 210 -120.5 341.5t-316.5 131.5t-316 -133t-120 -352q0 -190 83.5 -340t240.5 -244v-229h-602v213h305q-143 128 -211 274t-68 322q0 314 190.5 508t497.5 194q303 0 496 -193t193 -493q0 -189 -65 -332t-214 -280z " />
<glyph unicode="&#x3c0;" horiz-adv-x="1368" d="M360 889h-45q-55 0 -83.5 -31t-39.5 -100h-174q27 187 100 255q36 34 95.5 51t146.5 17h953l-39 -192h-193l-84 -437l-8 -41q-22 -118 -22 -147q0 -58 23 -82t77 -24h14h13q10 2 15 2l60 8l-34 -168q-29 -8 -61 -12l-75 -4q-137 0 -201.5 48t-64.5 154q0 78 52 344l1 6 l70 353h-268l-174 -889h-226z" />
<glyph unicode="&#x2013;" d="M0 545h1024v-146h-1024v146z" />
<glyph unicode="&#x2014;" horiz-adv-x="2048" d="M0 399v146h2048v-146h-2048z" />
<glyph unicode="&#x2018;" horiz-adv-x="618" d="M496 1452l-191 -545l-182 62l246 528z" />
<glyph unicode="&#x2019;" horiz-adv-x="618" d="M123 954l190 543l183 -59l-246 -531z" />
<glyph unicode="&#x201a;" horiz-adv-x="618" d="M123 -299l190 545l183 -60l-246 -530z" />
<glyph unicode="&#x201c;" horiz-adv-x="905" d="M457 1452l-189 -545l-184 62l246 528zM821 1452l-190 -545l-182 62l245 528z" />
<glyph unicode="&#x201d;" horiz-adv-x="905" d="M84 954l190 543l183 -59l-246 -531zM449 954l190 543l182 -59l-246 -531z" />
<glyph unicode="&#x201e;" horiz-adv-x="905" d="M84 -299l190 545l183 -60l-246 -530zM449 -299l190 545l182 -60l-246 -530z" />
<glyph unicode="&#x2020;" horiz-adv-x="1090" d="M442 -446v1187h-358v183h358v540h205v-540h361v-183h-361v-1187h-205z" />
<glyph unicode="&#x2021;" horiz-adv-x="1090" d="M442 -446v491h-360v180h360v652h-360v180h360v407h205v-407h361v-180h-361v-652h361v-180h-361v-491h-205z" />
<glyph unicode="&#x2022;" horiz-adv-x="1208" d="M307 762q0 122 87.5 208.5t209.5 86.5q121 0 208 -86.5t87 -208.5t-87.5 -209.5t-209.5 -87.5t-208.5 87.5t-86.5 209.5z" />
<glyph unicode="&#x2026;" horiz-adv-x="2048" d="M211 111q0 55 38 94t93 39q54 0 92.5 -39.5t38.5 -93.5t-38.5 -91.5t-92.5 -37.5q-55 0 -93 37.5t-38 91.5zM893 111q0 55 38 94t93 39q54 0 92.5 -39.5t38.5 -93.5t-38.5 -91.5t-92.5 -37.5q-55 0 -93 37.5t-38 91.5zM1577 111q0 55 38 94t93 39q54 0 92.5 -39.5 t38.5 -93.5t-38.5 -91.5t-92.5 -37.5q-55 0 -93 37.5t-38 91.5z" />
<glyph unicode="&#x2030;" horiz-adv-x="2394" d="M2007 80q75 0 112.5 67t37.5 201q0 130 -38 198t-108 68q-74 0 -112 -68q-17 -32 -27 -83t-10 -117q0 -127 37.5 -196.5t107.5 -69.5zM1683 348q0 181 87 283t241 102q155 0 240.5 -100.5t85.5 -284.5q0 -181 -87 -284t-241 -103q-153 0 -239.5 102.5t-86.5 284.5z M913 348q0 181 87 283t241 102q155 0 240.5 -100.5t85.5 -284.5q0 -181 -87 -284t-241 -103q-153 0 -239.5 102.5t-86.5 284.5zM1237 80q75 0 112 67.5t37 200.5q0 130 -37 198t-108 68q-74 0 -112 -68q-17 -32 -27 -83t-10 -117q0 -127 37.5 -196.5t107.5 -69.5zM383 825 q73 0 110 67.5t37 201.5q0 129 -36.5 198.5t-106.5 69.5q-73 0 -111 -69t-38 -201q0 -130 37.5 -198.5t107.5 -68.5zM57 1094q0 179 87 282t241 103q155 0 240.5 -100.5t85.5 -284.5q0 -183 -86 -284t-240 -101t-241 101t-87 284zM455 -39h-138l854 1518h138z" />
<glyph unicode="&#x2039;" horiz-adv-x="627" d="M334 877l139 -84l-207 -324l207 -324l-139 -84l-254 408z" />
<glyph unicode="&#x203a;" horiz-adv-x="545" d="M219 61l-139 84l207 324l-207 324l139 84l254 -408z" />
<glyph unicode="&#x20a3;" horiz-adv-x="1829" d="M168 0v1464h817v-202h-579v-365h579v-209h-579v-688h-238zM1442 797q35 93 92 138.5t143 45.5q49 0 90 -11q48 -11 88 -32l-78 -184q-25 18 -60.5 28.5t-72.5 10.5q-107 0 -154.5 -86.5t-47.5 -290.5v-416h-217v950h217v-153z" />
<glyph unicode="&#x2122;" horiz-adv-x="1706" d="M809 1460h170l141 -360l133 360h170v-542h-114v428l-160 -428h-59l-166 428v-428h-115v542zM225 1460h467v-94h-168v-448h-129v448h-170v94z" />
<glyph unicode="&#x2202;" horiz-adv-x="1075" d="M758 639q3 20 14 97q8 59 12 89q9 84 9 148q0 122 -29 175.5t-92 53.5t-147.5 -58.5t-121.5 -58.5q-36 0 -64 26t-28 60q0 66 79.5 115t199.5 49q174 0 286.5 -159.5t112.5 -421.5q0 -337 -150.5 -558t-375.5 -221q-160 0 -265.5 111.5t-105.5 286.5q0 193 113 322.5 t278 129.5q99 0 166 -45t109 -141zM705 504q0 116 -41 178.5t-117 62.5q-104 0 -174 -131.5t-70 -337.5q0 -116 40.5 -177.5t117.5 -61.5q105 0 174.5 133t69.5 334z" />
<glyph unicode="&#x2206;" horiz-adv-x="1395" d="M698 1196l-379 -983h756zM569 1473h256l574 -1473h-1403z" />
<glyph unicode="&#x220f;" horiz-adv-x="1579" d="M154 1473h1267v-1866h-286v1622h-695v-1622h-286v1866z" />
<glyph unicode="&#x2211;" horiz-adv-x="1421" d="M61 1473h1280v-226h-921l647 -684l-661 -729h974v-227h-1347v160l712 786l-684 719v201z" />
<glyph unicode="&#x2212;" horiz-adv-x="1706" d="M254 696h1198v-170h-1198v170z" />
<glyph unicode="&#x2215;" horiz-adv-x="342" d="M-342 -39l887 1518h137l-887 -1518h-137z" />
<glyph unicode="&#x2219;" horiz-adv-x="618" d="M178 721q0 55 38 93t93 38q56 0 93.5 -38t37.5 -93t-38 -93t-93 -38t-93 39t-38 92z" />
<glyph unicode="&#x221a;" horiz-adv-x="1323" d="M1128 1675h197v-110h-108l-594 -1606h-82l-316 872l-131 -49l-28 95l305 108l247 -688z" />
<glyph unicode="&#x221e;" horiz-adv-x="1706" d="M928 559q45 -82 109.5 -123t146.5 -41q97 0 159 61.5t62 157.5q0 93 -57.5 157.5t-141.5 64.5q-78 0 -141 -63t-137 -214zM780 662q-45 81 -110.5 123t-145.5 42q-98 0 -159.5 -62.5t-61.5 -158.5q0 -94 56.5 -156.5t140.5 -62.5q81 0 144.5 62t135.5 213zM862 471 q-71 -136 -148.5 -198t-172.5 -62q-135 0 -231.5 114.5t-96.5 284.5q0 179 84.5 289.5t220.5 110.5q93 0 167.5 -59.5t158.5 -200.5q70 138 149 200t185 62q127 0 222 -116t95 -284q0 -177 -84.5 -288t-220.5 -111q-90 0 -164.5 56.5t-163.5 201.5z" />
<glyph unicode="&#x222b;" horiz-adv-x="1120" d="M324 -258q122 0 122 692l3 123q0 259 30 452.5t83 313.5q99 229 312 229q87 0 143 -45.5t56 -111.5q0 -60 -34 -94.5t-95 -34.5q-46 0 -74.5 22t-40.5 66l-6 45q0 38 -26 41q-53 0 -86 -157.5t-33 -457.5l-8 -249q0 -124 -9 -231t-20.5 -188.5t-25.5 -141.5t-35 -111 q-54 -135 -140 -205q-42 -34 -90.5 -52t-103.5 -18q-88 0 -142.5 44t-54.5 112q0 63 36 97t99 34q39 0 65.5 -17.5t41.5 -54.5q3 -9 6 -23.5t3 -35.5q0 -43 24 -43z" />
<glyph unicode="&#x2248;" horiz-adv-x="1706" d="M1530 592v-186q-104 -71 -198.5 -105.5t-190.5 -34.5q-88 0 -280 66.5t-298 66.5q-84 0 -173.5 -36t-211.5 -121v184q109 74 205.5 109.5t181.5 35.5q61 0 135 -16t174 -52q193 -67 277 -67q82 0 171.5 36t207.5 120zM1530 979v-184q-107 -74 -200.5 -108t-188.5 -34 q-88 0 -279 67q-95 34 -169 51t-130 17q-82 0 -170 -35t-215 -122v184q107 71 205 109q46 17 93.5 27t88.5 10q63 0 136.5 -16t173.5 -52q190 -68 268 -68q48 0 90.5 8t90.5 27q89 35 206 119z" />
<glyph unicode="&#x2260;" horiz-adv-x="1706" d="M1204 1212l123 -100l-170 -215h295v-162h-403l-197 -250h600v-161h-707l-249 -314l-123 99l170 215h-289v161h393l199 250h-592v162h700z" />
<glyph unicode="&#x2264;" horiz-adv-x="1706" d="M260 178h1186v-166h-1186v166zM1446 1223v-176l-889 -287l889 -287v-176l-1186 389v145z" />
<glyph unicode="&#x2265;" horiz-adv-x="1706" d="M260 178h1188v-166h-1188v166zM260 1223l1186 -392v-145l-1186 -389v176l891 287l-891 287v176z" />
<glyph unicode="&#x25ca;" horiz-adv-x="1012" d="M506 1409l-385 -817l385 -825l385 825zM506 1653l500 -1061l-500 -1069l-500 1069z" />
<glyph unicode="&#xe000;" horiz-adv-x="950" d="M0 950h950v-950h-950v950z" />
<glyph unicode="&#xf000;" horiz-adv-x="1618" d="M836 1216l-2 14v23q0 124 95 229t236 132l1 -23l1 -39q0 -131 -103.5 -234.5t-203.5 -103.5h-8l-8 1zM1505 403q-114 -246 -204.5 -342t-204.5 -96q-49 0 -131 33t-123 33q-44 0 -130.5 -33t-127.5 -33q-64 0 -128 44t-130 132q-100 137 -158 295q-27 78 -41 153t-14 148 q0 219 125 356.5t323 137.5q68 0 156.5 -34t122.5 -34q18 0 46 8t75 27q88 35 153 35q111 0 197.5 -39.5t161.5 -124.5q-101 -64 -151 -145.5t-50 -182.5q0 -111 60 -199.5t173 -138.5z" />
<glyph unicode="&#xf001;" horiz-adv-x="1151" d="M748 1358q0 54 40 94.5t97 40.5t96 -38.5t39 -96.5q0 -56 -39 -96.5t-96 -40.5t-97 41t-40 96zM774 0v948h219v-948h-219zM180 0v758h-166v190h166v254q0 189 78 279t244 90q17 0 35 -1t35.5 -3.5t37 -6.5t39.5 -10v-196q-25 15 -46 20.5t-32.5 7.5t-27.5 2 q-77 0 -111.5 -48.5t-34.5 -161.5v-226h228v-190h-228v-758h-217z" />
<glyph unicode="&#xf002;" horiz-adv-x="1151" d="M774 0v1550h219v-1550h-219zM180 0v758h-166v190h166v254q0 189 78 279t244 90q17 0 35 -1t35.5 -3.5t37 -6.5t39.5 -10v-196q-25 15 -46 20.5t-32.5 7.5t-27.5 2q-77 0 -111.5 -48.5t-34.5 -161.5v-226h228v-190h-228v-758h-217z" />
</font>
</defs>
</svg>
