<?xml version="1.0" standalone="no"?>
<!DOCTYPE svg PUBLIC "-//W3C//DTD SVG 1.1//EN" "http://www.w3.org/Graphics/SVG/1.1/DTD/svg11.dtd" >
<svg xmlns="http://www.w3.org/2000/svg" xmlns:xlink="http://www.w3.org/1999/xlink" version="1.1">
<metadata>
Created by FontForge 20150318 at Wed Jul  8 06:09:53 2015
 By uniteet7
Copyright (c) Mark Simonson, 2005. All rights reserved.
</metadata>
<defs>
<font id="proximanovaextrabold" horiz-adv-x="402" >
  <font-face 
    font-family="proximanovaextrabold"
    font-weight="800"
    font-stretch="normal"
    units-per-em="1000"
    panose-1="2 0 5 6 3 0 0 2 0 4"
    ascent="790"
    descent="-210"
    x-height="483"
    cap-height="667"
    bbox="-172 -296 1180 911"
    underline-thickness="20"
    underline-position="-113"
    unicode-range="U+0020-FB04"
  />
<missing-glyph horiz-adv-x="471" 
d="M411 -90h-351v842h351v-842zM379 -60v782h-288v-782h288z" />
    <glyph glyph-name="f_f_j" unicode="ffj" horiz-adv-x="965" 
d="M243 0h-154v350h-80v133h80v11q0 85 48 134t125 49q90 0 138 -45l-56 -96q-19 17 -50 17q-22 0 -36.5 -15t-14.5 -44v-11h98v-133h-98v-350zM592 0h-154v350h-80v133h80v11q0 87 49 135t124 48q66 0 103 -19l-30 -115q-13 10 -41 10q-22 0 -36.5 -15t-14.5 -44v-11h98
v-133h-98v-350zM831 526q-37 0 -62.5 26t-25.5 63t25.5 62.5t62.5 25.5t63 -25.5t26 -62.5t-26 -63t-63 -26zM721 -196q-47 0 -72 7.5t-55 26.5l39 112q26 -22 62 -22q59 0 59 76v479h154v-479q0 -92 -47 -146t-140 -54z" />
    <glyph glyph-name="f_j" unicode="fj" horiz-adv-x="615" 
d="M243 0h-154v350h-80v133h80v11q0 87 49 135t124 48q66 0 103 -19l-30 -115q-13 10 -41 10q-22 0 -36.5 -15t-14.5 -44v-11h98v-133h-98v-350zM482 526q-37 0 -62.5 26t-25.5 63t25.5 62.5t62.5 25.5t63 -25.5t26 -62.5t-26 -63t-63 -26zM372 -196q-47 0 -72 7.5t-55 26.5
l39 112q26 -22 62 -22q59 0 59 76v479h154v-479q0 -92 -47 -146t-140 -54z" />
    <glyph glyph-name="f_f" unicode="ff" horiz-adv-x="698" 
d="M243 0h-154v350h-80v133h80v11q0 85 48 134t125 49q90 0 138 -45l-56 -96q-19 17 -50 17q-22 0 -36.5 -15t-14.5 -44v-11h98v-133h-98v-350zM592 0h-154v350h-80v133h80v11q0 85 48 134t125 49q90 0 138 -45l-56 -96q-19 17 -50 17q-22 0 -36.5 -15t-14.5 -44v-11h98
v-133h-98v-350z" />
    <glyph glyph-name="fi" unicode="fi" horiz-adv-x="615" 
d="M243 0h-154v350h-80v133h80v11q0 87 49 135t124 48q66 0 103 -19l-30 -115q-13 10 -41 10q-22 0 -36.5 -15t-14.5 -44v-11h98v-133h-98v-350zM482 526q-37 0 -62.5 26t-25.5 63t25.5 62.5t62.5 25.5t63 -25.5t26 -62.5t-26 -63t-63 -26zM559 0h-154v483h154v-483z" />
    <glyph glyph-name="fl" unicode="fl" horiz-adv-x="615" 
d="M243 0h-154v350h-80v133h80v11q0 87 49 135t124 48q66 0 103 -19l-30 -115q-13 10 -41 10q-22 0 -36.5 -15t-14.5 -44v-11h98v-133h-98v-350zM559 0h-154v667h154v-667z" />
    <glyph glyph-name="f_f_i" unicode="ffi" horiz-adv-x="965" 
d="M243 0h-154v350h-80v133h80v11q0 85 48 134t125 49q90 0 138 -45l-56 -96q-19 17 -50 17q-22 0 -36.5 -15t-14.5 -44v-11h98v-133h-98v-350zM592 0h-154v350h-80v133h80v11q0 87 49 135t124 48q66 0 103 -19l-30 -115q-13 10 -41 10q-22 0 -36.5 -15t-14.5 -44v-11h98
v-133h-98v-350zM831 526q-37 0 -62.5 26t-25.5 63t25.5 62.5t62.5 25.5t63 -25.5t26 -62.5t-26 -63t-63 -26zM908 0h-154v483h154v-483z" />
    <glyph glyph-name="f_f_l" unicode="ffl" horiz-adv-x="965" 
d="M243 0h-154v350h-80v133h80v11q0 85 48 134t125 49q90 0 138 -45l-56 -96q-19 17 -50 17q-22 0 -36.5 -15t-14.5 -44v-11h98v-133h-98v-350zM592 0h-154v350h-80v133h80v11q0 87 49 135t124 48q66 0 103 -19l-30 -115q-13 10 -41 10q-22 0 -36.5 -15t-14.5 -44v-11h98
v-133h-98v-350zM908 0h-154v667h154v-667z" />
    <glyph glyph-name="f_b" unicode="fb" horiz-adv-x="940" 
d="M243 0h-154v350h-80v133h80v11q0 87 49 135t124 48q66 0 103 -19l-30 -115q-13 10 -41 10q-22 0 -36.5 -15t-14.5 -44v-11h98v-133h-98v-350zM559 167q14 -19 40.5 -31t51.5 -12q47 0 77 32t30 86q0 53 -30 85t-77 32q-25 0 -51.5 -12.5t-40.5 -31.5v-148zM559 0h-154
v667h154v-241q55 69 143 69q93 0 153 -68.5t60 -184.5q0 -119 -60 -186.5t-153 -67.5q-84 0 -143 68v-56z" />
    <glyph glyph-name="f_h" unicode="fh" horiz-adv-x="943" 
d="M243 0h-154v350h-80v133h80v11q0 87 49 135t124 48q66 0 103 -19l-30 -115q-13 10 -41 10q-22 0 -36.5 -15t-14.5 -44v-11h98v-133h-98v-350zM887 0h-154v281q0 78 -80 78q-55 0 -93 -47v-312h-154v667h154v-243q61 71 167 71q80 0 120 -40.5t40 -110.5v-344z" />
    <glyph glyph-name="f_k" unicode="fk" horiz-adv-x="895" 
d="M243 0h-154v350h-80v133h80v11q0 87 49 135t124 48q66 0 103 -19l-30 -115q-13 10 -41 10q-22 0 -36.5 -15t-14.5 -44v-11h98v-133h-98v-350zM901 0h-190l-106 171l-46 -55v-116h-154v667h154v-377l147 193h186l-178 -220z" />
    <glyph glyph-name=".notdef" horiz-adv-x="471" 
d="M411 -90h-351v842h351v-842zM379 -60v782h-288v-782h288z" />
    <glyph glyph-name=".null" horiz-adv-x="0" 
 />
    <glyph glyph-name="nonmarkingreturn" horiz-adv-x="333" 
 />
    <glyph glyph-name="space" unicode=" " horiz-adv-x="256" 
 />
    <glyph glyph-name="exclam" unicode="!" horiz-adv-x="267" 
d="M203 233h-137l-24 434h184zM135 -11q-38 0 -66 28t-28 66t28 65.5t66 27.5t65.5 -27.5t27.5 -65.5t-27.5 -66t-65.5 -28z" />
    <glyph glyph-name="quotedbl" unicode="&#x22;" horiz-adv-x="438" 
d="M152 357h-65q-48 219 -48 240q0 33 23.5 56.5t56.5 23.5t57 -23.5t24 -56.5q0 -9 -12 -69t-24 -116zM351 357h-64q-48 219 -48 240q0 33 23 56.5t57 23.5q33 0 56.5 -23.5t23.5 -56.5q0 -9 -12 -69t-24 -116z" />
    <glyph glyph-name="numbersign" unicode="#" horiz-adv-x="632" 
d="M358 0h-111l55 164h-87l-54 -164h-110l55 164h-92l31 95h93l49 148h-93l30 95h95l55 165h110l-55 -165h86l55 165h111l-56 -165h93l-29 -95h-95l-50 -148h96l-30 -95h-98zM333 259l50 148h-86l-49 -148h85z" />
    <glyph glyph-name="dollar" unicode="$" horiz-adv-x="625" 
d="M264 -100v91q-146 14 -240 103l91 134q63 -63 149 -81v111q-45 10 -78.5 22.5t-68 35.5t-53 60.5t-18.5 88.5q0 79 58 138t160 71v94h111v-95q121 -17 207 -89l-94 -129q-49 40 -113 58v-97q36 -8 63.5 -17t59.5 -25.5t52 -37t34 -53t14 -72.5q0 -91 -58 -149.5
t-165 -70.5v-91h-111zM423 193q0 25 -48 40v-88q48 13 48 48zM221 479q0 -24 43 -37v80q-43 -7 -43 -43z" />
    <glyph glyph-name="percent" unicode="%" horiz-adv-x="771" 
d="M196 343q-77 0 -125 47.5t-48 118.5q0 72 48 120t125 48q79 0 127.5 -48t48.5 -120q0 -71 -48.5 -118.5t-127.5 -47.5zM217 0h-87l426 667h88zM574 -12q-78 0 -126 47.5t-48 118.5q0 72 48 120t126 48q77 0 125.5 -48t48.5 -120q0 -71 -48.5 -118.5t-125.5 -47.5z
M196 435q30 0 49.5 19.5t19.5 54.5q0 36 -19.5 56t-49.5 20t-48.5 -20t-18.5 -56q0 -35 18.5 -54.5t48.5 -19.5zM574 80q30 0 49 19t19 55t-19 56t-49 20t-49 -20t-19 -56t19 -55t49 -19z" />
    <glyph glyph-name="ampersand" unicode="&#x26;" horiz-adv-x="649" 
d="M651 0h-192l-40 41q-79 -53 -174 -53q-99 0 -163 51t-64 146q0 69 37.5 113t103.5 77q-40 78 -40 140q0 68 57 115t145 47q77 0 132 -40t55 -106q0 -69 -42 -108t-119 -73q20 -26 48 -61l46 -57q35 56 55 118l121 -56q-43 -92 -94 -156zM267 107q35 0 72 21
q-51 60 -62 74q-20 24 -60 78q-38 -33 -38 -80q0 -41 26 -67t62 -26zM271 511q0 -32 23 -78q41 19 62 39.5t21 49.5q0 21 -13.5 34t-34.5 13q-25 0 -41.5 -16.5t-16.5 -41.5z" />
    <glyph glyph-name="quotesingle" unicode="'" horiz-adv-x="239" 
d="M152 357h-65q-48 219 -48 240q0 33 23.5 56.5t56.5 23.5t57 -23.5t24 -56.5q0 -9 -12 -69t-24 -116z" />
    <glyph glyph-name="parenleft" unicode="(" horiz-adv-x="322" 
d="M304 -123l-97 -76q-76 76 -122 198t-46 244t46 244t122 198l97 -74q-53 -90 -76.5 -176t-23.5 -192q0 -105 23.5 -191.5t76.5 -174.5z" />
    <glyph glyph-name="parenright" unicode=")" horiz-adv-x="322" 
d="M18 -123l97 -76q76 76 122 198t46 244t-46 244t-122 198l-97 -74q52 -90 75.5 -176t23.5 -192q0 -105 -23.5 -191.5t-75.5 -174.5z" />
    <glyph glyph-name="asterisk" unicode="*" horiz-adv-x="357" 
d="M215 355h-72l4 107l-90 -58l-36 63l95 49l-95 49l36 62l90 -57l-4 107h72l-6 -107l91 57l36 -62l-95 -49l95 -49l-36 -63l-91 58z" />
    <glyph glyph-name="plus" unicode="+" horiz-adv-x="507" 
d="M478 291h-174v-198h-101v198h-174v92h174v191h101v-191h174v-92z" />
    <glyph glyph-name="comma" unicode="," horiz-adv-x="268" 
d="M234 61q0 -123 -114 -203l-64 52q25 13 51 41t34 54q-12 -3 -23 -3q-33 0 -55.5 23t-22.5 59q0 38 27 65t65 27q42 0 72 -31t30 -84z" />
    <glyph glyph-name="hyphen" unicode="-" horiz-adv-x="300" 
d="M270 178h-240v129h240v-129z" />
    <glyph glyph-name="period" unicode="." horiz-adv-x="270" 
d="M135 -11q-38 0 -66.5 28t-28.5 66q0 37 28.5 65t66.5 28t66 -27.5t28 -65.5t-28 -66t-66 -28z" />
    <glyph glyph-name="slash" unicode="/" horiz-adv-x="346" 
d="M109 -20h-109l237 707h109z" />
    <glyph glyph-name="zero" unicode="0" horiz-adv-x="624" 
d="M312 -12q-71 0 -126.5 29t-90 78t-52 109.5t-17.5 128.5q0 92 30 168t96.5 126t159.5 50t159.5 -50t96.5 -126t30 -168q0 -68 -17.5 -128.5t-52 -109.5t-90 -78t-126.5 -29zM312 140q112 0 112 193q0 192 -112 192t-112 -192q0 -193 112 -193z" />
    <glyph glyph-name="one" unicode="1" horiz-adv-x="447" 
d="M387 0h-172v447l-112 -113l-98 103l233 230h149v-667z" />
    <glyph glyph-name="two" unicode="2" horiz-adv-x="607" 
d="M567 0h-523v134q222 160 282.5 216.5t60.5 105.5q0 32 -26.5 50.5t-65.5 18.5q-100 0 -178 -73l-95 114q51 56 123 83.5t147 27.5q119 0 194.5 -61t75.5 -160q0 -76 -56 -146.5t-183 -159.5h244v-150z" />
    <glyph glyph-name="three" unicode="3" horiz-adv-x="602" 
d="M292 -12q-92 0 -163 28.5t-113 76.5l87 117q35 -34 85.5 -52t96.5 -18q54 0 83 18t29 47q0 30 -26.5 43.5t-92.5 13.5q-70 0 -90 -2v153q13 -1 90 -1q108 0 108 52q0 30 -31 45.5t-81 15.5q-94 0 -166 -64l-83 108q98 108 267 108q126 0 195.5 -49.5t69.5 -133.5
q0 -57 -42.5 -98.5t-103.5 -51.5q60 -6 108.5 -48.5t48.5 -109.5q0 -88 -76 -143t-200 -55z" />
    <glyph glyph-name="four" unicode="4" horiz-adv-x="616" 
d="M514 0h-173v122h-319v134l253 411h239v-394h81v-151h-81v-122zM341 273v244l-152 -244h152z" />
    <glyph glyph-name="five" unicode="5" horiz-adv-x="617" 
d="M309 -12q-169 0 -268 97l93 121q71 -66 173 -66q52 0 80.5 22t28.5 55q0 35 -27 56t-77 21q-79 0 -132 -50l-119 29v394h484v-150h-312v-129q55 53 143 53q89 0 152 -59.5t63 -157.5q0 -108 -76 -172t-206 -64z" />
    <glyph glyph-name="six" unicode="6" horiz-adv-x="617" 
d="M329 -12q-151 0 -227 95.5t-76 248.5q0 159 89.5 252t241.5 93q120 0 202 -64l-74 -132q-54 44 -128 44q-64 0 -110.5 -42.5t-46.5 -109.5v-8q25 34 70 55t94 21q96 0 163.5 -58.5t67.5 -160.5q0 -103 -75 -168.5t-191 -65.5zM318 140q46 0 74.5 23t28.5 53
q0 39 -32.5 59t-76.5 20q-70 0 -112 -45q4 -46 33 -78t85 -32z" />
    <glyph glyph-name="seven" unicode="7" horiz-adv-x="560" 
d="M309 0h-189l226 517h-325v150h523v-119z" />
    <glyph glyph-name="eight" unicode="8" horiz-adv-x="618" 
d="M309 -12q-118 0 -200.5 48t-82.5 140q0 55 37.5 100t97.5 68q-124 47 -124 155q0 61 42 102.5t101 58.5t129 17t129 -17t101 -58.5t42 -102.5q0 -108 -125 -155q61 -23 98.5 -68t37.5 -100q0 -62 -41.5 -106t-104 -63t-137.5 -19zM309 411q37 5 66.5 20.5t29.5 38.5
q0 26 -26 40.5t-70 14.5t-70.5 -14.5t-26.5 -40.5q0 -23 30 -38.5t67 -20.5zM309 140q47 0 77.5 16.5t30.5 43.5t-34.5 44t-73.5 22q-40 -5 -74 -22t-34 -44t30 -43.5t78 -16.5z" />
    <glyph glyph-name="nine" unicode="9" horiz-adv-x="617" 
d="M260 -11q-120 0 -202 64l74 132q54 -44 128 -44q71 0 113.5 44.5t42.5 107.5v8q-24 -34 -69 -55t-94 -21q-96 0 -164 58.5t-68 160.5t75 168t191 66q151 0 227 -95.5t76 -248.5q0 -159 -89 -252t-241 -93zM304 371q70 0 112 45q-3 46 -32 78t-87 32q-45 0 -73 -23
t-28 -53q0 -39 32.5 -59t75.5 -20z" />
    <glyph glyph-name="colon" unicode=":" horiz-adv-x="256" 
d="M135 302q-38 0 -66.5 28t-28.5 66t28.5 66t66.5 28t66 -28t28 -66t-28 -66t-66 -28zM135 -11q-38 0 -66.5 28t-28.5 66q0 37 28.5 65t66.5 28t66 -27.5t28 -65.5t-28 -66t-66 -28z" />
    <glyph glyph-name="semicolon" unicode=";" horiz-adv-x="268" 
d="M135 302q-38 0 -66.5 28.5t-28.5 66.5t28.5 65.5t66.5 27.5t66 -27.5t28 -65.5t-28 -66.5t-66 -28.5zM234 66q0 -123 -114 -203l-64 52q25 13 51 41t34 54q-12 -3 -23 -3q-33 0 -55.5 23t-22.5 59q0 38 27 65t65 27q42 0 72 -31t30 -84z" />
    <glyph glyph-name="less" unicode="&#x3c;" horiz-adv-x="507" 
d="M478 90l-449 189v111l449 190v-109l-344 -137l344 -135v-109z" />
    <glyph glyph-name="equal" unicode="=" horiz-adv-x="507" 
d="M478 381h-449v92h449v-92zM478 195h-449v92h449v-92z" />
    <glyph glyph-name="greater" unicode="&#x3e;" horiz-adv-x="507" 
d="M478 279l-449 -189v109l345 135l-345 137v109l449 -190v-111z" />
    <glyph glyph-name="question" unicode="?" horiz-adv-x="453" 
d="M166 214q-30 36 -30 92q0 31 13.5 56.5t32 41.5t37.5 29t32.5 26.5t13.5 26.5q0 39 -59 39q-60 0 -105 -52l-96 110q40 46 98.5 70t121.5 24q98 0 156 -44t58 -116q0 -40 -16 -71t-38.5 -50.5t-45.5 -35.5t-39 -34t-16 -38q0 -25 15 -40zM227 -11q-38 0 -66 28t-28 66
t28 65.5t66 27.5t66 -27.5t28 -65.5t-28 -66t-66 -28z" />
    <glyph glyph-name="at" unicode="@" horiz-adv-x="783" 
d="M352 -70q-136 0 -226.5 90.5t-90.5 223.5q0 158 120 276t277 118q141 0 228 -87.5t87 -213.5q0 -62 -20 -112t-52 -79.5t-68 -45t-70 -15.5q-43 0 -68 20t-32 50l-2 7q-26 -37 -62.5 -57t-73.5 -20q-73 0 -115 48t-42 123q0 97 67.5 169.5t154.5 72.5q84 0 124 -62l9 48
h136l-49 -230q-2 -10 -2 -25q0 -42 32 -42q33 0 60 39.5t27 111.5q0 117 -74 187.5t-199 70.5q-141 0 -246 -104.5t-105 -244.5q0 -118 79.5 -197t200.5 -79q94 0 180 54l23 -32q-98 -63 -208 -63zM355 192q52 0 92 53l22 106q-22 40 -70 40q-51 0 -84 -37t-33 -86
q0 -35 19.5 -55.5t53.5 -20.5z" />
    <glyph glyph-name="A" unicode="A" horiz-adv-x="697" 
d="M708 0h-195l-33 96h-263l-33 -96h-195l251 667h217zM433 246l-84 251l-85 -251h169z" />
    <glyph glyph-name="B" unicode="B" horiz-adv-x="680" 
d="M450 0h-390v667h378q94 0 144.5 -50.5t50.5 -119.5q0 -60 -32.5 -101t-81.5 -52q54 -8 90.5 -54.5t36.5 -108.5q0 -77 -51 -129t-145 -52zM399 413q27 0 43 14t16 38t-16.5 38t-42.5 14h-167v-104h167zM405 150q31 0 48.5 15t17.5 42q0 25 -17.5 40.5t-48.5 15.5h-173
v-113h173z" />
    <glyph glyph-name="C" unicode="C" horiz-adv-x="692" 
d="M387 -12q-155 0 -258 96.5t-103 248.5q0 153 102.5 249t258.5 96q111 0 182 -51t109 -127l-148 -71q-17 41 -56.5 69t-86.5 28q-81 0 -133.5 -55t-52.5 -138q0 -82 52.5 -137.5t133.5 -55.5q47 0 86.5 28t56.5 69l148 -70q-38 -76 -109.5 -127.5t-181.5 -51.5z" />
    <glyph glyph-name="D" unicode="D" horiz-adv-x="727" 
d="M341 0h-281v667h280q160 0 260.5 -90t100.5 -243t-100.5 -243.5t-259.5 -90.5zM340 150q85 0 135 53.5t50 130.5q0 81 -48 132t-136 51h-109v-367h108z" />
    <glyph glyph-name="E" unicode="E" horiz-adv-x="589" 
d="M549 0h-489v667h489v-150h-317v-104h310v-150h-310v-113h317v-150z" />
    <glyph glyph-name="F" unicode="F" horiz-adv-x="582" 
d="M232 0h-172v667h489v-150h-317v-104h310v-150h-310v-263z" />
    <glyph glyph-name="G" unicode="G" horiz-adv-x="723" 
d="M387 -12q-153 0 -257 95t-104 250t104 250t257 95q104 0 175 -46t110 -116l-144 -75q-20 36 -57.5 60.5t-83.5 24.5q-81 0 -133.5 -55t-52.5 -138q0 -82 52.5 -137.5t133.5 -55.5q35 0 69.5 12t53.5 28v52h-150v151h322v-265q-117 -130 -295 -130z" />
    <glyph glyph-name="H" unicode="H" horiz-adv-x="741" 
d="M681 0h-172v268h-277v-268h-172v667h172v-249h277v249h172v-667z" />
    <glyph glyph-name="I" unicode="I" horiz-adv-x="292" 
d="M232 0h-172v667h172v-667z" />
    <glyph glyph-name="J" unicode="J" horiz-adv-x="492" 
d="M186 -12q-115 0 -183 60l72 131q47 -39 96 -39q41 0 65 24.5t24 66.5v436h172v-438q0 -120 -66 -180.5t-180 -60.5z" />
    <glyph glyph-name="K" unicode="K" horiz-adv-x="654" 
d="M663 0h-211l-175 251l-45 -56v-195h-172v667h172v-274l205 274h212l-259 -312z" />
    <glyph glyph-name="L" unicode="L" horiz-adv-x="525" 
d="M497 0h-440v667h172v-517h268v-150z" />
    <glyph glyph-name="M" unicode="M" horiz-adv-x="877" 
d="M817 0h-172v441l-168 -441h-76l-169 441v-441h-172v667h239l140 -368l139 368h239v-667z" />
    <glyph glyph-name="N" unicode="N" horiz-adv-x="740" 
d="M680 0h-166l-282 386v-386h-172v667h177l270 -367v367h173v-667z" />
    <glyph glyph-name="O" unicode="O" horiz-adv-x="766" 
d="M383 -12q-154 0 -255.5 97t-101.5 248t101.5 248t255.5 97t255 -97t101 -248t-101 -248t-255 -97zM383 140q81 0 131 55t50 138t-50 138t-131 55t-131.5 -55t-50.5 -138t50.5 -138t131.5 -55z" />
    <glyph glyph-name="P" unicode="P" horiz-adv-x="643" 
d="M232 0h-172v667h334q108 0 170 -63.5t62 -158.5q0 -94 -62 -157.5t-170 -63.5h-162v-224zM368 374q36 0 59.5 19t23.5 52t-23.5 52.5t-59.5 19.5h-136v-143h136z" />
    <glyph glyph-name="Q" unicode="Q" horiz-adv-x="766" 
d="M383 -12q-154 0 -255.5 97t-101.5 248t101.5 248t255.5 97t255 -97t101 -248q0 -137 -84 -231l42 -51l-119 -96l-50 60q-70 -27 -145 -27zM383 140q22 0 39 4l-61 74l119 96l63 -76q21 45 21 95q0 83 -50 138t-131 55t-131.5 -55t-50.5 -138t50.5 -138t131.5 -55z" />
    <glyph glyph-name="R" unicode="R" horiz-adv-x="661" 
d="M629 0h-197l-112 224h-88v-224h-172v667h334q108 0 170 -63t62 -159q0 -80 -39 -130.5t-94 -69.5zM368 374q36 0 59.5 19t23.5 53q0 33 -23.5 52t-59.5 19h-136v-143h136z" />
    <glyph glyph-name="S" unicode="S" horiz-adv-x="606" 
d="M308 -12q-183 0 -296 106l91 134q88 -88 214 -88q44 0 69 14t25 39q0 20 -28 33t-70 19.5t-90.5 20.5t-90.5 33.5t-70 62.5t-28 103q0 89 71 150.5t194 61.5q163 0 271 -93l-94 -129q-83 70 -195 70q-72 0 -72 -46q0 -22 39 -35t94.5 -24.5t110.5 -30t94 -64t39 -114.5
q0 -102 -73 -162.5t-205 -60.5z" />
    <glyph glyph-name="T" unicode="T" horiz-adv-x="589" 
d="M381 0h-172v517h-187v150h545v-150h-186v-517z" />
    <glyph glyph-name="U" unicode="U" horiz-adv-x="750" 
d="M376 -12q-155 0 -235.5 77t-80.5 205v397h175v-391q0 -61 36.5 -98.5t104.5 -37.5q67 0 103.5 37.5t36.5 98.5v391h174v-396q0 -130 -79.5 -206.5t-234.5 -76.5z" />
    <glyph glyph-name="V" unicode="V" horiz-adv-x="697" 
d="M457 0h-217l-251 667h195l165 -481l164 481h195z" />
    <glyph glyph-name="W" unicode="W" horiz-adv-x="936" 
d="M751 0h-182l-101 418l-101 -418h-182l-191 667h193l101 -445l114 445h132l114 -445l100 445h194z" />
    <glyph glyph-name="X" unicode="X" horiz-adv-x="676" 
d="M686 0h-203l-145 224l-145 -224h-203l232 342l-217 325h203l130 -209l129 209h204l-217 -324z" />
    <glyph glyph-name="Y" unicode="Y" horiz-adv-x="655" 
d="M414 0h-172v269l-253 398h194l145 -246l143 246h195l-252 -398v-269z" />
    <glyph glyph-name="Z" unicode="Z" horiz-adv-x="596" 
d="M557 0h-518v137l284 380h-284v150h511v-136l-285 -381h292v-150z" />
    <glyph glyph-name="bracketleft" unicode="[" horiz-adv-x="299" 
d="M281 -190h-230v868h230v-99h-122v-670h122v-99z" />
    <glyph glyph-name="backslash" unicode="\" horiz-adv-x="346" 
d="M237 -20l-237 707h109l237 -707h-109z" />
    <glyph glyph-name="bracketright" unicode="]" horiz-adv-x="299" 
d="M248 -190h-230v99h122v670h-122v99h230v-868z" />
    <glyph glyph-name="asciicircum" unicode="^" horiz-adv-x="445" 
d="M426 333h-109l-94 231l-93 -231h-111l149 334h111z" />
    <glyph glyph-name="underscore" unicode="_" horiz-adv-x="564" 
d="M567 -139h-570v99h570v-99z" />
    <glyph glyph-name="grave" unicode="`" horiz-adv-x="263" 
d="M263 556h-104l-159 144h136z" />
    <glyph glyph-name="grave" unicode="&#x2cb;" horiz-adv-x="263" 
d="M263 556h-104l-159 144h136z" />
    <glyph glyph-name="a" unicode="a" horiz-adv-x="551" 
d="M495 0h-154v48q-23 -27 -63.5 -43.5t-86.5 -16.5q-63 0 -114.5 42t-51.5 117q0 80 50 118t116 38q104 0 150 -57v48q0 32 -26 51.5t-72 19.5q-74 0 -135 -52l-57 107q88 75 219 75q46 0 84.5 -9.5t71 -30.5t51 -60t18.5 -93v-302zM255 89q62 0 86 35v43q-24 34 -86 34
q-32 0 -54.5 -14.5t-22.5 -41.5t22.5 -41.5t54.5 -14.5z" />
    <glyph glyph-name="b" unicode="b" horiz-adv-x="591" 
d="M210 167q14 -19 40.5 -31t51.5 -12q47 0 77 32t30 86q0 53 -30 85t-77 32q-25 0 -51.5 -12.5t-40.5 -31.5v-148zM210 0h-154v667h154v-241q55 69 143 69q93 0 153 -68.5t60 -184.5q0 -119 -60 -186.5t-153 -67.5q-84 0 -143 68v-56z" />
    <glyph glyph-name="c" unicode="c" horiz-adv-x="500" 
d="M288 -12q-114 0 -188.5 71t-74.5 183t74.5 182.5t188.5 70.5q72 0 122.5 -26t75.5 -63l-100 -93q-31 46 -91 46q-49 0 -81 -31.5t-32 -85.5t32 -86t81 -32q58 0 91 47l100 -94q-25 -37 -75.5 -63t-122.5 -26z" />
    <glyph glyph-name="d" unicode="d" horiz-adv-x="591" 
d="M534 0h-153v56q-59 -68 -143 -68q-93 0 -153 67.5t-60 186.5q0 116 60 184.5t153 68.5q88 0 143 -69v241h153v-667zM288 124q25 0 51.5 12.5t41.5 31.5v148q-15 19 -41.5 31t-51.5 12q-47 0 -76.5 -32t-29.5 -85t30 -85.5t76 -32.5z" />
    <glyph glyph-name="e" unicode="e" horiz-adv-x="548" 
d="M288 -12q-114 0 -188.5 69.5t-74.5 184.5q0 107 72 180t184 73q109 0 178 -73.5t69 -195.5v-35h-344q9 -35 40 -57t81 -22q28 0 63 11.5t55 29.5l67 -101q-35 -31 -89.5 -47.5t-112.5 -16.5zM381 296q-4 30 -28 52.5t-72 22.5q-46 0 -70 -22t-29 -53h199z" />
    <glyph glyph-name="f" unicode="f" horiz-adv-x="349" 
d="M243 0h-154v350h-80v133h80v11q0 85 48 134t125 49q90 0 138 -45l-56 -96q-19 17 -50 17q-22 0 -36.5 -15t-14.5 -44v-11h98v-133h-98v-350z" />
    <glyph glyph-name="g" unicode="g" horiz-adv-x="590" 
d="M257 -196q-126 0 -214 72l67 108q53 -56 147 -56q48 0 85.5 26t37.5 88v37q-59 -71 -143 -71q-93 0 -152.5 63t-59.5 181q0 116 59 179.5t153 63.5q87 0 143 -69v57h154v-441q0 -56 -17.5 -99.5t-45 -69t-65.5 -42t-74 -22t-75 -5.5zM288 144q25 0 51.5 12t40.5 31v129
q-14 19 -40.5 31t-51.5 12q-47 0 -76.5 -28t-29.5 -79q0 -52 29.5 -80t76.5 -28z" />
    <glyph glyph-name="h" unicode="h" horiz-adv-x="594" 
d="M538 0h-154v281q0 78 -80 78q-55 0 -93 -47v-312h-154v667h154v-243q61 71 167 71q80 0 120 -40.5t40 -110.5v-344z" />
    <glyph glyph-name="i" unicode="i" horiz-adv-x="266" 
d="M133 526q-37 0 -62.5 26t-25.5 63t25.5 62.5t62.5 25.5t63 -25.5t26 -62.5t-26 -63t-63 -26zM210 0h-154v483h154v-483z" />
    <glyph glyph-name="j" unicode="j" horiz-adv-x="266" 
d="M133 526q-37 0 -62.5 26t-25.5 63t25.5 62.5t62.5 25.5t63 -25.5t26 -62.5t-26 -63t-63 -26zM23 -196q-47 0 -72 7.5t-55 26.5l39 112q26 -22 62 -22q59 0 59 76v479h154v-479q0 -92 -47 -146t-140 -54z" />
    <glyph glyph-name="k" unicode="k" horiz-adv-x="546" 
d="M552 0h-190l-106 171l-46 -55v-116h-154v667h154v-377l147 193h186l-178 -220z" />
    <glyph glyph-name="l" unicode="l" horiz-adv-x="266" 
d="M210 0h-154v667h154v-667z" />
    <glyph glyph-name="m" unicode="m" horiz-adv-x="875" 
d="M818 0h-153v294q0 65 -64 65q-52 0 -87 -47v-312h-154v294q0 65 -63 65q-49 0 -87 -47v-312h-154v483h154v-59q19 25 63 48t96 23q107 0 137 -86q23 35 68.5 60.5t98.5 25.5q69 0 107 -36.5t38 -108.5v-350z" />
    <glyph glyph-name="n" unicode="n" horiz-adv-x="593" 
d="M537 0h-154v279q0 80 -79 80q-56 0 -94 -47v-312h-154v483h154v-59q61 71 168 71q79 0 119 -41.5t40 -111.5v-342z" />
    <glyph glyph-name="o" unicode="o" horiz-adv-x="576" 
d="M287 -12q-119 0 -190.5 74t-71.5 180t71.5 179.5t190.5 73.5q120 0 192 -73.5t72 -179.5t-72 -180t-192 -74zM287 124q49 0 77.5 33.5t28.5 84.5q0 50 -28.5 83.5t-77.5 33.5q-48 0 -76 -33.5t-28 -83.5q0 -51 28 -84.5t76 -33.5z" />
    <glyph glyph-name="p" unicode="p" horiz-adv-x="589" 
d="M353 -12q-85 0 -143 69v-241h-154v667h154v-56q56 68 143 68q94 0 153 -67t59 -186q0 -120 -59 -187t-153 -67zM302 124q46 0 76 32t30 86q0 53 -30 85t-76 32q-25 0 -51.5 -12.5t-40.5 -31.5v-147q14 -19 40.5 -31.5t51.5 -12.5z" />
    <glyph glyph-name="q" unicode="q" horiz-adv-x="589" 
d="M288 124q24 0 51 12.5t40 31.5v147q-14 19 -40.5 31.5t-50.5 12.5q-47 0 -77 -32t-30 -85q0 -54 30 -86t77 -32zM237 -12q-94 0 -153.5 67t-59.5 187q0 119 59.5 186t153.5 67q86 0 142 -68v56h154v-667h-154v241q-57 -69 -142 -69z" />
    <glyph glyph-name="r" unicode="r" horiz-adv-x="375" 
d="M210 0h-154v483h154v-59q25 30 67 51t84 21v-148q-12 4 -38 4q-32 0 -65.5 -12.5t-47.5 -31.5v-308z" />
    <glyph glyph-name="s" unicode="s" horiz-adv-x="484" 
d="M242 -12q-65 0 -127 20.5t-100 54.5l64 110q28 -25 78.5 -45t91.5 -20q65 0 65 34q0 16 -29 24t-70 14.5t-82.5 19t-70.5 47t-29 89.5q0 67 55.5 113t151.5 46q114 0 202 -64l-59 -109q-23 22 -62 37.5t-80 15.5q-27 0 -43.5 -9.5t-16.5 -23.5t29 -21t70 -14.5t82 -21
t70 -49t29 -90.5q0 -70 -58.5 -114t-160.5 -44z" />
    <glyph glyph-name="t" unicode="t" horiz-adv-x="360" 
d="M239 -12q-74 0 -112.5 36t-38.5 106v220h-80v133h80v132h154v-132h98v-133h-98v-177q0 -21 11.5 -35t30.5 -14q29 0 39 12l30 -116q-34 -32 -114 -32z" />
    <glyph glyph-name="u" unicode="u" horiz-adv-x="592" 
d="M536 0h-154v58q-62 -70 -167 -70q-79 0 -119 41t-40 110v344h154v-280q0 -79 80 -79q55 0 92 47v312h154v-483z" />
    <glyph glyph-name="v" unicode="v" horiz-adv-x="524" 
d="M344 0h-164l-190 483h162l110 -306l109 306h163z" />
    <glyph glyph-name="w" unicode="w" horiz-adv-x="787" 
d="M650 0h-166l-91 299l-90 -299h-166l-143 483h158l78 -296l95 296h137l95 -296l77 296h159z" />
    <glyph glyph-name="x" unicode="x" horiz-adv-x="512" 
d="M518 0h-169l-92 146l-95 -146h-168l165 248l-155 235h169l83 -131l82 131h169l-154 -235z" />
    <glyph glyph-name="y" unicode="y" horiz-adv-x="524" 
d="M46 -188l22 137q16 -9 38 -9q54 0 66 27l11 26l-193 490h162l110 -306l109 306h163l-218 -552q-27 -71 -77 -98t-127 -29q-40 0 -66 8z" />
    <glyph glyph-name="z" unicode="z" horiz-adv-x="483" 
d="M445 0h-407v114l194 236h-194v133h403v-109l-198 -241h202v-133z" />
    <glyph glyph-name="braceleft" unicode="{" horiz-adv-x="302" 
d="M285 -190h-60q-70 0 -120 47t-50 125v155q0 29 -13.5 47.5t-38.5 18.5v82q25 0 38.5 18.5t13.5 47.5v155q0 77 50 124.5t120 47.5h60v-99h-60q-26 0 -44 -20t-18 -53v-172q0 -70 -46 -90q46 -20 46 -90v-172q0 -32 18 -52.5t44 -20.5h60v-99z" />
    <glyph glyph-name="bar" unicode="|" horiz-adv-x="219" 
d="M159 -20h-99v707h99v-707z" />
    <glyph glyph-name="braceright" unicode="}" horiz-adv-x="302" 
d="M17 -190v99h60q26 0 44 20.5t18 52.5v172q0 70 46 90q-46 20 -46 90v172q0 33 -18 53t-44 20h-60v99h60q70 0 120 -47.5t50 -124.5v-155q0 -29 13.5 -47.5t38.5 -18.5v-82q-25 0 -38.5 -18.5t-13.5 -47.5v-155q0 -78 -50 -125t-120 -47h-60z" />
    <glyph glyph-name="asciitilde" unicode="~" horiz-adv-x="514" 
d="M388 667l101 -12q-4 -52 -12 -90.5t-24 -77t-46 -59.5t-72 -21q-45 0 -72.5 26.5t-35.5 58t-19.5 58t-27.5 26.5q-38 0 -52 -170l-102 12q3 40 8 72t16.5 66.5t27.5 57.5t42 38t60 15q45 0 72.5 -26.5t35.5 -58.5t19.5 -58.5t27.5 -26.5q40 0 53 170z" />
    <glyph glyph-name="nbspace" unicode="&#xa0;" horiz-adv-x="256" 
 />
    <glyph glyph-name="exclamdown" unicode="&#xa1;" horiz-adv-x="267" 
d="M42 -184l22 434h137l25 -434h-184zM40 401q0 38 27.5 65.5t65.5 27.5t65.5 -27.5t27.5 -65.5t-27.5 -66t-65.5 -28t-65.5 28t-27.5 66z" />
    <glyph glyph-name="cent" unicode="&#xa2;" horiz-adv-x="500" 
d="M235 -100v93q-94 16 -152 83t-58 166q0 98 58 165t152 83v75h109v-75q95 -17 142 -84l-100 -93q-18 25 -42 36v-214q24 11 42 36l100 -94q-48 -68 -142 -84v-93h-109zM182 242q0 -72 53 -103v204q-53 -31 -53 -101z" />
    <glyph glyph-name="sterling" unicode="&#xa3;" horiz-adv-x="565" 
d="M24 269v96h53q-33 55 -33 100q0 96 78 154t173 58q183 0 248 -125l-137 -79q-11 31 -35 48t-54 17q-37 0 -61 -21.5t-24 -54.5q0 -9 2 -19t3 -16t6.5 -17t6.5 -14t8.5 -16.5t8.5 -14.5h139v-96h-110v-7q0 -30 -17 -58t-43 -43q21 8 48 8q29 0 64.5 -14.5t57.5 -14.5
q56 0 81 35l67 -136q-47 -51 -154 -51q-47 0 -103.5 21.5t-78.5 21.5q-48 0 -115 -38l-57 115q97 49 97 110q0 26 -11 51h-108z" />
    <glyph glyph-name="currency" unicode="&#xa4;" horiz-adv-x="522" 
d="M486 137l-29 -29l-56 57q-60 -51 -140 -51t-140 51l-57 -57l-28 29l56 56q-50 63 -50 140q0 79 50 140l-56 57l28 28l57 -56q59 50 140 50q79 0 140 -50l56 56l29 -28l-56 -57q50 -61 50 -140q0 -77 -50 -140zM432 333q0 71 -50 121t-121 50t-121 -50t-50 -121t50 -121
t121 -50t121 50t50 121z" />
    <glyph glyph-name="yen" unicode="&#xa5;" horiz-adv-x="655" 
d="M414 0h-172v111h-218v92h218v66h-218v92h159l-194 306h194l145 -246l143 246h195l-194 -306h160v-92h-218v-66h218v-92h-218v-111z" />
    <glyph glyph-name="brokenbar" unicode="&#xa6;" horiz-adv-x="219" 
d="M159 -20h-99v316h99v-316zM159 371h-99v316h99v-316z" />
    <glyph glyph-name="section" unicode="&#xa7;" horiz-adv-x="492" 
d="M461 331q0 -40 -21 -74t-59 -54q80 -37 80 -123q0 -75 -61.5 -118t-157.5 -43q-132 0 -224 79l61 97q29 -28 74 -49.5t89 -21.5q72 0 72 42q0 22 -29 34.5t-70 21t-82.5 22t-70.5 47t-29 86.5q0 45 27.5 77t61.5 46q-89 38 -89 128q0 65 58.5 107t147.5 42q128 0 202 -66
l-58 -91q-57 52 -136 52q-66 0 -66 -41q0 -19 29 -29.5t70 -18t82 -20.5t70 -46t29 -86zM310 300q0 47 -69 63q-60 -13 -60 -61q0 -47 82 -63q47 19 47 61z" />
    <glyph glyph-name="dieresis" unicode="&#xa8;" horiz-adv-x="306" 
d="M339 615q0 -33 -23 -56t-56 -23q-32 0 -55 23t-23 56q0 32 23 55t55 23q33 0 56 -23t23 -55zM125 615q0 -33 -23 -56t-56 -23q-32 0 -55 23t-23 56q0 32 23 55t55 23q33 0 56 -23t23 -55z" />
    <glyph glyph-name="copyright" unicode="&#xa9;" horiz-adv-x="778" 
d="M734 334q0 -143 -101 -244t-244 -101t-244 101.5t-101 243.5q0 143 101 244t244 101t244 -101t101 -244zM695 334q0 127 -89.5 216.5t-216.5 89.5q-126 0 -216 -89.5t-90 -216.5q0 -126 90 -216t216 -90q127 0 216.5 90t89.5 216zM511 226l35 -33q-59 -69 -150 -69
q-87 0 -147.5 60t-60.5 151q0 90 60.5 149.5t147.5 59.5q92 0 149 -67l-34 -34q-43 58 -115 58q-66 0 -112 -47t-46 -119q0 -71 46 -119.5t112 -48.5q71 0 115 59z" />
    <glyph glyph-name="ordfeminine" unicode="&#xaa;" horiz-adv-x="389" 
d="M343 326h-109v31q-32 -39 -99 -39q-43 0 -76.5 27t-33.5 76t33.5 75t76.5 26q68 0 99 -35v31q0 22 -16.5 35.5t-46.5 13.5q-50 0 -89 -39l-39 71q61 49 147 49q153 0 153 -132v-190zM181 385q37 0 53 24v25q-15 23 -53 23q-48 0 -48 -36t48 -36z" />
    <glyph glyph-name="guillemotleft" unicode="&#xab;" horiz-adv-x="571" 
d="M541 63h-139l-160 180l160 177h139l-160 -177zM329 63h-139l-160 180l160 177h139l-160 -177z" />
    <glyph glyph-name="logicalnot" unicode="&#xac;" horiz-adv-x="521" 
d="M478 473v-278h-94v186h-355v92h449z" />
    <glyph glyph-name="registered" unicode="&#xae;" horiz-adv-x="494" 
d="M459 465q0 -88 -62 -150t-150 -62t-150 62t-62 150t62 150t150 62q89 0 150.5 -61.5t61.5 -150.5zM426 465q0 75 -52.5 127t-126.5 52t-126.5 -52t-52.5 -127q0 -74 52.5 -126.5t126.5 -52.5t126.5 52.5t52.5 126.5zM348 343h-44l-63 96h-40v-96h-36v243h99
q32 0 56.5 -21t24.5 -53q0 -35 -22.5 -53.5t-39.5 -18.5zM308 512q0 19 -13.5 31.5t-30.5 12.5h-63v-86h63q17 0 30.5 12t13.5 30z" />
    <glyph glyph-name="macron" unicode="&#xaf;" horiz-adv-x="363" 
d="M363 591h-363v85h363v-85z" />
    <glyph glyph-name="macron" unicode="&#x203e;" horiz-adv-x="363" 
d="M363 591h-363v85h363v-85z" />
    <glyph glyph-name="degree" unicode="&#xb0;" horiz-adv-x="321" 
d="M302 535q0 -59 -41.5 -100.5t-100.5 -41.5t-100 41.5t-41 100.5t41.5 100.5t99.5 41.5t100 -41.5t42 -100.5zM223 535q0 25 -18.5 44t-44.5 19q-25 0 -43 -18.5t-18 -44.5q0 -25 17.5 -43t43.5 -18t44.5 18t18.5 43z" />
    <glyph glyph-name="plusminus" unicode="&#xb1;" horiz-adv-x="507" 
d="M478 327h-174v-198h-101v198h-174v92h174v190h101v-190h174v-92zM478 0h-449v92h449v-92z" />
    <glyph glyph-name="twosuperior" unicode="&#xb2;" 
d="M370 421h-326v83q134 94 171.5 127.5t37.5 58.5q0 22 -16 34.5t-43 12.5q-32 0 -61.5 -15t-45.5 -34l-58 72q62 67 168 67q77 0 123.5 -34t46.5 -94q0 -43 -35.5 -85t-122.5 -103h161v-90z" />
    <glyph glyph-name="threesuperior" unicode="&#xb3;" 
d="M373 533q0 -53 -47.5 -86t-125.5 -33q-116 0 -172 63l54 74q46 -47 113 -47q31 0 48 10.5t17 26.5q0 23 -20.5 31t-60.5 8q-41 0 -47 -1v88q9 -1 46 -1q40 0 57.5 8t17.5 28q0 35 -65 35q-62 0 -104 -42l-51 67q60 65 167 65q80 0 123 -30t43 -80q0 -33 -25.5 -58.5
t-63.5 -31.5q37 -3 66.5 -28.5t29.5 -65.5z" />
    <glyph glyph-name="acute" unicode="&#xb4;" horiz-adv-x="263" 
d="M263 700l-159 -144h-104l127 144h136z" />
    <glyph glyph-name="mu" unicode="&#xb5;" horiz-adv-x="592" 
d="M210 -184h-154v667h154v-289q4 -70 80 -70q55 0 92 47v312h154v-483h-154v58q-62 -70 -167 -70h-5v-172z" />
    <glyph glyph-name="mu" unicode="&#x3bc;" horiz-adv-x="592" 
d="M210 -184h-154v667h154v-289q4 -70 80 -70q55 0 92 47v312h154v-483h-154v58q-62 -70 -167 -70h-5v-172z" />
    <glyph glyph-name="paragraph" unicode="&#xb6;" horiz-adv-x="449" 
d="M415 -100h-71v696h-74v-696h-71v423q-71 0 -121.5 50.5t-50.5 121.5t50.5 121.5t121.5 50.5h216v-767z" />
    <glyph glyph-name="periodcentered" unicode="&#xb7;" horiz-adv-x="270" 
d="M228 244q0 -38 -27.5 -65.5t-65.5 -27.5t-66 27.5t-28 65.5t28 66t66 28t65.5 -28t27.5 -66z" />
    <glyph glyph-name="periodcentered" unicode="&#x2219;" horiz-adv-x="270" 
d="M228 244q0 -38 -27.5 -65.5t-65.5 -27.5t-66 27.5t-28 65.5t28 66t66 28t65.5 -28t27.5 -66z" />
    <glyph glyph-name="cedilla" unicode="&#xb8;" horiz-adv-x="229" 
d="M114 -198q-73 0 -114 33l28 58q41 -30 82 -30q19 0 33 7.5t14 20.5q0 22 -25 22q-18 0 -29 -13l-52 30l30 81h71l-25 -60q17 10 34 10q28 0 48 -20.5t20 -51.5q0 -40 -33 -63.5t-82 -23.5z" />
    <glyph glyph-name="onesuperior" unicode="&#xb9;" horiz-adv-x="311" 
d="M251 421h-114v255l-69 -69l-64 68l149 146h98v-400z" />
    <glyph glyph-name="ordmasculine" unicode="&#xba;" horiz-adv-x="405" 
d="M202 318q-80 0 -128.5 48t-48.5 117t48.5 117t128.5 48q81 0 129.5 -48t48.5 -117t-48.5 -117t-129.5 -48zM202 405q31 0 48.5 20.5t17.5 57.5t-17.5 56.5t-48.5 19.5q-64 0 -64 -76q0 -37 17 -57.5t47 -20.5z" />
    <glyph glyph-name="guillemotright" unicode="&#xbb;" horiz-adv-x="571" 
d="M329 243l-160 -180h-139l160 180l-160 177h139zM541 243l-160 -180h-139l160 180l-160 177h139z" />
    <glyph glyph-name="onequarter" unicode="&#xbc;" horiz-adv-x="865" 
d="M667 667l-428 -667h-86l426 667h88zM847 78h-50v-78h-113v78h-197v77l150 245h160v-233h50v-89zM684 167v138l-85 -138h85zM251 267h-114v255l-69 -69l-64 68l149 146h98v-400z" />
    <glyph glyph-name="onehalf" unicode="&#xbd;" horiz-adv-x="897" 
d="M667 667l-428 -667h-86l426 667h88zM865 0h-326v83q134 94 171.5 127.5t37.5 58.5q0 22 -16 34.5t-43 12.5q-31 0 -61 -15t-46 -34l-58 72q62 67 168 67q77 0 123.5 -34t46.5 -94q0 -43 -35.5 -85t-122.5 -103h161v-90zM251 267h-114v255l-69 -69l-64 68l149 146h98v-400
z" />
    <glyph glyph-name="threequarters" unicode="&#xbe;" horiz-adv-x="942" 
d="M744 667l-428 -667h-86l426 667h88zM924 78h-50v-78h-113v78h-197v77l150 245h160v-233h50v-89zM761 167v138l-85 -138h85zM373 379q0 -53 -47.5 -86t-125.5 -33q-116 0 -172 63l54 74q46 -47 113 -47q31 0 48 10.5t17 26.5q0 23 -20.5 31t-60.5 8q-41 0 -47 -1v88
q9 -1 46 -1q40 0 57.5 8t17.5 28q0 35 -65 35q-62 0 -104 -42l-51 67q60 65 167 65q80 0 123 -30t43 -80q0 -33 -25.5 -58.5t-63.5 -31.5q37 -3 66.5 -28.5t29.5 -65.5z" />
    <glyph glyph-name="questiondown" unicode="&#xbf;" horiz-adv-x="399" 
d="M287 268q30 -35 30 -91q0 -32 -13.5 -57.5t-32.5 -41.5t-37.5 -29t-32 -26.5t-13.5 -26.5q0 -38 59 -38t105 51l96 -110q-40 -46 -98.5 -70t-121.5 -24q-98 0 -156 44t-58 116q0 40 16 71.5t38.5 50.5t45.5 35t39 34t16 39q0 25 -15 40zM226 494q38 0 66 -28t28 -66
t-28 -65.5t-66 -27.5t-66 27.5t-28 65.5t28 66t66 28z" />
    <glyph glyph-name="Agrave" unicode="&#xc0;" horiz-adv-x="697" 
d="M440 728h-104l-159 144h136zM708 0h-195l-33 96h-263l-33 -96h-195l251 667h217zM433 246l-84 251l-85 -251h169z" />
    <glyph glyph-name="Aacute" unicode="&#xc1;" horiz-adv-x="697" 
d="M523 872l-159 -144h-104l127 144h136zM708 0h-195l-33 96h-263l-33 -96h-195l251 667h217zM433 246l-84 251l-85 -251h169z" />
    <glyph glyph-name="Acircumflex" unicode="&#xc2;" horiz-adv-x="697" 
d="M509 728h-92l-69 81l-65 -81h-92l90 144h135zM708 0h-195l-33 96h-263l-33 -96h-195l251 667h217zM433 246l-84 251l-85 -251h169z" />
    <glyph glyph-name="Atilde" unicode="&#xc3;" horiz-adv-x="697" 
d="M403 726q-28 0 -49 14t-36.5 27.5t-27.5 13.5q-30 0 -30 -49h-78q0 134 113 134q28 0 49 -14t36.5 -27.5t27.5 -13.5q30 0 30 49h78q0 -134 -113 -134zM708 0h-195l-33 96h-263l-33 -96h-195l251 667h217zM433 246l-84 251l-85 -251h169z" />
    <glyph glyph-name="Adieresis" unicode="&#xc4;" horiz-adv-x="697" 
d="M534 790q0 -33 -23 -56t-56 -23q-32 0 -55 23t-23 56q0 32 23 55t55 23q33 0 56 -23t23 -55zM320 790q0 -33 -23 -56t-56 -23q-32 0 -55 23t-23 56q0 32 23 55t55 23q33 0 56 -23t23 -55zM708 0h-195l-33 96h-263l-33 -96h-195l251 667h217zM433 246l-84 251l-85 -251
h169z" />
    <glyph glyph-name="Aring" unicode="&#xc5;" horiz-adv-x="697" 
d="M350 693q-45 0 -77 32.5t-32 76.5t32 76.5t77 32.5q44 0 75.5 -32.5t31.5 -76.5t-31.5 -76.5t-75.5 -32.5zM350 761q16 0 28 12t12 29t-12 29t-28 12q-17 0 -29 -12t-12 -29t12 -29t29 -12zM708 0h-195l-33 96h-263l-33 -96h-195l251 667h217zM433 246l-84 251l-85 -251
h169z" />
    <glyph glyph-name="AE" unicode="&#xc6;" horiz-adv-x="979" 
d="M943 0h-489v96h-221l-54 -96h-196l400 667h560v-150h-317v-104h310v-150h-310v-113h317v-150zM454 246v251l-141 -251h141z" />
    <glyph glyph-name="Ccedilla" unicode="&#xc7;" horiz-adv-x="692" 
d="M381 -194q-73 0 -114 33l28 58q41 -30 82 -30q19 0 33 7.5t14 20.5q0 22 -25 22q-18 0 -29 -13l-52 30l21 57q-138 15 -225.5 108.5t-87.5 233.5q0 153 102.5 249t258.5 96q111 0 182 -51t109 -127l-148 -71q-17 41 -56.5 69t-86.5 28q-81 0 -133.5 -55t-52.5 -138
q0 -82 52.5 -137.5t133.5 -55.5q47 0 86.5 28t56.5 69l148 -70q-23 -45 -55.5 -81t-89 -64.5t-125.5 -32.5l-14 -34q17 10 34 10q28 0 48 -20.5t20 -51.5q0 -40 -33 -63.5t-82 -23.5z" />
    <glyph glyph-name="Egrave" unicode="&#xc8;" horiz-adv-x="589" 
d="M395 728h-104l-159 144h136zM549 0h-489v667h489v-150h-317v-104h310v-150h-310v-113h317v-150z" />
    <glyph glyph-name="Eacute" unicode="&#xc9;" horiz-adv-x="589" 
d="M478 872l-159 -144h-104l127 144h136zM549 0h-489v667h489v-150h-317v-104h310v-150h-310v-113h317v-150z" />
    <glyph glyph-name="Ecircumflex" unicode="&#xca;" horiz-adv-x="589" 
d="M464 728h-92l-69 81l-65 -81h-92l90 144h135zM549 0h-489v667h489v-150h-317v-104h310v-150h-310v-113h317v-150z" />
    <glyph glyph-name="Edieresis" unicode="&#xcb;" horiz-adv-x="589" 
d="M492 790q0 -33 -23 -56t-56 -23q-32 0 -55 23t-23 56q0 32 23 55t55 23q33 0 56 -23t23 -55zM278 790q0 -33 -23 -56t-56 -23q-32 0 -55 23t-23 56q0 32 23 55t55 23q33 0 56 -23t23 -55zM549 0h-489v667h489v-150h-317v-104h310v-150h-310v-113h317v-150z" />
    <glyph glyph-name="Igrave" unicode="&#xcc;" horiz-adv-x="292" 
d="M235 728h-104l-159 144h136zM232 0h-172v667h172v-667z" />
    <glyph glyph-name="Iacute" unicode="&#xcd;" horiz-adv-x="292" 
d="M322 872l-159 -144h-104l127 144h136zM232 0h-172v667h172v-667z" />
    <glyph glyph-name="Icircumflex" unicode="&#xce;" horiz-adv-x="292" 
d="M304 728h-92l-69 81l-65 -81h-92l90 144h135zM232 0h-172v667h172v-667z" />
    <glyph glyph-name="Idieresis" unicode="&#xcf;" horiz-adv-x="292" 
d="M332 789q0 -33 -23 -56t-56 -23q-32 0 -55 23t-23 56q0 32 23 55t55 23q33 0 56 -23t23 -55zM118 789q0 -33 -23 -56t-56 -23q-32 0 -55 23t-23 56q0 32 23 55t55 23q33 0 56 -23t23 -55zM232 0h-172v667h172v-667z" />
    <glyph glyph-name="Eth" unicode="&#xd0;" horiz-adv-x="750" 
d="M364 0h-281v265h-75v132h75v270h280q160 0 260.5 -90t100.5 -243t-100.5 -243.5t-259.5 -90.5zM395 265h-140v-115h108q85 0 135 53.5t50 130.5q0 81 -48 132t-136 51h-109v-120h140v-132z" />
    <glyph glyph-name="Ntilde" unicode="&#xd1;" horiz-adv-x="740" 
d="M422 726q-28 0 -49 14t-36.5 27.5t-27.5 13.5q-30 0 -30 -49h-78q0 134 113 134q28 0 49 -14t36.5 -27.5t27.5 -13.5q30 0 30 49h78q0 -134 -113 -134zM680 0h-166l-282 386v-386h-172v667h177l270 -367v367h173v-667z" />
    <glyph glyph-name="Ograve" unicode="&#xd2;" horiz-adv-x="766" 
d="M476 728h-104l-159 144h136zM383 -12q-154 0 -255.5 97t-101.5 248t101.5 248t255.5 97t255 -97t101 -248t-101 -248t-255 -97zM383 140q81 0 131 55t50 138t-50 138t-131 55t-131.5 -55t-50.5 -138t50.5 -138t131.5 -55z" />
    <glyph glyph-name="Oacute" unicode="&#xd3;" horiz-adv-x="766" 
d="M558 872l-159 -144h-104l127 144h136zM383 -12q-154 0 -255.5 97t-101.5 248t101.5 248t255.5 97t255 -97t101 -248t-101 -248t-255 -97zM383 140q81 0 131 55t50 138t-50 138t-131 55t-131.5 -55t-50.5 -138t50.5 -138t131.5 -55z" />
    <glyph glyph-name="Ocircumflex" unicode="&#xd4;" horiz-adv-x="766" 
d="M545 728h-92l-69 81l-65 -81h-92l90 144h135zM383 -12q-154 0 -255.5 97t-101.5 248t101.5 248t255.5 97t255 -97t101 -248t-101 -248t-255 -97zM383 140q81 0 131 55t50 138t-50 138t-131 55t-131.5 -55t-50.5 -138t50.5 -138t131.5 -55z" />
    <glyph glyph-name="Otilde" unicode="&#xd5;" horiz-adv-x="766" 
d="M437 726q-28 0 -49 14t-36.5 27.5t-27.5 13.5q-30 0 -30 -49h-78q0 134 113 134q28 0 49 -14t36.5 -27.5t27.5 -13.5q30 0 30 49h78q0 -134 -113 -134zM383 -12q-154 0 -255.5 97t-101.5 248t101.5 248t255.5 97t255 -97t101 -248t-101 -248t-255 -97zM383 140
q81 0 131 55t50 138t-50 138t-131 55t-131.5 -55t-50.5 -138t50.5 -138t131.5 -55z" />
    <glyph glyph-name="Odieresis" unicode="&#xd6;" horiz-adv-x="766" 
d="M571 790q0 -33 -23 -56t-56 -23q-32 0 -55 23t-23 56q0 32 23 55t55 23q33 0 56 -23t23 -55zM357 790q0 -33 -23 -56t-56 -23q-32 0 -55 23t-23 56q0 32 23 55t55 23q33 0 56 -23t23 -55zM383 -12q-154 0 -255.5 97t-101.5 248t101.5 248t255.5 97t255 -97t101 -248
t-101 -248t-255 -97zM383 140q81 0 131 55t50 138t-50 138t-131 55t-131.5 -55t-50.5 -138t50.5 -138t131.5 -55z" />
    <glyph glyph-name="multiply" unicode="&#xd7;" horiz-adv-x="507" 
d="M391 132l-137 137l-137 -137l-66 64l138 138l-138 138l66 64l137 -137l137 137l65 -64l-137 -138l137 -138z" />
    <glyph glyph-name="Oslash" unicode="&#xd8;" horiz-adv-x="766" 
d="M383 -12q-106 0 -190 48l-29 -36h-120l75 93q-93 95 -93 240q0 151 101.5 248t255.5 97q97 0 175 -40l24 29h120l-67 -83q104 -98 104 -251q0 -151 -101 -248t-255 -97zM383 140q81 0 131 55t50 138q0 68 -35 119l-235 -290q41 -22 89 -22zM201 333q0 -60 26 -106
l229 284q-33 15 -73 15q-81 0 -131.5 -55t-50.5 -138z" />
    <glyph glyph-name="Ugrave" unicode="&#xd9;" horiz-adv-x="750" 
d="M468 728h-104l-159 144h136zM376 -12q-155 0 -235.5 77t-80.5 205v397h175v-391q0 -61 36.5 -98.5t104.5 -37.5q67 0 103.5 37.5t36.5 98.5v391h174v-396q0 -130 -79.5 -206.5t-234.5 -76.5z" />
    <glyph glyph-name="Uacute" unicode="&#xda;" horiz-adv-x="750" 
d="M551 872l-159 -144h-104l127 144h136zM376 -12q-155 0 -235.5 77t-80.5 205v397h175v-391q0 -61 36.5 -98.5t104.5 -37.5q67 0 103.5 37.5t36.5 98.5v391h174v-396q0 -130 -79.5 -206.5t-234.5 -76.5z" />
    <glyph glyph-name="Ucircumflex" unicode="&#xdb;" horiz-adv-x="750" 
d="M542 728h-92l-69 81l-65 -81h-92l90 144h135zM376 -12q-155 0 -235.5 77t-80.5 205v397h175v-391q0 -61 36.5 -98.5t104.5 -37.5q67 0 103.5 37.5t36.5 98.5v391h174v-396q0 -130 -79.5 -206.5t-234.5 -76.5z" />
    <glyph glyph-name="Udieresis" unicode="&#xdc;" horiz-adv-x="750" 
d="M564 790q0 -33 -23 -56t-56 -23q-32 0 -55 23t-23 56q0 32 23 55t55 23q33 0 56 -23t23 -55zM350 790q0 -33 -23 -56t-56 -23q-32 0 -55 23t-23 56q0 32 23 55t55 23q33 0 56 -23t23 -55zM376 -12q-155 0 -235.5 77t-80.5 205v397h175v-391q0 -61 36.5 -98.5t104.5 -37.5
q67 0 103.5 37.5t36.5 98.5v391h174v-396q0 -130 -79.5 -206.5t-234.5 -76.5z" />
    <glyph glyph-name="Yacute" unicode="&#xdd;" horiz-adv-x="655" 
d="M504 872l-159 -144h-104l127 144h136zM414 0h-172v269l-253 398h194l145 -246l143 246h195l-252 -398v-269z" />
    <glyph glyph-name="Thorn" unicode="&#xde;" horiz-adv-x="643" 
d="M232 0h-172v667h172v-102h162q108 0 170 -64t62 -159t-61.5 -157.5t-170.5 -62.5h-162v-122zM368 273q36 0 59.5 18.5t23.5 51.5t-23.5 52.5t-59.5 19.5h-136v-142h136z" />
    <glyph glyph-name="germandbls" unicode="&#xdf;" horiz-adv-x="665" 
d="M652 149q0 -72 -58 -116.5t-151 -44.5q-67 0 -112.5 20t-89.5 59l61 106q21 -26 61 -44.5t80 -18.5q61 0 61 34q0 15 -25.5 24t-62 16.5t-72.5 21t-61.5 47t-25.5 85.5q0 34 17.5 62.5t38.5 43.5t38.5 30t17.5 26q0 20 -19.5 30.5t-47.5 10.5q-41 0 -66 -20.5t-25 -57.5
v-463h-154v463q0 90 67 152t181 62q90 0 155.5 -42.5t65.5 -111.5q0 -31 -12.5 -56.5t-30.5 -41.5t-36 -29t-30.5 -26t-12.5 -26q0 -14 25.5 -21t62 -14t73 -20.5t62 -49t25.5 -90.5z" />
    <glyph glyph-name="agrave" unicode="&#xe0;" horiz-adv-x="551" 
d="M495 0h-154v48q-23 -27 -63.5 -43.5t-86.5 -16.5q-63 0 -114.5 42t-51.5 117q0 80 50 118t116 38q104 0 150 -57v48q0 32 -26 51.5t-72 19.5q-74 0 -135 -52l-57 107q88 75 219 75q46 0 84.5 -9.5t71 -30.5t51 -60t18.5 -93v-302zM255 89q62 0 86 35v43q-24 34 -86 34
q-32 0 -54.5 -14.5t-22.5 -41.5t22.5 -41.5t54.5 -14.5zM361 556h-104l-159 144h136z" />
    <glyph glyph-name="aacute" unicode="&#xe1;" horiz-adv-x="551" 
d="M495 0h-154v48q-23 -27 -63.5 -43.5t-86.5 -16.5q-63 0 -114.5 42t-51.5 117q0 80 50 118t116 38q104 0 150 -57v48q0 32 -26 51.5t-72 19.5q-74 0 -135 -52l-57 107q88 75 219 75q46 0 84.5 -9.5t71 -30.5t51 -60t18.5 -93v-302zM255 89q62 0 86 35v43q-24 34 -86 34
q-32 0 -54.5 -14.5t-22.5 -41.5t22.5 -41.5t54.5 -14.5zM450 700l-159 -144h-104l127 144h136z" />
    <glyph glyph-name="acircumflex" unicode="&#xe2;" horiz-adv-x="551" 
d="M495 0h-154v48q-23 -27 -63.5 -43.5t-86.5 -16.5q-63 0 -114.5 42t-51.5 117q0 80 50 118t116 38q104 0 150 -57v48q0 32 -26 51.5t-72 19.5q-74 0 -135 -52l-57 107q88 75 219 75q46 0 84.5 -9.5t71 -30.5t51 -60t18.5 -93v-302zM255 89q62 0 86 35v43q-24 34 -86 34
q-32 0 -54.5 -14.5t-22.5 -41.5t22.5 -41.5t54.5 -14.5zM435 556h-92l-69 81l-65 -81h-92l90 144h135z" />
    <glyph glyph-name="atilde" unicode="&#xe3;" horiz-adv-x="551" 
d="M495 0h-154v48q-23 -27 -63.5 -43.5t-86.5 -16.5q-63 0 -114.5 42t-51.5 117q0 80 50 118t116 38q104 0 150 -57v48q0 32 -26 51.5t-72 19.5q-74 0 -135 -52l-57 107q88 75 219 75q46 0 84.5 -9.5t71 -30.5t51 -60t18.5 -93v-302zM255 89q62 0 86 35v43q-24 34 -86 34
q-32 0 -54.5 -14.5t-22.5 -41.5t22.5 -41.5t54.5 -14.5zM327 554q-28 0 -49 14t-36.5 27.5t-27.5 13.5q-30 0 -30 -49h-78q0 134 113 134q28 0 49 -14t36.5 -27.5t27.5 -13.5q30 0 30 49h78q0 -134 -113 -134z" />
    <glyph glyph-name="adieresis" unicode="&#xe4;" horiz-adv-x="551" 
d="M495 0h-154v48q-23 -27 -63.5 -43.5t-86.5 -16.5q-63 0 -114.5 42t-51.5 117q0 80 50 118t116 38q104 0 150 -57v48q0 32 -26 51.5t-72 19.5q-74 0 -135 -52l-57 107q88 75 219 75q46 0 84.5 -9.5t71 -30.5t51 -60t18.5 -93v-302zM255 89q62 0 86 35v43q-24 34 -86 34
q-32 0 -54.5 -14.5t-22.5 -41.5t22.5 -41.5t54.5 -14.5zM457 615q0 -33 -23 -56t-56 -23q-32 0 -55 23t-23 56q0 32 23 55t55 23q33 0 56 -23t23 -55zM243 615q0 -33 -23 -56t-56 -23q-32 0 -55 23t-23 56q0 32 23 55t55 23q33 0 56 -23t23 -55z" />
    <glyph glyph-name="aring" unicode="&#xe5;" horiz-adv-x="551" 
d="M495 0h-154v48q-23 -27 -63.5 -43.5t-86.5 -16.5q-63 0 -114.5 42t-51.5 117q0 80 50 118t116 38q104 0 150 -57v48q0 32 -26 51.5t-72 19.5q-74 0 -135 -52l-57 107q88 75 219 75q46 0 84.5 -9.5t71 -30.5t51 -60t18.5 -93v-302zM255 89q62 0 86 35v43q-24 34 -86 34
q-32 0 -54.5 -14.5t-22.5 -41.5t22.5 -41.5t54.5 -14.5zM275 537q-45 0 -77 32.5t-32 76.5t32 76.5t77 32.5q44 0 75.5 -32.5t31.5 -76.5t-31.5 -76.5t-75.5 -32.5zM275 605q16 0 28 12t12 29t-12 29t-28 12q-17 0 -29 -12t-12 -29t12 -29t29 -12z" />
    <glyph glyph-name="ae" unicode="&#xe6;" horiz-adv-x="860" 
d="M840 191h-344q9 -34 40.5 -54.5t81.5 -20.5q27 0 62.5 11.5t54.5 28.5l68 -104q-35 -31 -90 -47.5t-113 -16.5q-59 0 -112 21.5t-87 59.5q-33 -36 -85 -58.5t-111 -22.5q-73 0 -126.5 40.5t-53.5 116.5t48 117t118 41q101 0 150 -55v47q0 31 -26 50.5t-72 19.5
q-75 0 -135 -52l-57 107q88 75 219 75q116 0 166 -65q60 65 166 65q103 0 170.5 -74t67.5 -195v-35zM495 296h198q-4 31 -27.5 53t-71.5 22q-46 0 -70.5 -22t-28.5 -53zM348 132q-7 16 -7 34q-24 35 -86 35q-32 0 -54.5 -15t-22.5 -41q0 -27 22.5 -41.5t54.5 -14.5
q67 0 93 43z" />
    <glyph glyph-name="ccedilla" unicode="&#xe7;" horiz-adv-x="500" 
d="M292 -196q-73 0 -114 33l28 58q41 -30 82 -30q19 0 33 7.5t14 20.5q0 22 -25 22q-18 0 -29 -13l-52 30l21 58q-99 11 -162 80.5t-63 171.5q0 112 74.5 182.5t188.5 70.5q72 0 122.5 -26t75.5 -63l-100 -93q-31 46 -91 46q-49 0 -81 -31.5t-32 -85.5t32 -86t81 -32
q58 0 91 47l100 -94q-52 -76 -166 -87l-15 -37q17 10 34 10q28 0 48 -20.5t20 -51.5q0 -40 -33 -63.5t-82 -23.5z" />
    <glyph glyph-name="egrave" unicode="&#xe8;" horiz-adv-x="548" 
d="M288 -12q-114 0 -188.5 69.5t-74.5 184.5q0 107 72 180t184 73q109 0 178 -73.5t69 -195.5v-35h-344q9 -35 40 -57t81 -22q28 0 63 11.5t55 29.5l67 -101q-35 -31 -89.5 -47.5t-112.5 -16.5zM381 296q-4 30 -28 52.5t-72 22.5q-46 0 -70 -22t-29 -53h199zM371 556h-104
l-159 144h136z" />
    <glyph glyph-name="eacute" unicode="&#xe9;" horiz-adv-x="548" 
d="M288 -12q-114 0 -188.5 69.5t-74.5 184.5q0 107 72 180t184 73q109 0 178 -73.5t69 -195.5v-35h-344q9 -35 40 -57t81 -22q28 0 63 11.5t55 29.5l67 -101q-35 -31 -89.5 -47.5t-112.5 -16.5zM381 296q-4 30 -28 52.5t-72 22.5q-46 0 -70 -22t-29 -53h199zM457 700
l-159 -144h-104l127 144h136z" />
    <glyph glyph-name="ecircumflex" unicode="&#xea;" horiz-adv-x="548" 
d="M288 -12q-114 0 -188.5 69.5t-74.5 184.5q0 107 72 180t184 73q109 0 178 -73.5t69 -195.5v-35h-344q9 -35 40 -57t81 -22q28 0 63 11.5t55 29.5l67 -101q-35 -31 -89.5 -47.5t-112.5 -16.5zM381 296q-4 30 -28 52.5t-72 22.5q-46 0 -70 -22t-29 -53h199zM441 556h-92
l-69 81l-65 -81h-92l90 144h135z" />
    <glyph glyph-name="edieresis" unicode="&#xeb;" horiz-adv-x="548" 
d="M288 -12q-114 0 -188.5 69.5t-74.5 184.5q0 107 72 180t184 73q109 0 178 -73.5t69 -195.5v-35h-344q9 -35 40 -57t81 -22q28 0 63 11.5t55 29.5l67 -101q-35 -31 -89.5 -47.5t-112.5 -16.5zM381 296q-4 30 -28 52.5t-72 22.5q-46 0 -70 -22t-29 -53h199zM468 615
q0 -33 -23 -56t-56 -23q-32 0 -55 23t-23 56q0 32 23 55t55 23q33 0 56 -23t23 -55zM254 615q0 -33 -23 -56t-56 -23q-32 0 -55 23t-23 56q0 32 23 55t55 23q33 0 56 -23t23 -55z" />
    <glyph glyph-name="igrave" unicode="&#xec;" horiz-adv-x="266" 
d="M223 556h-104l-159 144h136zM210 0h-154v483h154v-483z" />
    <glyph glyph-name="iacute" unicode="&#xed;" horiz-adv-x="266" 
d="M307 700l-159 -144h-104l127 144h136zM210 0h-154v483h154v-483z" />
    <glyph glyph-name="icircumflex" unicode="&#xee;" horiz-adv-x="266" 
d="M293 556h-92l-69 81l-65 -81h-92l90 144h135zM210 0h-154v483h154v-483z" />
    <glyph glyph-name="idieresis" unicode="&#xef;" horiz-adv-x="266" 
d="M319 615q0 -33 -23 -56t-56 -23q-32 0 -55 23t-23 56q0 32 23 55t55 23q33 0 56 -23t23 -55zM105 615q0 -33 -23 -56t-56 -23q-32 0 -55 23t-23 56q0 32 23 55t55 23q33 0 56 -23t23 -55zM210 0h-154v483h154v-483z" />
    <glyph glyph-name="eth" unicode="&#xf0;" horiz-adv-x="576" 
d="M93 454l-28 69l103 45l-55 33l83 122q78 -48 129 -86l100 44l29 -66l-67 -30q164 -149 164 -330q0 -121 -70.5 -194t-193.5 -73q-118 0 -190 64.5t-72 167.5q0 101 60.5 165.5t150.5 64.5q104 0 160 -94q-28 73 -155 164zM287 124q50 0 78 27t28 69q0 41 -28.5 68
t-77.5 27q-48 0 -76 -27t-28 -68q0 -42 28 -69t76 -27z" />
    <glyph glyph-name="ntilde" unicode="&#xf1;" horiz-adv-x="593" 
d="M545 0h-154v279q0 80 -79 80q-56 0 -94 -47v-312h-154v483h154v-59q61 71 168 71q79 0 119 -41.5t40 -111.5v-342zM352 554q-28 0 -49 14t-36.5 27.5t-27.5 13.5q-30 0 -30 -49h-78q0 134 113 134q28 0 49 -14t36.5 -27.5t27.5 -13.5q30 0 30 49h78q0 -134 -113 -134z
" />
    <glyph glyph-name="ograve" unicode="&#xf2;" horiz-adv-x="576" 
d="M287 -12q-119 0 -190.5 74t-71.5 180t71.5 179.5t190.5 73.5q120 0 192 -73.5t72 -179.5t-72 -180t-192 -74zM287 124q49 0 77.5 33.5t28.5 84.5q0 50 -28.5 83.5t-77.5 33.5q-48 0 -76 -33.5t-28 -83.5q0 -51 28 -84.5t76 -33.5zM378 556h-104l-159 144h136z" />
    <glyph glyph-name="oacute" unicode="&#xf3;" horiz-adv-x="576" 
d="M287 -12q-119 0 -190.5 74t-71.5 180t71.5 179.5t190.5 73.5q120 0 192 -73.5t72 -179.5t-72 -180t-192 -74zM287 124q49 0 77.5 33.5t28.5 84.5q0 50 -28.5 83.5t-77.5 33.5q-48 0 -76 -33.5t-28 -83.5q0 -51 28 -84.5t76 -33.5zM461 700l-159 -144h-104l127 144h136z
" />
    <glyph glyph-name="ocircumflex" unicode="&#xf4;" horiz-adv-x="576" 
d="M287 -12q-119 0 -190.5 74t-71.5 180t71.5 179.5t190.5 73.5q120 0 192 -73.5t72 -179.5t-72 -180t-192 -74zM287 124q49 0 77.5 33.5t28.5 84.5q0 50 -28.5 83.5t-77.5 33.5q-48 0 -76 -33.5t-28 -83.5q0 -51 28 -84.5t76 -33.5zM448 556h-92l-69 81l-65 -81h-92l90 144
h135z" />
    <glyph glyph-name="otilde" unicode="&#xf5;" horiz-adv-x="576" 
d="M287 -12q-119 0 -190.5 74t-71.5 180t71.5 179.5t190.5 73.5q120 0 192 -73.5t72 -179.5t-72 -180t-192 -74zM287 124q49 0 77.5 33.5t28.5 84.5q0 50 -28.5 83.5t-77.5 33.5q-48 0 -76 -33.5t-28 -83.5q0 -51 28 -84.5t76 -33.5zM342 554q-28 0 -49 14t-36.5 27.5
t-27.5 13.5q-30 0 -30 -49h-78q0 134 113 134q28 0 49 -14t36.5 -27.5t27.5 -13.5q30 0 30 49h78q0 -134 -113 -134z" />
    <glyph glyph-name="odieresis" unicode="&#xf6;" horiz-adv-x="576" 
d="M287 -12q-119 0 -190.5 74t-71.5 180t71.5 179.5t190.5 73.5q120 0 192 -73.5t72 -179.5t-72 -180t-192 -74zM287 124q49 0 77.5 33.5t28.5 84.5q0 50 -28.5 83.5t-77.5 33.5q-48 0 -76 -33.5t-28 -83.5q0 -51 28 -84.5t76 -33.5zM473 615q0 -33 -23 -56t-56 -23
q-32 0 -55 23t-23 56q0 32 23 55t55 23q33 0 56 -23t23 -55zM259 615q0 -33 -23 -56t-56 -23q-32 0 -55 23t-23 56q0 32 23 55t55 23q33 0 56 -23t23 -55z" />
    <glyph glyph-name="divide" unicode="&#xf7;" horiz-adv-x="511" 
d="M324 510q0 -28 -20.5 -48.5t-48.5 -20.5t-48 20.5t-20 48.5t19.5 48t48.5 20t49 -20t20 -48zM482 291h-453v92h453v-92zM324 164q0 -28 -20 -48.5t-49 -20.5q-28 0 -48 20t-20 49q0 28 20 48t48 20t48.5 -20t20.5 -48z" />
    <glyph glyph-name="oslash" unicode="&#xf8;" horiz-adv-x="576" 
d="M119 0h-90l60 69q-64 70 -64 173q0 106 71.5 179.5t190.5 73.5q81 0 144 -37l22 25h92l-60 -68q66 -71 66 -173q0 -106 -72 -180t-192 -74q-83 0 -145 38zM287 124q49 0 77.5 33.5t28.5 84.5q0 29 -11 56l-144 -163q22 -11 49 -11zM183 242q0 -32 10 -55l142 161
q-22 11 -48 11q-48 0 -76 -33.5t-28 -83.5z" />
    <glyph glyph-name="ugrave" unicode="&#xf9;" horiz-adv-x="592" 
d="M536 0h-154v58q-62 -70 -167 -70q-79 0 -119 41t-40 110v344h154v-280q0 -79 80 -79q55 0 92 47v312h154v-483zM388 556h-104l-159 144h136z" />
    <glyph glyph-name="uacute" unicode="&#xfa;" horiz-adv-x="592" 
d="M536 0h-154v58q-62 -70 -167 -70q-79 0 -119 41t-40 110v344h154v-280q0 -79 80 -79q55 0 92 47v312h154v-483zM471 700l-159 -144h-104l127 144h136z" />
    <glyph glyph-name="ucircumflex" unicode="&#xfb;" horiz-adv-x="592" 
d="M536 0h-154v58q-62 -70 -167 -70q-79 0 -119 41t-40 110v344h154v-280q0 -79 80 -79q55 0 92 47v312h154v-483zM457 556h-92l-69 81l-65 -81h-92l90 144h135z" />
    <glyph glyph-name="udieresis" unicode="&#xfc;" horiz-adv-x="592" 
d="M536 0h-154v58q-62 -70 -167 -70q-79 0 -119 41t-40 110v344h154v-280q0 -79 80 -79q55 0 92 47v312h154v-483zM484 615q0 -33 -23 -56t-56 -23q-32 0 -55 23t-23 56q0 32 23 55t55 23q33 0 56 -23t23 -55zM270 615q0 -33 -23 -56t-56 -23q-32 0 -55 23t-23 56
q0 32 23 55t55 23q33 0 56 -23t23 -55z" />
    <glyph glyph-name="yacute" unicode="&#xfd;" horiz-adv-x="524" 
d="M46 -188l22 137q16 -9 38 -9q54 0 66 27l11 26l-193 490h162l110 -306l109 306h163l-218 -552q-28 -70 -78 -97.5t-126 -29.5q-40 0 -66 8zM435 700l-159 -144h-104l127 144h136z" />
    <glyph glyph-name="thorn" unicode="&#xfe;" horiz-adv-x="589" 
d="M353 -12q-85 0 -143 69v-241h-154v851h154v-240q56 68 143 68q94 0 153 -67t59 -186q0 -120 -59 -187t-153 -67zM302 124q46 0 76 32t30 86q0 53 -30 85t-76 32q-25 0 -51.5 -12.5t-40.5 -31.5v-147q14 -19 40.5 -31.5t51.5 -12.5z" />
    <glyph glyph-name="ydieresis" unicode="&#xff;" horiz-adv-x="524" 
d="M46 -188l22 137q16 -9 38 -9q54 0 66 27l11 26l-193 490h162l110 -306l109 306h163l-218 -552q-28 -71 -77.5 -98t-126.5 -29q-40 0 -66 8zM447 615q0 -33 -23 -56t-56 -23q-32 0 -55 23t-23 56q0 32 23 55t55 23q33 0 56 -23t23 -55zM233 615q0 -33 -23 -56t-56 -23
q-32 0 -55 23t-23 56q0 32 23 55t55 23q33 0 56 -23t23 -55z" />
    <glyph glyph-name="Amacron" unicode="&#x100;" horiz-adv-x="697" 
d="M708 0h-195l-33 96h-263l-33 -96h-195l251 667h217zM433 246l-84 251l-85 -251h169zM530 746h-363v85h363v-85z" />
    <glyph glyph-name="amacron" unicode="&#x101;" horiz-adv-x="551" 
d="M495 0h-154v48q-23 -27 -63.5 -43.5t-86.5 -16.5q-63 0 -114.5 42t-51.5 117q0 80 50 118t116 38q104 0 150 -57v48q0 32 -26 51.5t-72 19.5q-74 0 -135 -52l-57 107q88 75 219 75q46 0 84.5 -9.5t71 -30.5t51 -60t18.5 -93v-302zM255 89q62 0 86 35v43q-24 34 -86 34
q-32 0 -54.5 -14.5t-22.5 -41.5t22.5 -41.5t54.5 -14.5zM454 573h-363v85h363v-85z" />
    <glyph glyph-name="Abreve" unicode="&#x102;" horiz-adv-x="697" 
d="M708 0h-195l-33 96h-263l-33 -96h-195l251 667h217zM433 246l-84 251l-85 -251h169zM524 800q-65 -88 -175 -88q-109 0 -176 88l66 54q43 -58 110 -58q69 0 110 58z" />
    <glyph glyph-name="abreve" unicode="&#x103;" horiz-adv-x="551" 
d="M495 0h-154v48q-23 -27 -63.5 -43.5t-86.5 -16.5q-63 0 -114.5 42t-51.5 117q0 80 50 118t116 38q104 0 150 -57v48q0 32 -26 51.5t-72 19.5q-74 0 -135 -52l-57 107q88 75 219 75q46 0 84.5 -9.5t71 -30.5t51 -60t18.5 -93v-302zM255 89q62 0 86 35v43q-24 34 -86 34
q-32 0 -54.5 -14.5t-22.5 -41.5t22.5 -41.5t54.5 -14.5zM448 641q-65 -88 -175 -88q-109 0 -176 88l66 54q43 -58 110 -58q69 0 110 58z" />
    <glyph glyph-name="Aogonek" unicode="&#x104;" horiz-adv-x="697" 
d="M712 -94l59 -37q-33 -55 -98 -55q-45 0 -75 23t-30 69q0 55 42 94h-97l-33 96h-263l-33 -96h-195l251 667h217l251 -667q-68 -35 -68 -87q0 -38 33 -38q27 0 39 31zM433 246l-84 251l-85 -251h169z" />
    <glyph glyph-name="aogonek" unicode="&#x105;" horiz-adv-x="551" 
d="M499 -94l59 -37q-33 -55 -98 -55q-45 0 -75 23t-30 69q0 55 42 94h-56v48q-23 -27 -63.5 -43.5t-86.5 -16.5q-63 0 -114.5 42t-51.5 117q0 80 50 118t116 38q104 0 150 -57v48q0 32 -26 51.5t-72 19.5q-74 0 -135 -52l-57 107q88 75 219 75q46 0 84.5 -9.5t71 -30.5
t51 -60t18.5 -93v-302q-68 -35 -68 -87q0 -38 33 -38q27 0 39 31zM255 89q62 0 86 35v43q-24 34 -86 34q-32 0 -54.5 -14.5t-22.5 -41.5t22.5 -41.5t54.5 -14.5z" />
    <glyph glyph-name="Cacute" unicode="&#x106;" horiz-adv-x="692" 
d="M387 -12q-155 0 -258 96.5t-103 248.5q0 153 102.5 249t258.5 96q111 0 182 -51t109 -127l-148 -71q-17 41 -56.5 69t-86.5 28q-81 0 -133.5 -55t-52.5 -138q0 -82 52.5 -137.5t133.5 -55.5q47 0 86.5 28t56.5 69l148 -70q-38 -76 -109.5 -127.5t-181.5 -51.5zM560 872
l-159 -144h-104l127 144h136z" />
    <glyph glyph-name="cacute" unicode="&#x107;" horiz-adv-x="500" 
d="M288 -12q-114 0 -188.5 71t-74.5 183t74.5 182.5t188.5 70.5q72 0 122.5 -26t75.5 -63l-100 -93q-31 46 -91 46q-49 0 -81 -31.5t-32 -85.5t32 -86t81 -32q58 0 91 47l100 -94q-25 -37 -75.5 -63t-122.5 -26zM470 700l-159 -144h-104l127 144h136z" />
    <glyph glyph-name="Ccircumflex" unicode="&#x108;" horiz-adv-x="692" 
d="M387 -12q-155 0 -258 96.5t-103 248.5q0 153 102.5 249t258.5 96q111 0 182 -51t109 -127l-148 -71q-17 41 -56.5 69t-86.5 28q-81 0 -133.5 -55t-52.5 -138q0 -82 52.5 -137.5t133.5 -55.5q47 0 86.5 28t56.5 69l148 -70q-38 -76 -109.5 -127.5t-181.5 -51.5zM545 728
h-92l-69 81l-65 -81h-92l90 144h135z" />
    <glyph glyph-name="ccircumflex" unicode="&#x109;" horiz-adv-x="500" 
d="M288 -12q-114 0 -188.5 71t-74.5 183t74.5 182.5t188.5 70.5q72 0 122.5 -26t75.5 -63l-100 -93q-31 46 -91 46q-49 0 -81 -31.5t-32 -85.5t32 -86t81 -32q58 0 91 47l100 -94q-25 -37 -75.5 -63t-122.5 -26zM456 556h-92l-69 81l-65 -81h-92l90 144h135z" />
    <glyph glyph-name="Cdotaccent" unicode="&#x10a;" horiz-adv-x="692" 
d="M387 -12q-155 0 -258 96.5t-103 248.5q0 153 102.5 249t258.5 96q111 0 182 -51t109 -127l-148 -71q-17 41 -56.5 69t-86.5 28q-81 0 -133.5 -55t-52.5 -138q0 -82 52.5 -137.5t133.5 -55.5q47 0 86.5 28t56.5 69l148 -70q-38 -76 -109.5 -127.5t-181.5 -51.5zM389 712
q-32 0 -55 23t-23 55t23 55.5t55 23.5t55 -23.5t23 -55.5t-23 -55t-55 -23z" />
    <glyph glyph-name="cdotaccent" unicode="&#x10b;" horiz-adv-x="500" 
d="M288 -12q-114 0 -188.5 71t-74.5 183t74.5 182.5t188.5 70.5q72 0 122.5 -26t75.5 -63l-100 -93q-31 46 -91 46q-49 0 -81 -31.5t-32 -85.5t32 -86t81 -32q58 0 91 47l100 -94q-25 -37 -75.5 -63t-122.5 -26zM287 541q-32 0 -55 23t-23 55t23 55.5t55 23.5t55 -23.5
t23 -55.5t-23 -55t-55 -23z" />
    <glyph glyph-name="Ccaron" unicode="&#x10c;" horiz-adv-x="692" 
d="M387 -12q-155 0 -258 96.5t-103 248.5q0 153 102.5 249t258.5 96q111 0 182 -51t109 -127l-148 -71q-17 41 -56.5 69t-86.5 28q-81 0 -133.5 -55t-52.5 -138q0 -82 52.5 -137.5t133.5 -55.5q47 0 86.5 28t56.5 69l148 -70q-38 -76 -109.5 -127.5t-181.5 -51.5zM455 728
h-135l-93 144h92l68 -81l66 81h92z" />
    <glyph glyph-name="ccaron" unicode="&#x10d;" horiz-adv-x="500" 
d="M288 -12q-114 0 -188.5 71t-74.5 183t74.5 182.5t188.5 70.5q72 0 122.5 -26t75.5 -63l-100 -93q-31 46 -91 46q-49 0 -81 -31.5t-32 -85.5t32 -86t81 -32q58 0 91 47l100 -94q-25 -37 -75.5 -63t-122.5 -26zM366 556h-135l-93 144h92l68 -81l66 81h92z" />
    <glyph glyph-name="Dcaron" unicode="&#x10e;" horiz-adv-x="727" 
d="M341 0h-281v667h280q160 0 260.5 -90t100.5 -243t-100.5 -243.5t-259.5 -90.5zM340 150q85 0 135 53.5t50 130.5q0 81 -48 132t-136 51h-109v-367h108zM437 728h-135l-93 144h92l68 -81l66 81h92z" />
    <glyph glyph-name="dcaron" unicode="&#x10f;" horiz-adv-x="713" 
d="M534 0h-153v56q-59 -68 -143 -68q-93 0 -153 67.5t-60 186.5q0 116 60 184.5t153 68.5q88 0 143 -69v241h153v-667zM288 124q25 0 51.5 12.5t41.5 31.5v148q-15 19 -41.5 31t-51.5 12q-47 0 -76.5 -32t-29.5 -85t30 -85.5t76 -32.5zM718 590q0 -94 -88 -157l-49 39
q20 11 40 33.5t25 43.5q-3 -3 -17 -3q-25 0 -42 17.5t-17 45.5q0 29 20.5 50t49.5 21q32 0 55 -24.5t23 -65.5z" />
    <glyph glyph-name="Dcroat" unicode="&#x110;" horiz-adv-x="750" 
d="M364 0h-281v265h-75v132h75v270h280q160 0 260.5 -90t100.5 -243t-100.5 -243.5t-259.5 -90.5zM395 265h-140v-115h108q85 0 135 53.5t50 130.5q0 81 -48 132t-136 51h-109v-120h140v-132z" />
    <glyph glyph-name="dcroat" unicode="&#x111;" horiz-adv-x="596" 
d="M534 0h-153v56q-59 -68 -143 -68q-93 0 -153 67.5t-60 186.5q0 116 60 184.5t153 68.5q88 0 143 -69v98h-140v85h140v58h153v-58h54v-85h-54v-524zM288 124q25 0 51.5 12.5t41.5 31.5v148q-15 19 -41.5 31t-51.5 12q-47 0 -76.5 -32t-29.5 -85t30 -85.5t76 -32.5z" />
    <glyph glyph-name="Emacron" unicode="&#x112;" horiz-adv-x="589" 
d="M549 0h-489v667h489v-150h-317v-104h310v-150h-310v-113h317v-150zM483 746h-363v85h363v-85z" />
    <glyph glyph-name="emacron" unicode="&#x113;" horiz-adv-x="548" 
d="M288 -12q-114 0 -188.5 69.5t-74.5 184.5q0 107 72 180t184 73q109 0 178 -73.5t69 -195.5v-35h-344q9 -35 40 -57t81 -22q28 0 63 11.5t55 29.5l67 -101q-35 -31 -89.5 -47.5t-112.5 -16.5zM381 296q-4 30 -28 52.5t-72 22.5q-46 0 -70 -22t-29 -53h199zM457 573h-363
v85h363v-85z" />
    <glyph glyph-name="Ebreve" unicode="&#x114;" horiz-adv-x="589" 
d="M549 0h-489v667h489v-150h-317v-104h310v-150h-310v-113h317v-150zM476 800q-65 -88 -175 -88q-109 0 -176 88l66 54q43 -58 110 -58q69 0 110 58z" />
    <glyph glyph-name="ebreve" unicode="&#x115;" horiz-adv-x="548" 
d="M288 -12q-114 0 -188.5 69.5t-74.5 184.5q0 107 72 180t184 73q109 0 178 -73.5t69 -195.5v-35h-344q9 -35 40 -57t81 -22q28 0 63 11.5t55 29.5l67 -101q-35 -31 -89.5 -47.5t-112.5 -16.5zM381 296q-4 30 -28 52.5t-72 22.5q-46 0 -70 -22t-29 -53h199zM458 641
q-65 -88 -175 -88q-109 0 -176 88l66 54q43 -58 110 -58q69 0 110 58z" />
    <glyph glyph-name="Edotaccent" unicode="&#x116;" horiz-adv-x="589" 
d="M549 0h-489v667h489v-150h-317v-104h310v-150h-310v-113h317v-150zM305 712q-32 0 -55 23t-23 55t23 55.5t55 23.5t55 -23.5t23 -55.5t-23 -55t-55 -23z" />
    <glyph glyph-name="edotaccent" unicode="&#x117;" horiz-adv-x="548" 
d="M288 -12q-114 0 -188.5 69.5t-74.5 184.5q0 107 72 180t184 73q109 0 178 -73.5t69 -195.5v-35h-344q9 -35 40 -57t81 -22q28 0 63 11.5t55 29.5l67 -101q-35 -31 -89.5 -47.5t-112.5 -16.5zM381 296q-4 30 -28 52.5t-72 22.5q-46 0 -70 -22t-29 -53h199zM283 541
q-32 0 -55 23t-23 55t23 55.5t55 23.5t55 -23.5t23 -55.5t-23 -55t-55 -23z" />
    <glyph glyph-name="Eogonek" unicode="&#x118;" horiz-adv-x="589" 
d="M553 -94l59 -37q-33 -55 -98 -55q-45 0 -75 23t-30 69q0 55 42 94h-391v667h489v-150h-317v-104h310v-150h-310v-113h317v-150q-68 -35 -68 -87q0 -38 33 -38q27 0 39 31z" />
    <glyph glyph-name="eogonek" unicode="&#x119;" horiz-adv-x="548" 
d="M388 -94l59 -37q-33 -55 -98 -55q-45 0 -75 23t-30 69q0 45 31 82q-110 5 -180 73.5t-70 180.5q0 107 72 180t184 73q109 0 178 -73.5t69 -195.5v-35h-344q9 -35 40 -57t81 -22q28 0 63 11.5t55 29.5l67 -101q-40 -36 -106 -52q-68 -35 -68 -87q0 -38 33 -38q27 0 39 31z
M381 296q-4 30 -28 52.5t-72 22.5q-46 0 -70 -22t-29 -53h199z" />
    <glyph glyph-name="Ecaron" unicode="&#x11a;" horiz-adv-x="589" 
d="M549 0h-489v667h489v-150h-317v-104h310v-150h-310v-113h317v-150zM374 728h-135l-93 144h92l68 -81l66 81h92z" />
    <glyph glyph-name="ecaron" unicode="&#x11b;" horiz-adv-x="548" 
d="M288 -12q-114 0 -188.5 69.5t-74.5 184.5q0 107 72 180t184 73q109 0 178 -73.5t69 -195.5v-35h-344q9 -35 40 -57t81 -22q28 0 63 11.5t55 29.5l67 -101q-35 -31 -89.5 -47.5t-112.5 -16.5zM381 296q-4 30 -28 52.5t-72 22.5q-46 0 -70 -22t-29 -53h199zM349 556h-135
l-93 144h92l68 -81l66 81h92z" />
    <glyph glyph-name="Gcircumflex" unicode="&#x11c;" horiz-adv-x="723" 
d="M387 -12q-153 0 -257 95t-104 250t104 250t257 95q104 0 175 -46t110 -116l-144 -75q-20 36 -57.5 60.5t-83.5 24.5q-81 0 -133.5 -55t-52.5 -138q0 -82 52.5 -137.5t133.5 -55.5q35 0 69.5 12t53.5 28v52h-150v151h322v-265q-117 -130 -295 -130zM548 728h-92l-69 81
l-65 -81h-92l90 144h135z" />
    <glyph glyph-name="gcircumflex" unicode="&#x11d;" horiz-adv-x="590" 
d="M257 -196q-126 0 -214 72l67 108q53 -56 147 -56q48 0 85.5 26t37.5 88v37q-59 -71 -143 -71q-93 0 -152.5 63t-59.5 181q0 116 59 179.5t153 63.5q87 0 143 -69v57h154v-441q0 -56 -17.5 -99.5t-45 -69t-65.5 -42t-74 -22t-75 -5.5zM288 144q25 0 51.5 12t40.5 31v129
q-14 19 -40.5 31t-51.5 12q-47 0 -76.5 -28t-29.5 -79q0 -52 29.5 -80t76.5 -28zM461 547h-92l-69 81l-65 -81h-92l90 144h135z" />
    <glyph glyph-name="Gbreve" unicode="&#x11e;" horiz-adv-x="723" 
d="M387 -12q-153 0 -257 95t-104 250t104 250t257 95q104 0 175 -46t110 -116l-144 -75q-20 36 -57.5 60.5t-83.5 24.5q-81 0 -133.5 -55t-52.5 -138q0 -82 52.5 -137.5t133.5 -55.5q35 0 69.5 12t53.5 28v52h-150v151h322v-265q-117 -130 -295 -130zM563 800
q-65 -88 -175 -88q-109 0 -176 88l66 54q43 -58 110 -58q69 0 110 58z" />
    <glyph glyph-name="gbreve" unicode="&#x11f;" horiz-adv-x="590" 
d="M257 -196q-126 0 -214 72l67 108q53 -56 147 -56q48 0 85.5 26t37.5 88v37q-59 -71 -143 -71q-93 0 -152.5 63t-59.5 181q0 116 59 179.5t153 63.5q87 0 143 -69v57h154v-441q0 -56 -17.5 -99.5t-45 -69t-65.5 -42t-74 -22t-75 -5.5zM288 144q25 0 51.5 12t40.5 31v129
q-14 19 -40.5 31t-51.5 12q-47 0 -76.5 -28t-29.5 -79q0 -52 29.5 -80t76.5 -28zM467 641q-65 -88 -175 -88q-109 0 -176 88l66 54q43 -58 110 -58q69 0 110 58z" />
    <glyph glyph-name="Gdotaccent" unicode="&#x120;" horiz-adv-x="723" 
d="M387 -12q-153 0 -257 95t-104 250t104 250t257 95q104 0 175 -46t110 -116l-144 -75q-20 36 -57.5 60.5t-83.5 24.5q-81 0 -133.5 -55t-52.5 -138q0 -82 52.5 -137.5t133.5 -55.5q35 0 69.5 12t53.5 28v52h-150v151h322v-265q-117 -130 -295 -130zM388 712q-32 0 -55 23
t-23 55t23 55.5t55 23.5t55 -23.5t23 -55.5t-23 -55t-55 -23z" />
    <glyph glyph-name="gdotaccent" unicode="&#x121;" horiz-adv-x="590" 
d="M257 -196q-126 0 -214 72l67 108q53 -56 147 -56q48 0 85.5 26t37.5 88v37q-59 -71 -143 -71q-93 0 -152.5 63t-59.5 181q0 116 59 179.5t153 63.5q87 0 143 -69v57h154v-441q0 -56 -17.5 -99.5t-45 -69t-65.5 -42t-74 -22t-75 -5.5zM288 144q25 0 51.5 12t40.5 31v129
q-14 19 -40.5 31t-51.5 12q-47 0 -76.5 -28t-29.5 -79q0 -52 29.5 -80t76.5 -28zM302 541q-32 0 -55 23t-23 55t23 55.5t55 23.5t55 -23.5t23 -55.5t-23 -55t-55 -23z" />
    <glyph glyph-name="Gcommaaccent" unicode="&#x122;" horiz-adv-x="723" 
d="M387 -12q-153 0 -257 95t-104 250t104 250t257 95q104 0 175 -46t110 -116l-144 -75q-20 36 -57.5 60.5t-83.5 24.5q-81 0 -133.5 -55t-52.5 -138q0 -82 52.5 -137.5t133.5 -55.5q35 0 69.5 12t53.5 28v52h-150v151h322v-265q-117 -130 -295 -130zM466 -139
q0 -94 -88 -157l-49 39q20 11 40 33.5t25 43.5q-3 -3 -17 -3q-25 0 -42 17.5t-17 45.5q0 29 20.5 50t49.5 21q32 0 55 -24.5t23 -65.5z" />
    <glyph glyph-name="gcommaaccent" unicode="&#x123;" horiz-adv-x="590" 
d="M218 636q0 105 85 163l49 -39q-19 -8 -40 -29.5t-24 -40.5h2q2 1 4 1q26 0 47 -19.5t21 -47.5q0 -29 -21 -50.5t-51 -21.5q-27 0 -49.5 20t-22.5 64zM257 -196q-126 0 -214 72l67 108q53 -56 147 -56q48 0 85.5 26t37.5 88v37q-59 -71 -143 -71q-93 0 -152.5 63
t-59.5 181q0 116 59 179.5t153 63.5q87 0 143 -69v57h154v-441q0 -56 -17.5 -99.5t-45 -69t-65.5 -42t-74 -22t-75 -5.5zM288 144q25 0 51.5 12t40.5 31v129q-14 19 -40.5 31t-51.5 12q-47 0 -76.5 -28t-29.5 -79q0 -52 29.5 -80t76.5 -28z" />
    <glyph glyph-name="Hcircumflex" unicode="&#x124;" horiz-adv-x="741" 
d="M681 0h-172v268h-277v-268h-172v667h172v-249h277v249h172v-667zM529 728h-92l-69 81l-65 -81h-92l90 144h135z" />
    <glyph glyph-name="hcircumflex" unicode="&#x125;" horiz-adv-x="594" 
d="M538 0h-154v281q0 78 -80 78q-55 0 -93 -47v-312h-154v667h154v-243q61 71 167 71q80 0 120 -40.5t40 -110.5v-344zM296 728h-92l-69 81l-65 -81h-92l90 144h135z" />
    <glyph glyph-name="Hbar" unicode="&#x126;" horiz-adv-x="757" 
d="M689 0h-172v268h-277v-268h-172v501h-60v85h60v81h172v-81h277v81h172v-81h60v-85h-60v-501zM240 418h277v83h-277v-83z" />
    <glyph glyph-name="hbar" unicode="&#x127;" horiz-adv-x="598" 
d="M355 524h-140v-100q61 71 167 71q80 0 120 -40.5t40 -110.5v-344h-154v281q0 78 -80 78q-55 0 -93 -47v-312h-154v524h-53v85h53v58h154v-58h140v-85z" />
    <glyph glyph-name="Itilde" unicode="&#x128;" horiz-adv-x="292" 
d="M232 0h-172v667h172v-667zM201 726q-28 0 -49 14t-36.5 27.5t-27.5 13.5q-30 0 -30 -49h-78q0 134 113 134q28 0 49 -14t36.5 -27.5t27.5 -13.5q30 0 30 49h78q0 -134 -113 -134z" />
    <glyph glyph-name="itilde" unicode="&#x129;" horiz-adv-x="266" 
d="M210 0h-154v483h154v-483zM188 536q-28 0 -49 14t-36.5 27.5t-27.5 13.5q-30 0 -30 -49h-78q0 134 113 134q28 0 49 -14t36.5 -27.5t27.5 -13.5q30 0 30 49h78q0 -134 -113 -134z" />
    <glyph glyph-name="Imacron" unicode="&#x12a;" horiz-adv-x="292" 
d="M232 0h-172v667h172v-667zM328 746h-363v85h363v-85z" />
    <glyph glyph-name="imacron" unicode="&#x12b;" horiz-adv-x="266" 
d="M210 0h-154v483h154v-483zM315 573h-363v85h363v-85z" />
    <glyph glyph-name="Ibreve" unicode="&#x12c;" horiz-adv-x="292" 
d="M232 0h-172v667h172v-667zM325 800q-65 -88 -175 -88q-109 0 -176 88l66 54q43 -58 110 -58q69 0 110 58z" />
    <glyph glyph-name="ibreve" unicode="&#x12d;" horiz-adv-x="266" 
d="M210 0h-154v483h154v-483zM310 641q-65 -88 -175 -88q-109 0 -176 88l66 54q43 -58 110 -58q69 0 110 58z" />
    <glyph glyph-name="Iogonek" unicode="&#x12e;" horiz-adv-x="292" 
d="M236 -94l59 -37q-33 -55 -98 -55q-45 0 -75 23t-30 69q0 55 42 94h-74v667h172v-667q-68 -35 -68 -87q0 -38 33 -38q27 0 39 31z" />
    <glyph glyph-name="iogonek" unicode="&#x12f;" horiz-adv-x="266" 
d="M214 -94l59 -37q-33 -55 -98 -55q-45 0 -75 23t-30 69q0 55 42 94h-56v483h154v-483q-68 -35 -68 -87q0 -38 33 -38q27 0 39 31zM133 526q-37 0 -62.5 26t-25.5 63t25.5 62.5t62.5 25.5t63 -25.5t26 -62.5t-26 -63t-63 -26z" />
    <glyph glyph-name="Idotaccent" unicode="&#x130;" horiz-adv-x="292" 
d="M232 0h-172v667h172v-667zM147 712q-32 0 -55 23t-23 55t23 55.5t55 23.5t55 -23.5t23 -55.5t-23 -55t-55 -23z" />
    <glyph glyph-name="dotlessi" unicode="&#x131;" horiz-adv-x="266" 
d="M210 0h-154v483h154v-483z" />
    <glyph glyph-name="IJ" unicode="&#x132;" horiz-adv-x="784" 
d="M232 0h-172v667h172v-667zM478 -12q-115 0 -183 60l72 131q47 -39 96 -39q41 0 65 24.5t24 66.5v436h172v-438q0 -120 -66 -180.5t-180 -60.5z" />
    <glyph glyph-name="ij" unicode="&#x133;" horiz-adv-x="533" 
d="M133 526q-37 0 -62.5 26t-25.5 63t25.5 62.5t62.5 25.5t63 -25.5t26 -62.5t-26 -63t-63 -26zM210 0h-154v483h154v-483zM399 526q-37 0 -62.5 26t-25.5 63t25.5 62.5t62.5 25.5t63 -25.5t26 -62.5t-26 -63t-63 -26zM289 -196q-47 0 -72 7.5t-55 26.5l39 112
q26 -22 62 -22q59 0 59 76v479h154v-479q0 -92 -47 -146t-140 -54z" />
    <glyph glyph-name="Jcircumflex" unicode="&#x134;" horiz-adv-x="492" 
d="M186 -12q-115 0 -183 60l72 131q47 -39 96 -39q41 0 65 24.5t24 66.5v436h172v-438q0 -120 -66 -180.5t-180 -60.5zM507 728h-92l-69 81l-65 -81h-92l90 144h135z" />
    <glyph glyph-name="jcircumflex" unicode="&#x135;" horiz-adv-x="266" 
d="M23 -196q-47 0 -72 7.5t-55 26.5l39 124q26 -22 62 -22q27 0 43 17t16 47v479h154v-479q0 -92 -47 -146t-140 -54zM296 556h-92l-69 81l-65 -81h-92l90 144h135z" />
    <glyph glyph-name="Kcommaaccent" unicode="&#x136;" horiz-adv-x="668" 
d="M663 0h-211l-175 251l-45 -56v-195h-172v667h172v-274l205 274h212l-259 -312zM412 -139q0 -94 -88 -157l-49 39q20 11 40 33.5t25 43.5q-3 -3 -17 -3q-25 0 -42 17.5t-17 45.5q0 29 20.5 50t49.5 21q32 0 55 -24.5t23 -65.5z" />
    <glyph glyph-name="kcommaaccent" unicode="&#x137;" horiz-adv-x="546" 
d="M552 0h-190l-106 171l-46 -55v-116h-154v667h154v-377l147 193h186l-178 -220zM351 -139q0 -94 -88 -157l-49 39q20 11 40 33.5t25 43.5q-3 -3 -17 -3q-25 0 -42 17.5t-17 45.5q0 29 20.5 50t49.5 21q32 0 55 -24.5t23 -65.5z" />
    <glyph glyph-name="kgreenlandic" unicode="&#x138;" horiz-adv-x="546" 
d="M552 0h-190l-106 171l-46 -55v-116h-154v483h154v-193l147 193h186l-178 -220z" />
    <glyph glyph-name="Lacute" unicode="&#x139;" horiz-adv-x="525" 
d="M497 0h-440v667h172v-517h268v-150zM449 872l-159 -144h-104l127 144h136z" />
    <glyph glyph-name="lacute" unicode="&#x13a;" horiz-adv-x="266" 
d="M210 0h-154v667h154v-667zM307 872l-159 -144h-104l127 144h136z" />
    <glyph glyph-name="Lcommaaccent" unicode="&#x13b;" horiz-adv-x="525" 
d="M497 0h-440v667h172v-517h268v-150zM337 -139q0 -94 -88 -157l-49 39q20 11 40 33.5t25 43.5q-3 -3 -17 -3q-25 0 -42 17.5t-17 45.5q0 29 20.5 50t49.5 21q32 0 55 -24.5t23 -65.5z" />
    <glyph glyph-name="lcommaaccent" unicode="&#x13c;" horiz-adv-x="266" 
d="M210 0h-154v667h154v-667zM212 -139q0 -94 -88 -157l-49 39q20 11 40 33.5t25 43.5q-3 -3 -17 -3q-25 0 -42 17.5t-17 45.5q0 29 20.5 50t49.5 21q32 0 55 -24.5t23 -65.5z" />
    <glyph glyph-name="Lcaron" unicode="&#x13d;" horiz-adv-x="525" 
d="M497 0h-440v667h172v-517h268v-150zM450 591q0 -94 -88 -157l-49 39q20 11 40 33.5t25 43.5q-3 -3 -17 -3q-25 0 -42 17.5t-17 45.5q0 29 20.5 50t49.5 21q32 0 55 -24.5t23 -65.5z" />
    <glyph glyph-name="lcaron" unicode="&#x13e;" horiz-adv-x="386" 
d="M210 0h-154v667h154v-667zM403 591q0 -94 -88 -157l-49 39q20 11 40 33.5t25 43.5q-3 -3 -17 -3q-25 0 -42 17.5t-17 45.5q0 29 20.5 50t49.5 21q32 0 55 -24.5t23 -65.5z" />
    <glyph glyph-name="Ldot" unicode="&#x13f;" horiz-adv-x="577" 
d="M497 0h-440v667h172v-517h268v-150zM528 342q0 -38 -27.5 -65.5t-65.5 -27.5t-66 27.5t-28 65.5t28 66t66 28t65.5 -28t27.5 -66z" />
    <glyph glyph-name="ldot" unicode="&#x140;" horiz-adv-x="423" 
d="M210 0h-154v667h154v-667zM438 244q0 -38 -27.5 -65.5t-65.5 -27.5t-66 27.5t-28 65.5t28 66t66 28t65.5 -28t27.5 -66z" />
    <glyph glyph-name="Lslash" unicode="&#x141;" horiz-adv-x="540" 
d="M8 178v137l63 36v316h172v-216l67 39v-139l-67 -39v-162h268v-150h-440v214z" />
    <glyph glyph-name="lslash" unicode="&#x142;" horiz-adv-x="319" 
d="M8 192v109l74 42v324h154v-235l75 44v-109l-75 -44v-323h-154v234z" />
    <glyph glyph-name="Nacute" unicode="&#x143;" horiz-adv-x="740" 
d="M680 0h-166l-282 386v-386h-172v667h177l270 -367v367h173v-667zM543 872l-159 -144h-104l127 144h136z" />
    <glyph glyph-name="nacute" unicode="&#x144;" horiz-adv-x="593" 
d="M545 0h-154v279q0 80 -79 80q-56 0 -94 -47v-312h-154v483h154v-59q61 71 168 71q79 0 119 -41.5t40 -111.5v-342zM470 700l-159 -144h-104l127 144h136z" />
    <glyph glyph-name="Ncommaaccent" unicode="&#x145;" horiz-adv-x="740" 
d="M680 0h-166l-282 386v-386h-172v667h177l270 -367v367h173v-667zM447 -139q0 -94 -88 -157l-49 39q20 11 40 33.5t25 43.5q-3 -3 -17 -3q-25 0 -42 17.5t-17 45.5q0 29 20.5 50t49.5 21q32 0 55 -24.5t23 -65.5z" />
    <glyph glyph-name="ncommaaccent" unicode="&#x146;" horiz-adv-x="593" 
d="M545 0h-154v279q0 80 -79 80q-56 0 -94 -47v-312h-154v483h154v-59q61 71 168 71q79 0 119 -41.5t40 -111.5v-342zM375 -139q0 -94 -88 -157l-49 39q20 11 40 33.5t25 43.5q-3 -3 -17 -3q-25 0 -42 17.5t-17 45.5q0 29 20.5 50t49.5 21q32 0 55 -24.5t23 -65.5z" />
    <glyph glyph-name="Ncaron" unicode="&#x147;" horiz-adv-x="740" 
d="M680 0h-166l-282 386v-386h-172v667h177l270 -367v367h173v-667zM439 728h-135l-93 144h92l68 -81l66 81h92z" />
    <glyph glyph-name="ncaron" unicode="&#x148;" horiz-adv-x="593" 
d="M545 0h-154v279q0 80 -79 80q-56 0 -94 -47v-312h-154v483h154v-59q61 71 168 71q79 0 119 -41.5t40 -111.5v-342zM366 556h-135l-93 144h92l68 -81l66 81h92z" />
    <glyph glyph-name="napostrophe" unicode="&#x149;" horiz-adv-x="593" 
d="M545 0h-154v279q0 80 -79 80q-56 0 -94 -47v-312h-154v483h154v-59q61 71 168 71q79 0 119 -41.5t40 -111.5v-342zM183 685q0 -94 -88 -157l-49 39q20 11 40 33.5t25 43.5q-3 -3 -17 -3q-25 0 -42 17.5t-17 45.5q0 29 20.5 50t49.5 21q32 0 55 -24.5t23 -65.5z" />
    <glyph glyph-name="Eng" unicode="&#x14a;" horiz-adv-x="740" 
d="M433 -196q-113 0 -183 60l72 131q47 -39 96 -39q67 0 85 59l-271 371v-386h-172v667h177l270 -367v367h173v-623q0 -119 -66.5 -179.5t-180.5 -60.5z" />
    <glyph glyph-name="eng" unicode="&#x14b;" horiz-adv-x="593" 
d="M350 -196q-47 0 -72 7.5t-55 26.5l39 124q26 -22 62 -22q27 0 43 17t16 47v275q0 80 -79 80q-56 0 -94 -47v-312h-154v483h154v-59q61 71 168 71q79 0 119 -41.5t40 -111.5v-338q0 -92 -47 -146t-140 -54z" />
    <glyph glyph-name="Omacron" unicode="&#x14c;" horiz-adv-x="766" 
d="M383 -12q-154 0 -255.5 97t-101.5 248t101.5 248t255.5 97t255 -97t101 -248t-101 -248t-255 -97zM383 140q81 0 131 55t50 138t-50 138t-131 55t-131.5 -55t-50.5 -138t50.5 -138t131.5 -55zM564 746h-363v85h363v-85z" />
    <glyph glyph-name="omacron" unicode="&#x14d;" horiz-adv-x="576" 
d="M287 -12q-119 0 -190.5 74t-71.5 180t71.5 179.5t190.5 73.5q120 0 192 -73.5t72 -179.5t-72 -180t-192 -74zM287 124q49 0 77.5 33.5t28.5 84.5q0 50 -28.5 83.5t-77.5 33.5q-48 0 -76 -33.5t-28 -83.5q0 -51 28 -84.5t76 -33.5zM469 573h-363v85h363v-85z" />
    <glyph glyph-name="Obreve" unicode="&#x14e;" horiz-adv-x="766" 
d="M383 -12q-154 0 -255.5 97t-101.5 248t101.5 248t255.5 97t255 -97t101 -248t-101 -248t-255 -97zM383 140q81 0 131 55t50 138t-50 138t-131 55t-131.5 -55t-50.5 -138t50.5 -138t131.5 -55zM558 800q-65 -88 -175 -88q-109 0 -176 88l66 54q43 -58 110 -58q69 0 110 58
z" />
    <glyph glyph-name="obreve" unicode="&#x14f;" horiz-adv-x="576" 
d="M287 -12q-119 0 -190.5 74t-71.5 180t71.5 179.5t190.5 73.5q120 0 192 -73.5t72 -179.5t-72 -180t-192 -74zM287 124q49 0 77.5 33.5t28.5 84.5q0 50 -28.5 83.5t-77.5 33.5q-48 0 -76 -33.5t-28 -83.5q0 -51 28 -84.5t76 -33.5zM462 641q-65 -88 -175 -88
q-109 0 -176 88l66 54q43 -58 110 -58q69 0 110 58z" />
    <glyph glyph-name="Ohungarumlaut" unicode="&#x150;" horiz-adv-x="766" 
d="M383 -12q-154 0 -255.5 97t-101.5 248t101.5 248t255.5 97t255 -97t101 -248t-101 -248t-255 -97zM383 140q81 0 131 55t50 138t-50 138t-131 55t-131.5 -55t-50.5 -138t50.5 -138t131.5 -55zM455 872l-115 -144h-87l84 144h118zM608 872l-115 -144h-87l83 144h119z" />
    <glyph glyph-name="ohungarumlaut" unicode="&#x151;" horiz-adv-x="576" 
d="M287 -12q-119 0 -190.5 74t-71.5 180t71.5 179.5t190.5 73.5q120 0 192 -73.5t72 -179.5t-72 -180t-192 -74zM287 124q49 0 77.5 33.5t28.5 84.5q0 50 -28.5 83.5t-77.5 33.5q-48 0 -76 -33.5t-28 -83.5q0 -51 28 -84.5t76 -33.5zM361 700l-115 -144h-87l84 144h118z
M514 700l-115 -144h-87l83 144h119z" />
    <glyph glyph-name="OE" unicode="&#x152;" horiz-adv-x="1073" 
d="M1037 0h-489v57q-32 -33 -82.5 -51t-101.5 -18q-147 0 -242.5 96t-95.5 249q0 152 95.5 248t242.5 96q51 0 101.5 -17.5t82.5 -49.5v57h489v-150h-317v-104h310v-150h-310v-113h317v-150zM548 234v199q-22 44 -63.5 68t-95.5 24q-85 0 -136.5 -54.5t-51.5 -137.5
q0 -84 51.5 -138.5t136.5 -54.5q53 0 95 25t64 69z" />
    <glyph glyph-name="oe" unicode="&#x153;" horiz-adv-x="916" 
d="M896 191h-344q10 -35 41 -57t81 -22q27 0 62.5 11.5t54.5 29.5l68 -101q-35 -31 -90 -47.5t-113 -16.5q-65 0 -107 24.5t-79 66.5q-76 -91 -183 -91q-119 0 -190.5 74t-71.5 180t71.5 179.5t190.5 73.5q103 0 184 -92q73 92 179 92q109 0 177.5 -73.5t68.5 -195.5v-35z
M551 296h198q-4 30 -28 52.5t-72 22.5q-46 0 -70 -22t-28 -53zM393 242q0 54 -29 85.5t-77 31.5q-46 0 -75 -32t-29 -85q0 -54 29 -86.5t75 -32.5q48 0 77 32.5t29 86.5z" />
    <glyph glyph-name="Racute" unicode="&#x154;" horiz-adv-x="661" 
d="M629 0h-197l-112 224h-88v-224h-172v667h334q108 0 170 -63t62 -159q0 -80 -39 -130.5t-94 -69.5zM368 374q36 0 59.5 19t23.5 53q0 33 -23.5 52t-59.5 19h-136v-143h136zM507 872l-159 -144h-104l127 144h136z" />
    <glyph glyph-name="racute" unicode="&#x155;" horiz-adv-x="375" 
d="M210 0h-154v483h154v-59q25 30 67 51t84 21v-148q-12 4 -38 4q-32 0 -65.5 -12.5t-47.5 -31.5v-308zM381 700l-159 -144h-104l127 144h136z" />
    <glyph glyph-name="Rcommaaccent" unicode="&#x156;" horiz-adv-x="661" 
d="M629 0h-197l-112 224h-88v-224h-172v667h334q108 0 170 -63t62 -159q0 -80 -39 -130.5t-94 -69.5zM368 374q36 0 59.5 19t23.5 53q0 33 -23.5 52t-59.5 19h-136v-143h136zM411 -139q0 -94 -88 -157l-49 39q20 11 40 33.5t25 43.5q-3 -3 -17 -3q-25 0 -42 17.5t-17 45.5
q0 29 20.5 50t49.5 21q32 0 55 -24.5t23 -65.5z" />
    <glyph glyph-name="rcommaaccent" unicode="&#x157;" horiz-adv-x="375" 
d="M210 0h-154v483h154v-59q25 30 67 51t84 21v-148q-12 4 -38 4q-32 0 -65.5 -12.5t-47.5 -31.5v-308zM265 -139q0 -94 -88 -157l-49 39q20 11 40 33.5t25 43.5q-3 -3 -17 -3q-25 0 -42 17.5t-17 45.5q0 29 20.5 50t49.5 21q32 0 55 -24.5t23 -65.5z" />
    <glyph glyph-name="Rcaron" unicode="&#x158;" horiz-adv-x="661" 
d="M629 0h-197l-112 224h-88v-224h-172v667h334q108 0 170 -63t62 -159q0 -80 -39 -130.5t-94 -69.5zM368 374q36 0 59.5 19t23.5 53q0 33 -23.5 52t-59.5 19h-136v-143h136zM402 728h-135l-93 144h92l68 -81l66 81h92z" />
    <glyph glyph-name="rcaron" unicode="&#x159;" horiz-adv-x="375" 
d="M210 0h-154v483h154v-59q25 30 67 51t84 21v-148q-12 4 -38 4q-32 0 -65.5 -12.5t-47.5 -31.5v-308zM277 556h-135l-93 144h92l68 -81l66 81h92z" />
    <glyph glyph-name="Sacute" unicode="&#x15a;" horiz-adv-x="606" 
d="M308 -12q-183 0 -296 106l91 134q88 -88 214 -88q44 0 69 14t25 39q0 20 -28 33t-70 19.5t-90.5 20.5t-90.5 33.5t-70 62.5t-28 103q0 89 71 150.5t194 61.5q163 0 271 -93l-94 -129q-83 70 -195 70q-72 0 -72 -46q0 -22 39 -35t94.5 -24.5t110.5 -30t94 -64t39 -114.5
q0 -102 -73 -162.5t-205 -60.5zM473 872l-159 -144h-104l127 144h136z" />
    <glyph glyph-name="sacute" unicode="&#x15b;" horiz-adv-x="484" 
d="M242 -12q-65 0 -127 20.5t-100 54.5l64 110q28 -25 78.5 -45t91.5 -20q65 0 65 34q0 16 -29 24t-70 14.5t-82.5 19t-70.5 47t-29 89.5q0 67 55.5 113t151.5 46q114 0 202 -64l-59 -109q-23 22 -62 37.5t-80 15.5q-27 0 -43.5 -9.5t-16.5 -23.5t29 -21t70 -14.5t82 -21
t70 -49t29 -90.5q0 -70 -58.5 -114t-160.5 -44zM419 700l-159 -144h-104l127 144h136z" />
    <glyph glyph-name="Scircumflex" unicode="&#x15c;" horiz-adv-x="606" 
d="M455 728h-92l-69 81l-65 -81h-92l90 144h135zM308 -12q-183 0 -296 106l91 134q88 -88 214 -88q44 0 69 14t25 39q0 20 -28 33t-70 19.5t-90.5 20.5t-90.5 33.5t-70 62.5t-28 103q0 89 71 150.5t194 61.5q163 0 271 -93l-94 -129q-83 70 -195 70q-72 0 -72 -46
q0 -22 39 -35t94.5 -24.5t110.5 -30t94 -64t39 -114.5q0 -102 -73 -162.5t-205 -60.5z" />
    <glyph glyph-name="scircumflex" unicode="&#x15d;" horiz-adv-x="484" 
d="M242 -12q-65 0 -127 20.5t-100 54.5l64 110q28 -25 78.5 -45t91.5 -20q65 0 65 34q0 16 -29 24t-70 14.5t-82.5 19t-70.5 47t-29 89.5q0 67 55.5 113t151.5 46q114 0 202 -64l-59 -109q-23 22 -62 37.5t-80 15.5q-27 0 -43.5 -9.5t-16.5 -23.5t29 -21t70 -14.5t82 -21
t70 -49t29 -90.5q0 -70 -58.5 -114t-160.5 -44zM401 556h-92l-69 81l-65 -81h-92l90 144h135z" />
    <glyph glyph-name="Scedilla" unicode="&#x15e;" horiz-adv-x="606" 
d="M293 -198q-73 0 -114 33l28 58q41 -30 82 -30q19 0 33 7.5t14 20.5q0 22 -25 22q-18 0 -29 -13l-52 30l22 61q-144 12 -240 103l91 134q88 -88 214 -88q44 0 69 14t25 39q0 20 -28 33t-70 19.5t-90.5 20.5t-90.5 33.5t-70 62.5t-28 103q0 89 71 150.5t194 61.5
q163 0 271 -93l-94 -129q-83 70 -195 70q-72 0 -72 -46q0 -22 39 -35t94.5 -24.5t110.5 -30t94 -64t39 -114.5q0 -100 -69 -159.5t-196 -63.5l-15 -37q17 10 34 10q28 0 48 -20.5t20 -51.5q0 -40 -33 -63.5t-82 -23.5z" />
    <glyph glyph-name="scedilla" unicode="&#x15f;" horiz-adv-x="484" 
d="M240 -198q-73 0 -114 33l28 58q41 -30 82 -30q19 0 33 7.5t14 20.5q0 22 -25 22q-18 0 -29 -13l-52 30l22 61q-119 12 -184 72l64 110q28 -25 78.5 -45t91.5 -20q65 0 65 34q0 16 -29 24t-70 14.5t-82.5 19t-70.5 47t-29 89.5q0 67 55.5 113t151.5 46q114 0 202 -64
l-59 -109q-23 22 -62 37.5t-80 15.5q-27 0 -43.5 -9.5t-16.5 -23.5t29 -21t70 -14.5t82 -21t70 -49t29 -90.5q0 -65 -51 -108t-141 -49l-16 -38q17 10 34 10q28 0 48 -20.5t20 -51.5q0 -40 -33 -63.5t-82 -23.5z" />
    <glyph glyph-name="Scaron" unicode="&#x160;" horiz-adv-x="606" 
d="M365 728h-135l-93 144h92l68 -81l66 81h92zM308 -12q-183 0 -296 106l91 134q88 -88 214 -88q44 0 69 14t25 39q0 20 -28 33t-70 19.5t-90.5 20.5t-90.5 33.5t-70 62.5t-28 103q0 89 71 150.5t194 61.5q163 0 271 -93l-94 -129q-83 70 -195 70q-72 0 -72 -46
q0 -22 39 -35t94.5 -24.5t110.5 -30t94 -64t39 -114.5q0 -102 -73 -162.5t-205 -60.5z" />
    <glyph glyph-name="scaron" unicode="&#x161;" horiz-adv-x="484" 
d="M242 -12q-65 0 -127 20.5t-100 54.5l64 110q28 -25 78.5 -45t91.5 -20q65 0 65 34q0 16 -29 24t-70 14.5t-82.5 19t-70.5 47t-29 89.5q0 67 55.5 113t151.5 46q114 0 202 -64l-59 -109q-23 22 -62 37.5t-80 15.5q-27 0 -43.5 -9.5t-16.5 -23.5t29 -21t70 -14.5t82 -21
t70 -49t29 -90.5q0 -70 -58.5 -114t-160.5 -44zM311 556h-135l-93 144h92l68 -81l66 81h92z" />
    <glyph glyph-name="Tcommaaccent" unicode="&#x162;" horiz-adv-x="589" 
d="M381 0h-172v517h-187v150h545v-150h-186v-517zM372 -139q0 -94 -88 -157l-49 39q20 11 40 33.5t25 43.5q-3 -3 -17 -3q-25 0 -42 17.5t-17 45.5q0 29 20.5 50t49.5 21q32 0 55 -24.5t23 -65.5z" />
    <glyph glyph-name="Tcommaaccent" unicode="&#x21a;" horiz-adv-x="589" 
d="M381 0h-172v517h-187v150h545v-150h-186v-517zM372 -139q0 -94 -88 -157l-49 39q20 11 40 33.5t25 43.5q-3 -3 -17 -3q-25 0 -42 17.5t-17 45.5q0 29 20.5 50t49.5 21q32 0 55 -24.5t23 -65.5z" />
    <glyph glyph-name="tcommaaccent" unicode="&#x163;" horiz-adv-x="360" 
d="M239 -12q-74 0 -112.5 36t-38.5 106v220h-80v133h80v132h154v-132h98v-133h-98v-177q0 -21 11.5 -35t30.5 -14q29 0 39 12l30 -116q-34 -32 -114 -32zM258 -139q0 -94 -88 -157l-49 39q20 11 40 33.5t25 43.5q-3 -3 -17 -3q-25 0 -42 17.5t-17 45.5q0 29 20.5 50t49.5 21
q32 0 55 -24.5t23 -65.5z" />
    <glyph glyph-name="tcommaaccent" unicode="&#x21b;" horiz-adv-x="360" 
d="M239 -12q-74 0 -112.5 36t-38.5 106v220h-80v133h80v132h154v-132h98v-133h-98v-177q0 -21 11.5 -35t30.5 -14q29 0 39 12l30 -116q-34 -32 -114 -32zM258 -139q0 -94 -88 -157l-49 39q20 11 40 33.5t25 43.5q-3 -3 -17 -3q-25 0 -42 17.5t-17 45.5q0 29 20.5 50t49.5 21
q32 0 55 -24.5t23 -65.5z" />
    <glyph glyph-name="Tcaron" unicode="&#x164;" horiz-adv-x="589" 
d="M381 0h-172v517h-187v150h545v-150h-186v-517zM364 728h-135l-93 144h92l68 -81l66 81h92z" />
    <glyph glyph-name="tcaron" unicode="&#x165;" horiz-adv-x="414" 
d="M239 -12q-74 0 -112.5 36t-38.5 106v220h-80v133h80v132h154v-132h98v-133h-98v-177q0 -21 11.5 -35t30.5 -14q29 0 39 12l30 -116q-34 -32 -114 -32zM440 685q0 -94 -88 -157l-49 39q20 11 40 33.5t25 43.5q-3 -3 -17 -3q-25 0 -42 17.5t-17 45.5q0 29 20.5 50t49.5 21
q32 0 55 -24.5t23 -65.5z" />
    <glyph glyph-name="Tbar" unicode="&#x166;" horiz-adv-x="589" 
d="M381 0h-172v247h-125v85h125v185h-187v150h545v-150h-186v-185h126v-85h-126v-247z" />
    <glyph glyph-name="tbar" unicode="&#x167;" horiz-adv-x="360" 
d="M309 200h-67v-27q0 -21 11.5 -35t30.5 -14q29 0 39 12l30 -116q-34 -32 -114 -32q-74 0 -112.5 36t-38.5 106v70h-80v85h80v65h-80v133h80v132h154v-132h98v-133h-98v-65h67v-85z" />
    <glyph glyph-name="Utilde" unicode="&#x168;" horiz-adv-x="750" 
d="M376 -12q-155 0 -235.5 77t-80.5 205v397h175v-391q0 -61 36.5 -98.5t104.5 -37.5q67 0 103.5 37.5t36.5 98.5v391h174v-396q0 -130 -79.5 -206.5t-234.5 -76.5zM431 726q-28 0 -49 14t-36.5 27.5t-27.5 13.5q-30 0 -30 -49h-78q0 134 113 134q28 0 49 -14t36.5 -27.5
t27.5 -13.5q30 0 30 49h78q0 -134 -113 -134z" />
    <glyph glyph-name="utilde" unicode="&#x169;" horiz-adv-x="592" 
d="M536 0h-154v58q-62 -70 -167 -70q-79 0 -119 41t-40 110v344h154v-280q0 -79 80 -79q55 0 92 47v312h154v-483zM351 554q-28 0 -49 14t-36.5 27.5t-27.5 13.5q-30 0 -30 -49h-78q0 134 113 134q28 0 49 -14t36.5 -27.5t27.5 -13.5q30 0 30 49h78q0 -134 -113 -134z" />
    <glyph glyph-name="Umacron" unicode="&#x16a;" horiz-adv-x="750" 
d="M376 -12q-155 0 -235.5 77t-80.5 205v397h175v-391q0 -61 36.5 -98.5t104.5 -37.5q67 0 103.5 37.5t36.5 98.5v391h174v-396q0 -130 -79.5 -206.5t-234.5 -76.5zM559 746h-363v85h363v-85z" />
    <glyph glyph-name="umacron" unicode="&#x16b;" horiz-adv-x="592" 
d="M536 0h-154v58q-62 -70 -167 -70q-79 0 -119 41t-40 110v344h154v-280q0 -79 80 -79q55 0 92 47v312h154v-483zM477 573h-363v85h363v-85z" />
    <glyph glyph-name="Ubreve" unicode="&#x16c;" horiz-adv-x="750" 
d="M376 -12q-155 0 -235.5 77t-80.5 205v397h175v-391q0 -61 36.5 -98.5t104.5 -37.5q67 0 103.5 37.5t36.5 98.5v391h174v-396q0 -130 -79.5 -206.5t-234.5 -76.5zM553 800q-65 -88 -175 -88q-109 0 -176 88l66 54q43 -58 110 -58q69 0 110 58z" />
    <glyph glyph-name="ubreve" unicode="&#x16d;" horiz-adv-x="592" 
d="M536 0h-154v58q-62 -70 -167 -70q-79 0 -119 41t-40 110v344h154v-280q0 -79 80 -79q55 0 92 47v312h154v-483zM474 641q-65 -88 -175 -88q-109 0 -176 88l66 54q43 -58 110 -58q69 0 110 58z" />
    <glyph glyph-name="Uring" unicode="&#x16e;" horiz-adv-x="750" 
d="M376 -12q-155 0 -235.5 77t-80.5 205v397h175v-391q0 -61 36.5 -98.5t104.5 -37.5q67 0 103.5 37.5t36.5 98.5v391h174v-396q0 -130 -79.5 -206.5t-234.5 -76.5zM378 693q-45 0 -77 32.5t-32 76.5t32 76.5t77 32.5q44 0 75.5 -32.5t31.5 -76.5t-31.5 -76.5t-75.5 -32.5z
M378 761q16 0 28 12t12 29t-12 29t-28 12q-17 0 -29 -12t-12 -29t12 -29t29 -12z" />
    <glyph glyph-name="uring" unicode="&#x16f;" horiz-adv-x="592" 
d="M536 0h-154v58q-62 -70 -167 -70q-79 0 -119 41t-40 110v344h154v-280q0 -79 80 -79q55 0 92 47v312h154v-483zM297 538q-45 0 -77 32.5t-32 76.5t32 76.5t77 32.5q44 0 75.5 -32.5t31.5 -76.5t-31.5 -76.5t-75.5 -32.5zM297 606q16 0 28 12t12 29t-12 29t-28 12
q-17 0 -29 -12t-12 -29t12 -29t29 -12z" />
    <glyph glyph-name="Uhungarumlaut" unicode="&#x170;" horiz-adv-x="750" 
d="M376 -12q-155 0 -235.5 77t-80.5 205v397h175v-391q0 -61 36.5 -98.5t104.5 -37.5q67 0 103.5 37.5t36.5 98.5v391h174v-396q0 -130 -79.5 -206.5t-234.5 -76.5zM451 872l-115 -144h-87l84 144h118zM604 872l-115 -144h-87l83 144h119z" />
    <glyph glyph-name="uhungarumlaut" unicode="&#x171;" horiz-adv-x="592" 
d="M536 0h-154v58q-62 -70 -167 -70q-79 0 -119 41t-40 110v344h154v-280q0 -79 80 -79q55 0 92 47v312h154v-483zM369 700l-115 -144h-87l84 144h118zM522 700l-115 -144h-87l83 144h119z" />
    <glyph glyph-name="Uogonek" unicode="&#x172;" horiz-adv-x="750" 
d="M488 -94l59 -37q-33 -55 -98 -55q-45 0 -75 23t-30 69q0 45 31 82q-155 1 -235 77.5t-80 204.5v397h175v-391q0 -61 36.5 -98.5t104.5 -37.5q67 0 103.5 37.5t36.5 98.5v391h174v-396q0 -104 -52 -175.5t-154 -95.5q-68 -35 -68 -87q0 -38 33 -38q27 0 39 31z" />
    <glyph glyph-name="uogonek" unicode="&#x173;" horiz-adv-x="592" 
d="M540 -94l59 -37q-33 -55 -98 -55q-45 0 -75 23t-30 69q0 55 42 94h-56v58q-62 -70 -167 -70q-79 0 -119 41t-40 110v344h154v-280q0 -79 80 -79q55 0 92 47v312h154v-483q-68 -35 -68 -87q0 -38 33 -38q27 0 39 31z" />
    <glyph glyph-name="Wcircumflex" unicode="&#x174;" horiz-adv-x="936" 
d="M751 0h-182l-101 418l-101 -418h-182l-191 667h193l101 -445l114 445h132l114 -445l100 445h194zM628 728h-92l-69 81l-65 -81h-92l90 144h135z" />
    <glyph glyph-name="wcircumflex" unicode="&#x175;" horiz-adv-x="787" 
d="M650 0h-166l-91 299l-90 -299h-166l-143 483h158l78 -296l95 296h137l95 -296l77 296h159zM553 556h-92l-69 81l-65 -81h-92l90 144h135z" />
    <glyph glyph-name="Ycircumflex" unicode="&#x176;" horiz-adv-x="655" 
d="M489 728h-92l-69 81l-65 -81h-92l90 144h135zM414 0h-172v269l-253 398h194l145 -246l143 246h195l-252 -398v-269z" />
    <glyph glyph-name="ycircumflex" unicode="&#x177;" horiz-adv-x="524" 
d="M46 -188l22 137q16 -9 38 -9q54 0 66 27l11 26l-193 490h162l110 -306l109 306h163l-218 -552q-27 -70 -77.5 -97.5t-126.5 -29.5q-40 0 -66 8zM421 556h-92l-69 81l-65 -81h-92l90 144h135z" />
    <glyph glyph-name="Ydieresis" unicode="&#x178;" horiz-adv-x="655" 
d="M515 790q0 -33 -23 -56t-56 -23q-32 0 -55 23t-23 56q0 32 23 55t55 23q33 0 56 -23t23 -55zM301 790q0 -33 -23 -56t-56 -23q-32 0 -55 23t-23 56q0 32 23 55t55 23q33 0 56 -23t23 -55zM414 0h-172v269l-253 398h194l145 -246l143 246h195l-252 -398v-269z" />
    <glyph glyph-name="Zacute" unicode="&#x179;" horiz-adv-x="596" 
d="M557 0h-518v137l284 380h-284v150h511v-136l-285 -381h292v-150zM471 872l-159 -144h-104l127 144h136z" />
    <glyph glyph-name="zacute" unicode="&#x17a;" horiz-adv-x="483" 
d="M445 0h-407v114l194 236h-194v133h403v-109l-198 -241h202v-133zM414 700l-159 -144h-104l127 144h136z" />
    <glyph glyph-name="Zdotaccent" unicode="&#x17b;" horiz-adv-x="596" 
d="M557 0h-518v137l284 380h-284v150h511v-136l-285 -381h292v-150zM291 712q-32 0 -55 23t-23 55t23 55.5t55 23.5t55 -23.5t23 -55.5t-23 -55t-55 -23z" />
    <glyph glyph-name="zdotaccent" unicode="&#x17c;" horiz-adv-x="483" 
d="M445 0h-407v114l194 236h-194v133h403v-109l-198 -241h202v-133zM239 541q-32 0 -55 23t-23 55t23 55.5t55 23.5t55 -23.5t23 -55.5t-23 -55t-55 -23z" />
    <glyph glyph-name="Zcaron" unicode="&#x17d;" horiz-adv-x="596" 
d="M368 728h-135l-93 144h92l68 -81l66 81h92zM557 0h-518v137l284 380h-284v150h511v-136l-285 -381h292v-150z" />
    <glyph glyph-name="zcaron" unicode="&#x17e;" horiz-adv-x="483" 
d="M445 0h-407v114l194 236h-194v133h403v-109l-198 -241h202v-133zM305 556h-135l-93 144h92l68 -81l66 81h92z" />
    <glyph glyph-name="longs" unicode="&#x17f;" horiz-adv-x="349" 
d="M243 0h-154v350h-80v133h80v11q0 85 48 134t125 49q90 0 138 -45l-56 -96q-19 17 -50 17q-22 0 -36.5 -15t-14.5 -44v-494z" />
    <glyph glyph-name="florin" unicode="&#x192;" horiz-adv-x="466" 
d="M174 -161h-175l87 392h-47v134h76l32 146q17 74 75.5 120t134.5 46q87 0 129 -46l-62 -125q-18 21 -45 21q-51 0 -64 -55l-24 -107h100v-134h-129z" />
    <glyph glyph-name="AEacute" unicode="&#x1fc;" horiz-adv-x="979" 
d="M943 0h-489v96h-221l-54 -96h-196l400 667h560v-150h-317v-104h310v-150h-310v-113h317v-150zM454 246v251l-141 -251h141zM708 872l-159 -144h-104l127 144h136z" />
    <glyph glyph-name="aeacute" unicode="&#x1fd;" horiz-adv-x="860" 
d="M840 191h-344q9 -34 40.5 -54.5t81.5 -20.5q27 0 62.5 11.5t54.5 28.5l68 -104q-35 -31 -90 -47.5t-113 -16.5q-59 0 -112 21.5t-87 59.5q-33 -36 -85 -58.5t-111 -22.5q-73 0 -126.5 40.5t-53.5 116.5t48 117t118 41q101 0 150 -55v47q0 31 -26 50.5t-72 19.5
q-75 0 -135 -52l-57 107q88 75 219 75q116 0 166 -65q60 65 166 65q103 0 170.5 -74t67.5 -195v-35zM495 296h198q-4 31 -27.5 53t-71.5 22q-46 0 -70.5 -22t-28.5 -53zM348 132q-7 16 -7 34q-24 35 -86 35q-32 0 -54.5 -15t-22.5 -41q0 -27 22.5 -41.5t54.5 -14.5
q67 0 93 43zM594 700l-159 -144h-104l127 144h136z" />
    <glyph glyph-name="Oslashacute" unicode="&#x1fe;" horiz-adv-x="766" 
d="M558 872l-159 -144h-104l127 144h136zM383 -12q-106 0 -190 48l-29 -36h-120l75 93q-93 95 -93 240q0 151 101.5 248t255.5 97q97 0 175 -40l24 29h120l-67 -83q104 -98 104 -251q0 -151 -101 -248t-255 -97zM383 140q81 0 131 55t50 138q0 68 -35 119l-235 -290
q41 -22 89 -22zM201 333q0 -60 26 -106l229 284q-33 15 -73 15q-81 0 -131.5 -55t-50.5 -138z" />
    <glyph glyph-name="oslashacute" unicode="&#x1ff;" horiz-adv-x="576" 
d="M461 700l-159 -144h-104l127 144h136zM119 0h-90l60 69q-64 70 -64 173q0 106 71.5 179.5t190.5 73.5q81 0 144 -37l22 25h92l-60 -68q66 -71 66 -173q0 -106 -72 -180t-192 -74q-83 0 -145 38zM287 124q49 0 77.5 33.5t28.5 84.5q0 29 -11 56l-144 -163q22 -11 49 -11z
M183 242q0 -32 10 -55l142 161q-22 11 -48 11q-48 0 -76 -33.5t-28 -83.5z" />
    <glyph glyph-name="Scommaaccent" unicode="&#x218;" horiz-adv-x="625" 
d="M320 -12q-183 0 -296 106l91 134q88 -88 214 -88q44 0 69 14t25 39q0 20 -28 33t-70 19.5t-90.5 20.5t-90.5 33.5t-70 62.5t-28 103q0 89 71 150.5t194 61.5q163 0 271 -93l-94 -129q-83 70 -195 70q-72 0 -72 -46q0 -22 39 -35t94.5 -24.5t110.5 -30t94 -64t39 -114.5
q0 -102 -73 -162.5t-205 -60.5zM390 -139q0 -94 -88 -157l-49 39q20 11 40 33.5t25 43.5q-3 -3 -17 -3q-25 0 -42 17.5t-17 45.5q0 29 20.5 50t49.5 21q32 0 55 -24.5t23 -65.5z" />
    <glyph glyph-name="scommaaccent" unicode="&#x219;" horiz-adv-x="492" 
d="M242 -12q-65 0 -127 20.5t-100 54.5l64 110q28 -25 78.5 -45t91.5 -20q65 0 65 34q0 16 -29 24t-70 14.5t-82.5 19t-70.5 47t-29 89.5q0 67 55.5 113t151.5 46q114 0 202 -64l-59 -109q-23 22 -62 37.5t-80 15.5q-27 0 -43.5 -9.5t-16.5 -23.5t29 -21t70 -14.5t82 -21
t70 -49t29 -90.5q0 -70 -58.5 -114t-160.5 -44zM325 -139q0 -94 -88 -157l-49 39q20 11 40 33.5t25 43.5q-3 -3 -17 -3q-25 0 -42 17.5t-17 45.5q0 29 20.5 50t49.5 21q32 0 55 -24.5t23 -65.5z" />
    <glyph glyph-name="hsuperior" unicode="&#x2b0;" horiz-adv-x="418" 
d="M372 326h-109v181q0 49 -52 49q-33 0 -57 -28v-202h-109v434h109v-157q39 45 111 45q54 0 80.5 -27.5t26.5 -74.5v-220z" />
    <glyph glyph-name="hsuperior" unicode="&#xf637;" horiz-adv-x="418" 
d="M372 326h-109v181q0 49 -52 49q-33 0 -57 -28v-202h-109v434h109v-157q39 45 111 45q54 0 80.5 -27.5t26.5 -74.5v-220z" />
    <glyph glyph-name="circumflex" unicode="&#x2c6;" horiz-adv-x="318" 
d="M318 556h-92l-69 81l-65 -81h-92l90 144h135z" />
    <glyph glyph-name="caron" unicode="&#x2c7;" horiz-adv-x="318" 
d="M228 556h-135l-93 144h92l68 -81l66 81h92z" />
    <glyph glyph-name="breve" unicode="&#x2d8;" horiz-adv-x="351" 
d="M351 641q-65 -88 -175 -88q-109 0 -176 88l66 54q43 -58 110 -58q69 0 110 58z" />
    <glyph glyph-name="dotaccent" unicode="&#x2d9;" horiz-adv-x="206" 
d="M103 541q-32 0 -55 23t-23 55t23 55.5t55 23.5t55 -23.5t23 -55.5t-23 -55t-55 -23z" />
    <glyph glyph-name="ring" unicode="&#x2da;" horiz-adv-x="216" 
d="M109 544q-45 0 -77 32.5t-32 76.5t32 76.5t77 32.5q44 0 75.5 -32.5t31.5 -76.5t-31.5 -76.5t-75.5 -32.5zM109 612q16 0 28 12t12 29t-12 29t-28 12q-17 0 -29 -12t-12 -29t12 -29t29 -12z" />
    <glyph glyph-name="ogonek" unicode="&#x2db;" horiz-adv-x="203" 
d="M144 -94l59 -37q-33 -55 -98 -55q-45 0 -75 23t-30 69q0 78 89 128l51 -34q-68 -35 -68 -87q0 -38 33 -38q27 0 39 31z" />
    <glyph glyph-name="tilde" unicode="&#x2dc;" horiz-adv-x="334" 
d="M221 554q-28 0 -49 14t-36.5 27.5t-27.5 13.5q-30 0 -30 -49h-78q0 134 113 134q28 0 49 -14t36.5 -27.5t27.5 -13.5q30 0 30 49h78q0 -134 -113 -134z" />
    <glyph glyph-name="hungarumlaut" unicode="&#x2dd;" horiz-adv-x="355" 
d="M202 700l-115 -144h-87l84 144h118zM355 700l-115 -144h-87l83 144h119z" />
    <glyph glyph-name="Delta" unicode="&#x394;" horiz-adv-x="697" 
d="M708 0h-719l251 667h217zM466 150l-117 347l-118 -347h235z" />
    <glyph glyph-name="Delta" unicode="&#x2206;" horiz-adv-x="697" 
d="M708 0h-719l251 667h217zM466 150l-117 347l-118 -347h235z" />
    <glyph glyph-name="Omega" unicode="&#x3a9;" horiz-adv-x="766" 
d="M44 0v150h112q-130 97 -130 224q0 140 100.5 222t256.5 82t256 -82t100 -222q0 -127 -130 -224h113v-150h-283v150q59 17 92 69t33 116q0 74 -45 132t-136 58q-63 0 -106 -31t-59.5 -72t-16.5 -87q0 -64 33.5 -116t92.5 -69v-150h-283z" />
    <glyph glyph-name="Omega" unicode="&#x2126;" horiz-adv-x="766" 
d="M44 0v150h112q-130 97 -130 224q0 140 100.5 222t256.5 82t256 -82t100 -222q0 -127 -130 -224h113v-150h-283v150q59 17 92 69t33 116q0 74 -45 132t-136 58q-63 0 -106 -31t-59.5 -72t-16.5 -87q0 -64 33.5 -116t92.5 -69v-150h-283z" />
    <glyph glyph-name="pi" unicode="&#x3c0;" horiz-adv-x="651" 
d="M563 0h-154v365h-166v-365h-154v365h-67v135h607v-135h-66v-365z" />
    <glyph glyph-name="endash" unicode="&#x2013;" horiz-adv-x="593" 
d="M563 178h-533v129h533v-129z" />
    <glyph glyph-name="emdash" unicode="&#x2014;" horiz-adv-x="833" 
d="M803 178h-773v129h773v-129z" />
    <glyph glyph-name="quoteleft" unicode="&#x2018;" horiz-adv-x="268" 
d="M34 475q0 122 114 203l64 -52q-25 -12 -50.5 -40.5t-33.5 -54.5q12 3 23 3q33 0 55 -23t22 -59q0 -38 -27 -65.5t-64 -27.5q-42 0 -72.5 31.5t-30.5 84.5z" />
    <glyph glyph-name="quoteright" unicode="&#x2019;" horiz-adv-x="268" 
d="M234 561q0 -122 -114 -202l-64 51q25 13 51 41t34 55q-8 -4 -23 -4q-33 0 -55.5 23t-22.5 60q0 38 27 65t65 27q43 0 72.5 -31.5t29.5 -84.5z" />
    <glyph glyph-name="quotesinglbase" unicode="&#x201a;" horiz-adv-x="268" 
d="M234 61q0 -123 -114 -203l-64 52q25 13 51 41t34 54q-12 -3 -23 -3q-33 0 -55.5 23t-22.5 59q0 38 27 65t65 27q42 0 72 -31t30 -84z" />
    <glyph glyph-name="quotedblleft" unicode="&#x201c;" horiz-adv-x="494" 
d="M33 475q0 122 114 203l64 -52q-25 -13 -51 -41t-33 -54q12 3 23 3q32 0 54.5 -23t22.5 -59q0 -38 -27 -65.5t-64 -27.5q-42 0 -72.5 31.5t-30.5 84.5zM258 475q0 122 114 203l64 -52q-25 -12 -50.5 -40.5t-33.5 -54.5q12 3 23 3q33 0 55 -23t22 -59q0 -38 -27 -65.5
t-64 -27.5q-42 0 -72.5 31.5t-30.5 84.5z" />
    <glyph glyph-name="quotedblright" unicode="&#x201d;" horiz-adv-x="494" 
d="M460 561q0 -122 -114 -202l-64 51q25 13 50.5 41t33.5 55q-8 -4 -23 -4q-33 0 -55 23t-22 60q0 38 27 65t64 27q43 0 73 -31.5t30 -84.5zM234 561q0 -122 -114 -202l-64 51q25 13 51 41t34 55q-8 -4 -23 -4q-33 0 -55.5 23t-22.5 60q0 38 27 65t65 27q43 0 72.5 -31.5
t29.5 -84.5z" />
    <glyph glyph-name="quotedblbase" unicode="&#x201e;" horiz-adv-x="494" 
d="M234 61q0 -123 -114 -203l-64 52q25 13 51 41t34 54q-12 -3 -23 -3q-33 0 -55.5 23t-22.5 59q0 38 27 65t65 27q42 0 72 -31t30 -84zM460 61q0 -123 -114 -203l-64 52q25 12 50.5 40.5t33.5 54.5q-12 -3 -23 -3q-33 0 -55 23t-22 59q0 38 27 65t64 27q43 0 73 -31t30 -84
z" />
    <glyph glyph-name="dagger" unicode="&#x2020;" horiz-adv-x="284" 
d="M266 518l-89 4l4 -195h-78l4 195l-89 -4v71l89 -3l-4 91h78l-4 -91l89 3v-71z" />
    <glyph glyph-name="daggerdbl" unicode="&#x2021;" horiz-adv-x="284" 
d="M266 589v-71l-89 4v-185l89 4v-71l-89 3l4 -93h-78l4 93l-89 -3v71l89 -4v185l-89 -4v71l89 -3l-4 91h78l-4 -91z" />
    <glyph glyph-name="bullet" unicode="&#x2022;" horiz-adv-x="358" 
d="M304 242q0 -51 -36 -87t-88 -36t-88 36t-36 87q0 52 36 88t88 36t88 -36t36 -88z" />
    <glyph glyph-name="ellipsis" unicode="&#x2026;" horiz-adv-x="807" 
d="M228 83q0 -38 -27.5 -66t-65.5 -28t-66 28t-28 66t28 65.5t66 27.5t65.5 -27.5t27.5 -65.5zM497 83q0 -38 -27.5 -66t-65.5 -28t-66 28t-28 66t28 65.5t66 27.5t65.5 -27.5t27.5 -65.5zM766 83q0 -38 -27.5 -66t-65.5 -28t-66 28t-28 66t28 65.5t66 27.5t65.5 -27.5
t27.5 -65.5z" />
    <glyph glyph-name="perthousand" unicode="&#x2030;" horiz-adv-x="1141" 
d="M372 509q0 -71 -48.5 -118.5t-127.5 -47.5q-77 0 -125 47.5t-48 118.5q0 72 48 120t125 48q79 0 127.5 -48t48.5 -120zM644 667l-427 -667h-87l426 667h88zM748 154q0 -71 -48.5 -118.5t-125.5 -47.5q-78 0 -126 47.5t-48 118.5q0 72 48 120t126 48q77 0 125.5 -48
t48.5 -120zM265 509q0 41 -19 63.5t-50 22.5q-30 0 -48.5 -22.5t-18.5 -63.5t18.5 -62.5t48.5 -21.5q31 0 50 21.5t19 62.5zM642 154q0 42 -18.5 64t-49.5 22t-49.5 -22t-18.5 -64q0 -40 19 -62t49 -22t49 22t19 62zM1118 154q0 -71 -48.5 -118.5t-125.5 -47.5
q-78 0 -126 47.5t-48 118.5q0 72 48 120t126 48q77 0 125.5 -48t48.5 -120zM1013 154q0 42 -19 64t-50 22t-49.5 -22t-18.5 -64q0 -40 19 -62t49 -22t49.5 22t19.5 62z" />
    <glyph glyph-name="guilsinglleft" unicode="&#x2039;" horiz-adv-x="359" 
d="M329 63h-139l-160 180l160 177h139l-160 -177z" />
    <glyph glyph-name="guilsinglright" unicode="&#x203a;" horiz-adv-x="359" 
d="M329 243l-160 -180h-139l160 180l-160 177h139z" />
    <glyph glyph-name="fraction" unicode="&#x2044;" horiz-adv-x="170" 
d="M342 667l-428 -667h-86l426 667h88z" />
    <glyph glyph-name="fraction" unicode="&#x2215;" horiz-adv-x="170" 
d="M342 667l-428 -667h-86l426 667h88z" />
    <glyph glyph-name="zerosuperior" unicode="&#x2070;" 
d="M379 621q0 -87 -46 -147t-131 -60q-87 0 -133 60t-46 147t46 146.5t133 59.5q85 0 131 -60t46 -146zM265 621q0 116 -63 116q-65 0 -65 -116q0 -117 65 -117q63 0 63 117z" />
    <glyph glyph-name="foursuperior" unicode="&#x2074;" 
d="M384 499h-50v-78h-113v78h-197v77l150 245h160v-233h50v-89zM221 588v138l-85 -138h85z" />
    <glyph glyph-name="fivesuperior" unicode="&#x2075;" 
d="M373 556q0 -63 -47 -102.5t-129 -39.5q-110 0 -167 63l60 75q42 -48 107 -48q31 0 47.5 14.5t16.5 34.5q0 21 -16 34.5t-45 13.5q-49 0 -80 -37l-78 24v233h304v-90h-190v-80q32 32 87 32t92.5 -33t37.5 -94z" />
    <glyph glyph-name="sixsuperior" unicode="&#x2076;" 
d="M379 557q0 -63 -46.5 -103t-118.5 -40q-95 0 -142.5 57t-47.5 149q0 98 56 152.5t152 54.5q74 0 126 -36l-47 -81q-34 27 -79 27q-41 0 -67.5 -24t-26.5 -61v-6q37 45 97 45q59 0 101.5 -36.5t42.5 -97.5zM265 552q0 25 -19.5 38t-43.5 13q-39 0 -64 -26q2 -31 19 -52
t51 -21q25 0 41 14.5t16 33.5z" />
    <glyph glyph-name="sevensuperior" unicode="&#x2077;" horiz-adv-x="375" 
d="M350 742l-139 -321h-126l142 310h-204v90h327v-79z" />
    <glyph glyph-name="eightsuperior" unicode="&#x2078;" 
d="M379 527q0 -59 -51 -86t-127 -27q-75 0 -126.5 26.5t-51.5 86.5q0 33 26 61.5t66 38.5q-38 9 -61.5 34t-23.5 59q0 54 50.5 80.5t120.5 26.5t120.5 -26.5t50.5 -80.5q0 -34 -23.5 -59t-61.5 -34q40 -10 66 -38.5t26 -61.5zM258 703q0 38 -57 38q-58 0 -58 -38
q0 -29 58 -41q57 11 57 41zM266 539q0 22 -23 34.5t-42 13.5q-18 -1 -41.5 -13.5t-23.5 -34.5q0 -39 65 -39t65 39z" />
    <glyph glyph-name="ninesuperior" unicode="&#x2079;" 
d="M24 685q0 63 46.5 102.5t119.5 39.5q94 0 141.5 -57t47.5 -149q0 -98 -56 -152.5t-152 -54.5q-74 0 -125 36l47 81q32 -27 79 -27q39 0 66 23.5t27 62.5v5q-37 -45 -97 -45q-59 0 -101.5 36.5t-42.5 98.5zM139 689q0 -25 19 -38t43 -13q40 0 64 27q-2 30 -18.5 51
t-49.5 21q-26 0 -42 -14t-16 -34z" />
    <glyph glyph-name="parenleftsuperior" unicode="&#x207d;" horiz-adv-x="208" 
d="M198 383l-69 -27q-47 41 -77 116t-30 149q0 73 30 148t77 117l69 -27q-60 -106 -60 -238t60 -238z" />
    <glyph glyph-name="parenrightsuperior" unicode="&#x207e;" horiz-adv-x="208" 
d="M189 621q0 -73 -30 -148t-78 -117l-68 27q60 111 60 238q0 128 -60 238l68 27q48 -42 78 -117t30 -148z" />
    <glyph glyph-name="nsuperior" unicode="&#x207f;" horiz-adv-x="418" 
d="M373 326h-109v179q0 51 -51 51q-34 0 -58 -28v-202h-110v314h110v-37q41 45 111 45q54 0 80.5 -28.5t26.5 -73.5v-220z" />
    <glyph glyph-name="zeroinferior" unicode="&#x2080;" 
d="M379 54q0 -87 -46 -147t-131 -60q-87 0 -133 60t-46 147t46 146.5t133 59.5q85 0 131 -60t46 -146zM265 54q0 116 -63 116q-65 0 -65 -116q0 -117 65 -117q63 0 63 117z" />
    <glyph glyph-name="oneinferior" unicode="&#x2081;" horiz-adv-x="311" 
d="M251 -146h-114v255l-69 -69l-64 68l149 146h98v-400z" />
    <glyph glyph-name="twoinferior" unicode="&#x2082;" 
d="M370 -146h-326v83q134 94 171.5 127.5t37.5 58.5q0 22 -16 34.5t-43 12.5q-32 0 -61.5 -15t-45.5 -34l-58 72q62 67 168 67q77 0 123.5 -34t46.5 -94q0 -43 -35.5 -85t-122.5 -103h161v-90z" />
    <glyph glyph-name="threeinferior" unicode="&#x2083;" 
d="M373 -34q0 -53 -47.5 -86t-125.5 -33q-116 0 -172 63l54 74q46 -47 113 -47q31 0 48 10.5t17 26.5q0 23 -20.5 31t-60.5 8q-41 0 -47 -1v88q9 -1 46 -1q40 0 57.5 8t17.5 28q0 35 -65 35q-62 0 -104 -42l-51 67q60 65 167 65q80 0 123 -30t43 -80q0 -33 -25.5 -58.5
t-63.5 -31.5q37 -3 66.5 -28.5t29.5 -65.5z" />
    <glyph glyph-name="fourinferior" unicode="&#x2084;" 
d="M384 -68h-50v-78h-113v78h-197v77l150 245h160v-233h50v-89zM221 21v138l-85 -138h85z" />
    <glyph glyph-name="fiveinferior" unicode="&#x2085;" 
d="M373 -11q0 -63 -47 -102.5t-129 -39.5q-110 0 -167 63l60 75q42 -48 107 -48q31 0 47.5 14.5t16.5 34.5q0 21 -16 34.5t-45 13.5q-49 0 -80 -37l-78 24v233h304v-90h-190v-80q32 32 87 32t92.5 -33t37.5 -94z" />
    <glyph glyph-name="sixinferior" unicode="&#x2086;" 
d="M379 -10q0 -63 -46.5 -103t-118.5 -40q-95 0 -142.5 57t-47.5 149q0 98 56 152.5t152 54.5q74 0 126 -36l-47 -81q-34 27 -79 27q-41 0 -67.5 -24t-26.5 -61v-6q37 45 97 45q59 0 101.5 -36.5t42.5 -97.5zM265 -15q0 25 -19.5 38t-43.5 13q-39 0 -64 -26q2 -31 19 -52
t51 -21q25 0 41 14.5t16 33.5z" />
    <glyph glyph-name="seveninferior" unicode="&#x2087;" horiz-adv-x="375" 
d="M350 175l-139 -321h-126l142 310h-204v90h327v-79z" />
    <glyph glyph-name="eightinferior" unicode="&#x2088;" 
d="M379 -40q0 -59 -51 -86t-127 -27q-75 0 -126.5 26.5t-51.5 86.5q0 33 26 61.5t66 38.5q-38 9 -61.5 34t-23.5 59q0 54 50.5 80.5t120.5 26.5t120.5 -26.5t50.5 -80.5q0 -34 -23.5 -59t-61.5 -34q40 -10 66 -38.5t26 -61.5zM258 136q0 38 -57 38q-58 0 -58 -38
q0 -29 58 -41q57 11 57 41zM266 -28q0 22 -23 34.5t-42 13.5q-18 -1 -41.5 -13.5t-23.5 -34.5q0 -39 65 -39t65 39z" />
    <glyph glyph-name="nineinferior" unicode="&#x2089;" 
d="M24 118q0 63 46.5 102.5t119.5 39.5q94 0 141.5 -57t47.5 -149q0 -98 -56 -152.5t-152 -54.5q-74 0 -125 36l47 81q32 -27 79 -27q39 0 66 23.5t27 62.5v5q-37 -45 -97 -45q-59 0 -101.5 36.5t-42.5 98.5zM139 122q0 -25 19 -38t43 -13q40 0 64 27q-2 30 -18.5 51
t-49.5 21q-26 0 -42 -14t-16 -34z" />
    <glyph glyph-name="parenleftinferior" unicode="&#x208d;" horiz-adv-x="208" 
d="M198 -184l-69 -27q-47 41 -77 116t-30 149q0 73 30 148t77 117l69 -27q-60 -106 -60 -238t60 -238z" />
    <glyph glyph-name="parenrightinferior" unicode="&#x208e;" horiz-adv-x="208" 
d="M189 54q0 -73 -30 -148t-78 -117l-68 27q60 111 60 238q0 128 -60 238l68 27q48 -42 78 -117t30 -148z" />
    <glyph glyph-name="colonmonetary" unicode="&#x20a1;" horiz-adv-x="704" 
d="M397 -12l-13 1l-29 -89h-84l32 99q-31 7 -54 16l-38 -115h-83l50 152q-67 46 -104.5 118.5t-37.5 162.5q0 149 98.5 244.5t249.5 99.5l30 91h84l-32 -97q26 -4 54 -14l37 111h84l-50 -150q60 -44 97 -118l-148 -71q-6 11 -7 13l-98 -297q35 10 63 35t42 57l148 -70
q-38 -76 -109.5 -127.5t-181.5 -51.5zM299 166q28 -16 53 -21l119 361q-25 14 -54 18zM211 333q0 -58 26 -102l93 283q-54 -20 -86.5 -68.5t-32.5 -112.5z" />
    <glyph glyph-name="frenchfranc" unicode="&#x20a3;" horiz-adv-x="590" 
d="M240 0h-172v95h-60v85h60v487h489v-150h-317v-104h310v-150h-310v-83h131v-85h-131v-95z" />
    <glyph glyph-name="lira" unicode="&#x20a4;" horiz-adv-x="565" 
d="M24 336v75h30q-10 28 -10 54q0 96 78 154t173 58q183 0 248 -125l-137 -79q-11 31 -35 48t-54 17q-37 0 -61 -21.5t-24 -54.5q0 -27 11 -51h163v-75h-125q9 -24 13 -44h112v-74h-120q-18 -39 -50 -57q21 8 48 8q29 0 64.5 -14.5t57.5 -14.5q56 0 81 35l67 -136
q-47 -51 -154 -51q-47 0 -103.5 21.5t-78.5 21.5q-48 0 -115 -38l-57 115q97 49 97 110h-119v74h98q-5 9 -14.5 24.5t-12.5 19.5h-71z" />
    <glyph glyph-name="uni20A6" unicode="&#x20a6;" horiz-adv-x="755" 
d="M688 0h-166l-165 225h-117v-225h-172v225h-60v85h60v52h-60v85h60v220h177l162 -220h108v220h173v-220h59v-85h-59v-52h59v-85h-59v-225zM240 386v-76h55zM469 362l46 -62v62h-46z" />
    <glyph glyph-name="peseta" unicode="&#x20a7;" horiz-adv-x="696" 
d="M693 382h-62q-12 -91 -71.5 -144.5t-157.5 -53.5h-162v-184h-172v382h-60v87h60v198h334q98 0 157.5 -54t71.5 -144h62v-87zM376 334q58 0 76 48h-212v-48h136zM240 517v-48h212q-18 48 -76 48h-136z" />
    <glyph glyph-name="rupee" unicode="&#x20a8;" horiz-adv-x="1098" 
d="M629 0h-197l-112 224h-88v-224h-172v667h334q108 0 170 -63t62 -159q0 -80 -39 -130.5t-94 -69.5zM368 374q36 0 59.5 19t23.5 53q0 33 -23.5 52t-59.5 19h-136v-143h136zM857 -12q-65 0 -127 20.5t-100 54.5l64 110q28 -25 78.5 -45t91.5 -20q65 0 65 34q0 14 -21 22
t-52 11.5t-67.5 13t-67.5 23.5t-52 46t-21 78q0 67 55.5 113t151.5 46q114 0 202 -64l-59 -109q-23 22 -62 37.5t-80 15.5q-27 0 -43.5 -9.5t-16.5 -23.5t29 -21t70 -14.5t82 -21t70 -49t29 -90.5q0 -70 -58.5 -114t-160.5 -44z" />
    <glyph glyph-name="uni20A9" unicode="&#x20a9;" horiz-adv-x="936" 
d="M751 0h-182l-55 225h-93l-54 -225h-182l-65 225h-111v85h87l-15 52h-72v85h48l-63 220h193l50 -220h108l57 220h132l56 -220h108l50 220h194l-63 -220h48v-85h-72l-15 -52h87v-85h-112zM612 362l36 -140l31 140h-67zM256 362l32 -140l36 140h-68zM468 418l-26 -108h52z
" />
    <glyph glyph-name="afii57636" unicode="&#x20aa;" horiz-adv-x="857" 
d="M362 550q132 0 185.5 -56t53.5 -166v-145h-144v131q0 55 -20.5 80t-74.5 25h-161v-419h-145v550h306zM562 0h-306v366h144v-235h162q54 0 74 25t20 80v314h145v-328q0 -110 -54 -166t-185 -56z" />
    <glyph glyph-name="Euro" unicode="&#x20ac;" horiz-adv-x="715" 
d="M411 -12q-123 0 -215.5 62.5t-127.5 168.5h-51v92h33v22q0 17 1 25h-34v92h51q35 105 128 166.5t215 61.5q111 0 182 -51t109 -127l-148 -71q-17 41 -56.5 69t-86.5 28q-99 0 -151 -76h211v-92h-245q-1 -8 -1 -25q0 -15 1 -22h245v-92h-213q53 -79 153 -79q47 0 86.5 28
t56.5 69l148 -70q-38 -76 -109.5 -127.5t-181.5 -51.5z" />
    <glyph glyph-name="afii61289" unicode="&#x2113;" horiz-adv-x="551" 
d="M57 478v-348q0 -73 40.5 -107.5t110.5 -34.5q79 0 114 32l-29 101q-16 -12 -40 -12q-20 0 -31 14t-11 35v68l153 100q78 51 122.5 97.5t44.5 99.5q0 68 -67 111t-159 43q-109 0 -178.5 -56t-69.5 -143zM313 433l-102 -67v112q0 43 24.5 68.5t66.5 25.5q34 0 58.5 -16
t24.5 -41q0 -21 -16 -38t-56 -44z" />
    <glyph glyph-name="afii61352" unicode="&#x2116;" horiz-adv-x="1145" 
d="M680 0h-166l-282 386v-386h-172v667h177l270 -367v367h173v-667zM942 350q-80 0 -128.5 48t-48.5 117t48.5 117t128.5 48q81 0 129.5 -48t48.5 -117t-48.5 -117t-129.5 -48zM942 437q31 0 48.5 20.5t17.5 57.5t-17.5 56.5t-48.5 19.5q-64 0 -64 -76q0 -37 17 -57.5
t47 -20.5z" />
    <glyph glyph-name="published" unicode="&#x2117;" horiz-adv-x="778" 
d="M734 334q0 -142 -101 -243.5t-244 -101.5t-244 101.5t-101 243.5t101 243.5t244 101.5t244 -101.5t101 -243.5zM695 334q0 126 -90 216t-216 90t-216 -90t-90 -216t90 -216t216 -90t216 90t90 216zM557 415q0 -52 -37.5 -86t-89.5 -34h-112v-164h-50v405h162
q52 0 89.5 -33.5t37.5 -87.5zM505 415q0 33 -22.5 54.5t-52.5 21.5h-112v-151h112q30 0 52.5 21.5t22.5 53.5z" />
    <glyph glyph-name="servicemark" unicode="&#x2120;" horiz-adv-x="476" 
d="M439 447h-28v182l-75 -182h-8l-75 182v-182h-28v220h43l64 -160l64 160h43v-220zM188 506q0 -31 -22.5 -49t-64.5 -18q-55 0 -86 36l18 21q27 -31 68 -31q54 0 54 38q0 19 -21.5 30t-46.5 15t-46.5 19.5t-21.5 43.5q0 27 22.5 44.5t57.5 17.5q55 0 82 -32l-18 -19
q-23 27 -63 27q-21 0 -34.5 -10t-13.5 -26q0 -17 21 -27t47 -14.5t47 -20.5t21 -45z" />
    <glyph glyph-name="trademark" unicode="&#x2122;" horiz-adv-x="454" 
d="M419 447h-28v182l-75 -182h-8l-75 182v-182h-28v220h43l64 -160l64 160h43v-220zM169 641h-62v-194h-28v194h-62v26h152v-26z" />
    <glyph glyph-name="estimated" unicode="&#x212e;" horiz-adv-x="842" 
d="M811 324h-632q-5 0 -5 -5v-190q0 -14 9 -23q98 -103 240 -103q151 0 250 115h57q-54 -63 -135 -99.5t-174 -36.5q-161 0 -275.5 103t-114.5 248t114.5 248t275.5 103t275.5 -103t114.5 -248v-9zM668 349v191q0 14 -10 24q-97 99 -235 99q-140 0 -239 -102
q-10 -10 -10 -24v-188q0 -6 5 -6h485q4 0 4 6z" />
    <glyph glyph-name="onethird" unicode="&#x2153;" horiz-adv-x="897" 
d="M667 667l-428 -667h-86l426 667h88zM868 112q0 -53 -47.5 -86t-125.5 -33q-116 0 -172 63l54 74q46 -47 113 -47q31 0 48 10.5t17 26.5q0 23 -20.5 31t-60.5 8q-41 0 -47 -1v88q9 -1 46 -1q40 0 57.5 8t17.5 28q0 35 -65 35q-62 0 -104 -42l-51 67q60 65 167 65
q80 0 123 -30t43 -80q0 -33 -25.5 -58.5t-63.5 -31.5q37 -3 66.5 -28.5t29.5 -65.5zM251 267h-114v255l-69 -69l-64 68l149 146h98v-400z" />
    <glyph glyph-name="twothirds" unicode="&#x2154;" horiz-adv-x="974" 
d="M744 667l-428 -667h-86l426 667h88zM945 112q0 -53 -47.5 -86t-125.5 -33q-116 0 -172 63l54 74q46 -47 113 -47q31 0 48 10.5t17 26.5q0 23 -20.5 31t-60.5 8q-41 0 -47 -1v88q9 -1 46 -1q40 0 57.5 8t17.5 28q0 35 -65 35q-62 0 -104 -42l-51 67q60 65 167 65
q80 0 123 -30t43 -80q0 -33 -25.5 -58.5t-63.5 -31.5q37 -3 66.5 -28.5t29.5 -65.5zM370 267h-326v83q134 94 171.5 127.5t37.5 58.5q0 22 -16 34.5t-43 12.5q-32 0 -61.5 -15t-45.5 -34l-58 72q62 67 168 67q77 0 123.5 -34t46.5 -94q0 -43 -35.5 -85t-122.5 -103h161v-90z
" />
    <glyph glyph-name="oneeighth" unicode="&#x215b;" horiz-adv-x="897" 
d="M667 667l-428 -667h-86l426 667h88zM874 106q0 -59 -51 -86t-127 -27q-75 0 -126.5 26.5t-51.5 86.5q0 33 26 61.5t66 38.5q-38 9 -61.5 34t-23.5 59q0 54 50.5 80.5t120.5 26.5t120.5 -26.5t50.5 -80.5q0 -34 -23.5 -59t-61.5 -34q40 -10 66 -38.5t26 -61.5zM753 282
q0 38 -57 38q-58 0 -58 -38q0 -29 58 -41q57 11 57 41zM761 118q0 22 -23 34.5t-42 13.5q-18 -1 -41.5 -13.5t-23.5 -34.5q0 -39 65 -39t65 39zM251 267h-114v255l-69 -69l-64 68l149 146h98v-400z" />
    <glyph glyph-name="threeeighths" unicode="&#x215c;" horiz-adv-x="974" 
d="M744 667l-428 -667h-86l426 667h88zM951 106q0 -59 -51 -86t-127 -27q-75 0 -126.5 26.5t-51.5 86.5q0 33 26 61.5t66 38.5q-38 9 -61.5 34t-23.5 59q0 54 50.5 80.5t120.5 26.5t120.5 -26.5t50.5 -80.5q0 -34 -23.5 -59t-61.5 -34q40 -10 66 -38.5t26 -61.5zM830 282
q0 38 -57 38q-58 0 -58 -38q0 -29 58 -41q57 11 57 41zM838 118q0 22 -23 34.5t-42 13.5q-18 -1 -41.5 -13.5t-23.5 -34.5q0 -39 65 -39t65 39zM373 379q0 -53 -47.5 -86t-125.5 -33q-116 0 -172 63l54 74q46 -47 113 -47q31 0 48 10.5t17 26.5q0 23 -20.5 31t-60.5 8
q-41 0 -47 -1v88q9 -1 46 -1q40 0 57.5 8t17.5 28q0 35 -65 35q-62 0 -104 -42l-51 67q60 65 167 65q80 0 123 -30t43 -80q0 -33 -25.5 -58.5t-63.5 -31.5q37 -3 66.5 -28.5t29.5 -65.5z" />
    <glyph glyph-name="fiveeighths" unicode="&#x215d;" horiz-adv-x="966" 
d="M736 667l-428 -667h-86l426 667h88zM943 106q0 -59 -51 -86t-127 -27q-75 0 -126.5 26.5t-51.5 86.5q0 33 26 61.5t66 38.5q-38 9 -61.5 34t-23.5 59q0 54 50.5 80.5t120.5 26.5t120.5 -26.5t50.5 -80.5q0 -34 -23.5 -59t-61.5 -34q40 -10 66 -38.5t26 -61.5zM822 282
q0 38 -57 38q-58 0 -58 -38q0 -29 58 -41q57 11 57 41zM830 118q0 22 -23 34.5t-42 13.5q-18 -1 -41.5 -13.5t-23.5 -34.5q0 -39 65 -39t65 39zM373 402q0 -63 -47 -102.5t-129 -39.5q-110 0 -167 63l60 75q42 -48 107 -48q31 0 47.5 14.5t16.5 34.5q0 21 -16 34.5t-45 13.5
q-49 0 -80 -37l-78 24v233h304v-90h-190v-80q32 32 87 32t92.5 -33t37.5 -94z" />
    <glyph glyph-name="seveneighths" unicode="&#x215e;" horiz-adv-x="894" 
d="M665 667l-428 -667h-86l426 667h88zM871 106q0 -59 -51 -86t-127 -27q-75 0 -126.5 26.5t-51.5 86.5q0 33 26 61.5t66 38.5q-38 9 -61.5 34t-23.5 59q0 54 50.5 80.5t120.5 26.5t120.5 -26.5t50.5 -80.5q0 -34 -23.5 -59t-61.5 -34q40 -10 66 -38.5t26 -61.5zM750 282
q0 38 -57 38q-58 0 -58 -38q0 -29 58 -41q57 11 57 41zM758 118q0 22 -23 34.5t-42 13.5q-18 -1 -41.5 -13.5t-23.5 -34.5q0 -39 65 -39t65 39zM350 588l-139 -321h-126l142 310h-204v90h327v-79z" />
    <glyph glyph-name="arrowleft" unicode="&#x2190;" horiz-adv-x="582" 
d="M538 211h-269l12 -130l-281 205l281 204l-12 -129h269v-150z" />
    <glyph glyph-name="arrowup" unicode="&#x2191;" horiz-adv-x="582" 
d="M216 17v269l-130 -12l205 281l204 -281l-129 12v-269h-150z" />
    <glyph glyph-name="arrowright" unicode="&#x2192;" horiz-adv-x="582" 
d="M584 286l-281 -205l12 130h-268v150h268l-12 129z" />
    <glyph glyph-name="arrowdown" unicode="&#x2193;" horiz-adv-x="582" 
d="M366 555v-269l130 12l-205 -281l-204 281l129 -12v269h150z" />
    <glyph glyph-name="partialdiff" unicode="&#x2202;" horiz-adv-x="576" 
d="M287 -12q-119 0 -190.5 67.5t-71.5 164.5q0 94 61 162t150 68q108 0 153 -76q-56 149 -205 229l124 82q97 -61 170 -177t73 -248q0 -125 -70.5 -198.5t-193.5 -73.5zM287 124q50 0 78 26.5t28 69.5t-28 69t-78 26q-49 0 -76.5 -26t-27.5 -69t27.5 -69.5t76.5 -26.5z" />
    <glyph glyph-name="product" unicode="&#x220f;" horiz-adv-x="828" 
d="M705 -90h-172v607h-237v-607h-172v607h-102v150h784v-150h-101v-607z" />
    <glyph glyph-name="summation" unicode="&#x2211;" horiz-adv-x="591" 
d="M442 296l-185 221h293v150h-508v-150l188 -222l-189 -235v-150h509v150h-301z" />
    <glyph glyph-name="minus" unicode="&#x2212;" horiz-adv-x="507" 
d="M478 288h-449v92h449v-92z" />
    <glyph glyph-name="radical" unicode="&#x221a;" horiz-adv-x="661" 
d="M393 0h-97l-104 290l-118 -40l-28 88l213 69l88 -255l180 515h112z" />
    <glyph glyph-name="infinity" unicode="&#x221e;" horiz-adv-x="707" 
d="M202 153q-86 0 -129.5 54.5t-43.5 128.5t43.5 128.5t129.5 54.5q49 0 89 -26.5t62 -69.5q23 43 63 69.5t89 26.5q87 0 130 -54.5t43 -129.5t-42.5 -128.5t-130.5 -53.5q-49 0 -89.5 26t-62.5 69q-22 -43 -62 -69t-89 -26zM492 244q38 0 62.5 24.5t24.5 66.5t-24.5 67.5
t-62.5 25.5q-33 0 -57.5 -25.5t-38.5 -67.5q30 -91 96 -91zM216 243q32 0 57.5 26t38.5 67q-13 41 -38.5 66.5t-57.5 25.5q-38 0 -63 -25t-25 -67t25 -67.5t63 -25.5z" />
    <glyph glyph-name="integral" unicode="&#x222b;" horiz-adv-x="386" 
d="M77 -100h-60v99h60q26 0 44 20.5t18 52.5v524q0 77 50 124.5t120 47.5h60v-99h-60q-26 0 -44 -20t-18 -53v-524q0 -78 -50 -125t-120 -47z" />
    <glyph glyph-name="approxequal" unicode="&#x2248;" horiz-adv-x="507" 
d="M29 195v99q53 -28 112 -28q45 0 105.5 24.5t118.5 24.5t113 -22v-99q-53 29 -113 29q-45 0 -105 -24.5t-119 -24.5q-60 0 -112 21zM29 375v99q53 -28 112 -28q45 0 105.5 24.5t118.5 24.5t113 -22v-99q-53 29 -113 29q-45 0 -105 -24.5t-119 -24.5q-60 0 -112 21z" />
    <glyph glyph-name="notequal" unicode="&#x2260;" horiz-adv-x="507" 
d="M143 93h-86l65 102h-93v92h151l60 94h-211v92h270l64 101h87l-65 -101h93v-92h-152l-60 -94h212v-92h-270z" />
    <glyph glyph-name="lessequal" unicode="&#x2264;" horiz-adv-x="507" 
d="M478 115l-449 189v111l449 190v-110l-344 -136l344 -135v-109zM478 0h-449v92h449v-92z" />
    <glyph glyph-name="greaterequal" unicode="&#x2265;" horiz-adv-x="507" 
d="M477 304l-449 -189v109l345 135l-345 136v110l449 -190v-111zM478 0h-449v92h449v-92z" />
    <glyph glyph-name="triangleright" unicode="&#x22b2;" horiz-adv-x="587" 
d="M589 286l-535 -309v618z" />
    <glyph glyph-name="triangleleft" unicode="&#x22b3;" horiz-adv-x="587" 
d="M535 595v-618l-535 309z" />
    <glyph glyph-name="uni2318" unicode="&#x2318;" horiz-adv-x="667" 
d="M215 154v62h-62q-25 0 -43.5 -18.5t-18.5 -43.5q0 -26 18 -44.5t44 -18.5t44 18.5t18 44.5zM215 451v63q0 25 -18 43.5t-43 18.5q-26 0 -44.5 -18t-18.5 -44t18.5 -44.5t44.5 -18.5h61zM265 265h137v137h-137v-137zM576 154q0 25 -18.5 43.5t-43.5 18.5h-62v-62
q0 -26 18 -44.5t44 -18.5t44 18.5t18 44.5zM576 514q0 25 -18.5 43.5t-43.5 18.5q-26 0 -44 -18t-18 -44v-63h62q25 0 43.5 18.5t18.5 44.5zM625 154q0 -46 -32.5 -79t-78.5 -33t-79 33t-33 79v62h-137v-62q0 -46 -33 -79t-79 -33t-78.5 33t-32.5 79t32.5 78.5t78.5 32.5h62
v137h-61q-46 0 -79 33t-33 79t33 78.5t79 32.5t78.5 -32.5t32.5 -78.5v-63h137v63q0 46 33 78.5t79 32.5t78.5 -32.5t32.5 -78.5t-32.5 -79t-78.5 -33h-62v-137h62q46 0 78.5 -32.5t32.5 -78.5z" />
    <glyph glyph-name="uni2318" unicode="&#xf8ff;" horiz-adv-x="667" 
d="M215 154v62h-62q-25 0 -43.5 -18.5t-18.5 -43.5q0 -26 18 -44.5t44 -18.5t44 18.5t18 44.5zM215 451v63q0 25 -18 43.5t-43 18.5q-26 0 -44.5 -18t-18.5 -44t18.5 -44.5t44.5 -18.5h61zM265 265h137v137h-137v-137zM576 154q0 25 -18.5 43.5t-43.5 18.5h-62v-62
q0 -26 18 -44.5t44 -18.5t44 18.5t18 44.5zM576 514q0 25 -18.5 43.5t-43.5 18.5q-26 0 -44 -18t-18 -44v-63h62q25 0 43.5 18.5t18.5 44.5zM625 154q0 -46 -32.5 -79t-78.5 -33t-79 33t-33 79v62h-137v-62q0 -46 -33 -79t-79 -33t-78.5 33t-32.5 79t32.5 78.5t78.5 32.5h62
v137h-61q-46 0 -79 33t-33 79t33 78.5t79 32.5t78.5 -32.5t32.5 -78.5v-63h137v63q0 46 33 78.5t79 32.5t78.5 -32.5t32.5 -78.5t-32.5 -79t-78.5 -33h-62v-137h62q46 0 78.5 -32.5t32.5 -78.5z" />
    <glyph glyph-name="blacksquare" unicode="&#x25a0;" horiz-adv-x="661" 
d="M618 0h-571v572h571v-572z" />
    <glyph glyph-name="triagup" unicode="&#x25b2;" horiz-adv-x="616" 
d="M617 29l-619 1l309 535z" />
    <glyph glyph-name="triagdn" unicode="&#x25bc;" horiz-adv-x="616" 
d="M617 510l-310 -535l-309 535h619z" />
    <glyph glyph-name="lozenge" unicode="&#x25ca;" horiz-adv-x="375" 
d="M198 0h-21l-158 334l158 333h21l158 -333zM188 41l132 293l-133 292l-132 -292z" />
    <glyph glyph-name="circlesolid" unicode="&#x25cf;" horiz-adv-x="695" 
d="M644 285q0 -123 -87 -210t-210 -87t-210 87t-87 210t87 210t210 87t210 -87t87 -210z" />
    <glyph glyph-name="blackstar" unicode="&#x2605;" horiz-adv-x="759" 
d="M759 421l-235 -171l90 -275l-235 170l-234 -170l89 275l-234 171h290l89 276l90 -276h290z" />
    <glyph glyph-name="ballotbox" unicode="&#x2610;" horiz-adv-x="661" 
d="M616 0h-571v572h571v-572zM516 92v388h-370v-388h370z" />
    <glyph glyph-name="boxchecked" unicode="&#x2611;" horiz-adv-x="661" 
d="M616 0h-571v572h479l95 174l79 -48l-82 -151v-547zM146 480v-388h222l-201 245l71 67l117 -140l118 216h-327zM516 92v270l-147 -270h147z" />
    <glyph glyph-name="diamond" unicode="&#x2666;" horiz-adv-x="501" 
d="M501 285l-251 -250l-250 250l250 251z" />
    <glyph glyph-name="checkmark" unicode="&#x2713;" horiz-adv-x="531" 
d="M531 698l-329 -607l-202 246l71 67l117 -140l264 482z" />
    <glyph glyph-name="perthousand.onum" unicode="&#xf628;" horiz-adv-x="919" 
d="M299 423q0 -59 -38 -99t-100 -40q-61 0 -99 40t-38 99t38 99t99 40q62 0 100 -40t38 -99zM600 129q0 -59 -38 -99t-99 -40t-99 40t-38 99t38 99t99 40t99 -40t38 -99zM544 550l-383 -550h-81l382 550h82zM211 423q0 28 -14.5 45t-35.5 17t-34.5 -17t-13.5 -45t13.5 -44.5
t34.5 -16.5q22 0 36 16.5t14 44.5zM512 129q0 29 -13.5 45t-35.5 16t-35.5 -16t-13.5 -45t13.5 -45t35.5 -16t35.5 16t13.5 45zM895 129q0 -59 -38.5 -99t-99.5 -40t-99 40.5t-38 98.5q0 59 38 99t99 40t99.5 -40t38.5 -99zM806 129q0 29 -13.5 45t-35.5 16t-35.5 -16
t-13.5 -45t13.5 -45t35.5 -16t35.5 16t13.5 45z" />
    <glyph glyph-name="zero.tzero" unicode="&#xf638;" horiz-adv-x="642" 
d="M322 -12q-83 0 -147 40l-19 -28h-116l64 96q-68 95 -68 237q0 92 30 168t96.5 126t159.5 50q83 0 145 -40l20 30h116l-65 -97q70 -95 70 -237q0 -68 -17.5 -128.5t-52 -109.5t-90 -78t-126.5 -29zM322 140q112 0 112 193q0 37 -5 74l-166 -248q22 -19 59 -19zM210 333
q0 -46 5 -72l165 246q-24 18 -58 18q-112 0 -112 -192z" />
    <glyph glyph-name="zero.tnum" unicode="&#xf639;" horiz-adv-x="636" 
d="M318 -12q-71 0 -126.5 29t-90 78t-52 109.5t-17.5 128.5q0 92 30 168t96.5 126t159.5 50t159.5 -50t96.5 -126t30 -168q0 -68 -17.5 -128.5t-52 -109.5t-90 -78t-126.5 -29zM318 140q112 0 112 193q0 192 -112 192t-112 -192q0 -193 112 -193z" />
    <glyph glyph-name="two.tnum" unicode="&#xf63a;" horiz-adv-x="636" 
d="M590 0h-523v134q222 160 282.5 216.5t60.5 105.5q0 32 -26.5 50.5t-65.5 18.5q-100 0 -178 -73l-95 114q51 56 123 83.5t147 27.5q119 0 194.5 -61t75.5 -160q0 -76 -56 -146.5t-183 -159.5h244v-150z" />
    <glyph glyph-name="three.tnum" unicode="&#xf63b;" horiz-adv-x="636" 
d="M314 -12q-92 0 -163 28.5t-113 76.5l87 117q35 -34 85.5 -52t96.5 -18q54 0 83 18t29 47q0 30 -26.5 43.5t-92.5 13.5q-70 0 -90 -2v153q13 -1 90 -1q108 0 108 52q0 30 -31 45.5t-81 15.5q-94 0 -166 -64l-83 108q98 108 267 108q126 0 195.5 -49.5t69.5 -133.5
q0 -57 -42.5 -98.5t-103.5 -51.5q60 -6 108.5 -48.5t48.5 -109.5q0 -88 -76 -143t-200 -55z" />
    <glyph glyph-name="four.tnum" unicode="&#xf63c;" horiz-adv-x="636" 
d="M520 0h-173v122h-319v134l253 411h239v-394h81v-151h-81v-122zM347 273v244l-152 -244h152z" />
    <glyph glyph-name="five.tnum" unicode="&#xf63d;" horiz-adv-x="636" 
d="M315 -12q-169 0 -268 97l93 121q71 -66 173 -66q52 0 80.5 22t28.5 55q0 35 -27 56t-77 21q-79 0 -132 -50l-119 29v394h484v-150h-312v-129q55 53 143 53q89 0 152 -59.5t63 -157.5q0 -108 -76 -172t-206 -64z" />
    <glyph glyph-name="six.tnum" unicode="&#xf63e;" horiz-adv-x="636" 
d="M341 -12q-151 0 -227 95.5t-76 248.5q0 159 89.5 252t241.5 93q120 0 202 -64l-74 -132q-54 44 -128 44q-64 0 -110.5 -42.5t-46.5 -109.5v-8q25 34 70 55t94 21q96 0 163.5 -58.5t67.5 -160.5q0 -103 -75 -168.5t-191 -65.5zM330 140q46 0 74.5 23t28.5 53
q0 39 -32.5 59t-76.5 20q-70 0 -112 -45q4 -46 33 -78t85 -32z" />
    <glyph glyph-name="seven.tnum" unicode="&#xf63f;" horiz-adv-x="636" 
d="M346 0h-189l226 517h-325v150h523v-119z" />
    <glyph glyph-name="eight.tnum" unicode="&#xf640;" horiz-adv-x="636" 
d="M318 -12q-118 0 -200.5 48t-82.5 140q0 55 37.5 100t97.5 68q-124 47 -124 155q0 61 42 102.5t101 58.5t129 17t129 -17t101 -58.5t42 -102.5q0 -108 -125 -155q61 -23 98.5 -68t37.5 -100q0 -62 -41.5 -106t-104 -63t-137.5 -19zM318 411q37 5 66.5 20.5t29.5 38.5
q0 26 -26 40.5t-70 14.5t-70.5 -14.5t-26.5 -40.5q0 -23 30 -38.5t67 -20.5zM318 140q47 0 77.5 16.5t30.5 43.5t-34.5 44t-73.5 22q-40 -5 -74 -22t-34 -44t30 -43.5t78 -16.5z" />
    <glyph glyph-name="nine.tnum" unicode="&#xf641;" horiz-adv-x="636" 
d="M271 -11q-120 0 -202 64l74 132q54 -44 128 -44q71 0 113.5 44.5t42.5 107.5v8q-24 -34 -69 -55t-94 -21q-96 0 -164 58.5t-68 160.5t75 168t191 66q151 0 227 -95.5t76 -248.5q0 -159 -89 -252t-241 -93zM315 371q70 0 112 45q-3 46 -32 78t-87 32q-45 0 -73 -23
t-28 -53q0 -39 32.5 -59t75.5 -20z" />
    <glyph glyph-name="percent.onum" unicode="&#xf642;" horiz-adv-x="624" 
d="M299 423q0 -59 -38 -99t-100 -40q-61 0 -99 40t-38 99t38 99t99 40q62 0 100 -40t38 -99zM600 129q0 -59 -38 -99t-99 -40t-99 40t-38 99t38 99t99 40t99 -40t38 -99zM544 550l-384 -550h-81l383 550h82zM211 423q0 28 -14.5 45t-35.5 17t-34.5 -17t-13.5 -45t13.5 -44.5
t34.5 -16.5q22 0 36 16.5t14 44.5zM512 129q0 29 -13.5 45t-35.5 16t-35.5 -16t-13.5 -45t13.5 -45t35.5 -16t35.5 16t13.5 45z" />
    <glyph glyph-name="zero.tonum" unicode="&#xf643;" horiz-adv-x="636" 
d="M604 275q0 -123 -74 -205t-212 -82t-212 82t-74 205q0 124 73.5 205.5t212.5 81.5t212.5 -81.5t73.5 -205.5zM430 275q0 61 -29.5 98t-82.5 37t-82.5 -37t-29.5 -98t29.5 -98t82.5 -37t82.5 37t29.5 98z" />
    <glyph glyph-name="one.tonum" unicode="&#xf644;" horiz-adv-x="636" 
d="M479 0h-172v330l-112 -113l-98 103l233 230h149v-550z" />
    <glyph glyph-name="two.tonum" unicode="&#xf645;" horiz-adv-x="636" 
d="M557 0h-488v135q174 52 249.5 109t75.5 104q0 28 -23.5 45t-59.5 17q-98 0 -172 -73l-96 114q51 56 123.5 83.5t147.5 27.5q119 0 186.5 -49.5t67.5 -134.5q0 -69 -58 -134t-134 -94h181v-150z" />
    <glyph glyph-name="three.tonum" unicode="&#xf646;" horiz-adv-x="636" 
d="M314 -129q-92 0 -163 28.5t-113 76.5l87 117q35 -34 85.5 -52t96.5 -18q54 0 83 18t29 47q0 30 -26.5 43.5t-92.5 13.5q-70 0 -90 -2v153q13 -1 90 -1q108 0 108 52q0 30 -31 45.5t-81 15.5q-94 0 -166 -64l-83 108q98 108 267 108q126 0 195.5 -49.5t69.5 -133.5
q0 -57 -42.5 -98.5t-103.5 -51.5q60 -6 108.5 -48.5t48.5 -109.5q0 -88 -76 -143t-200 -55z" />
    <glyph glyph-name="four.tonum" unicode="&#xf647;" horiz-adv-x="636" 
d="M601 14h-81v-131h-173v131h-319v133l253 403h239v-386h81v-150zM347 164v236l-152 -236h152z" />
    <glyph glyph-name="five.tonum" unicode="&#xf648;" horiz-adv-x="636" 
d="M315 -129q-169 0 -268 97l93 121q71 -66 173 -66q52 0 80.5 22t28.5 55q0 35 -27 56t-77 21q-79 0 -132 -50l-119 29v394h484v-150h-312v-129q55 53 143 53q89 0 152 -59.5t63 -157.5q0 -108 -76 -172t-206 -64z" />
    <glyph glyph-name="six.tonum" unicode="&#xf649;" horiz-adv-x="636" 
d="M341 -12q-151 0 -227 95.5t-76 248.5q0 159 89.5 252t241.5 93q120 0 202 -64l-74 -132q-54 44 -128 44q-64 0 -110.5 -42.5t-46.5 -109.5v-8q25 34 70 55t94 21q96 0 163.5 -58.5t67.5 -160.5q0 -103 -75 -168.5t-191 -65.5zM330 140q46 0 74.5 23t28.5 53
q0 39 -32.5 59t-76.5 20q-70 0 -112 -45q4 -46 33 -78t85 -32z" />
    <glyph glyph-name="seven.tonum" unicode="&#xf64a;" horiz-adv-x="636" 
d="M346 -117h-189l226 517h-325v150h523v-119z" />
    <glyph glyph-name="eight.tonum" unicode="&#xf64b;" horiz-adv-x="636" 
d="M318 -12q-118 0 -200.5 48t-82.5 140q0 55 37.5 100t97.5 68q-124 47 -124 155q0 61 42 102.5t101 58.5t129 17t129 -17t101 -58.5t42 -102.5q0 -108 -125 -155q61 -23 98.5 -68t37.5 -100q0 -62 -41.5 -106t-104 -63t-137.5 -19zM318 411q37 5 66.5 20.5t29.5 38.5
q0 26 -26 40.5t-70 14.5t-70.5 -14.5t-26.5 -40.5q0 -23 30 -38.5t67 -20.5zM318 140q47 0 77.5 16.5t30.5 43.5t-34.5 44t-73.5 22q-40 -5 -74 -22t-34 -44t30 -43.5t78 -16.5z" />
    <glyph glyph-name="nine.tonum" unicode="&#xf64c;" horiz-adv-x="636" 
d="M271 -127q-120 0 -202 64l74 132q54 -44 128 -44q71 0 113.5 44.5t42.5 107.5v8q-24 -34 -69 -55t-94 -21q-96 0 -164 58.5t-68 160.5t75 168t191 66q151 0 227 -95.5t76 -248.5q0 -159 -89 -252t-241 -93zM315 255q70 0 112 45q-3 46 -32 78t-87 32q-45 0 -73 -23
t-28 -53q0 -39 32.5 -59t75.5 -20z" />
    <glyph glyph-name="colonmonetary.onum" unicode="&#xf64d;" horiz-adv-x="587" 
d="M230 -53l17 50q-22 5 -41 12l-21 -62h-65l30 89q-59 38 -92 100t-33 139q0 127 85 207t217 80h2l13 37h65l-15 -44q22 -5 41 -12l19 56h65l-29 -86q54 -38 86 -105l-133 -62l-6 12l-77 -227q58 15 83 72l133 -61q-31 -66 -94 -110t-153 -44q-12 0 -18 1l-14 -42h-65z
M253 147q17 -10 40 -16l93 275q-19 11 -40 14zM186 275q0 -42 19 -78l74 217q-43 -14 -68 -51.5t-25 -87.5z" />
    <glyph glyph-name="Euro.onum" unicode="&#xf64e;" horiz-adv-x="611" 
d="M394 293h-183q-1 -6 -1 -18q0 -13 1 -19h183v-69h-158q39 -59 115 -59q38 0 68.5 21t45.5 54l133 -61q-31 -66 -94 -110t-153 -44q-107 0 -185 54t-105 145h-44v69h32v37h-32v69h44q26 91 104.5 145.5t185.5 54.5q90 0 152.5 -43.5t94.5 -110.5l-133 -62
q-15 33 -45.5 54.5t-68.5 21.5q-77 0 -116 -60h159v-69z" />
    <glyph glyph-name="florin.onum" unicode="&#xf64f;" horiz-adv-x="413" 
d="M184 -119h-175l70 315h-38v108h62l20 85q19 84 66.5 128t120.5 44q74 0 113 -42l-51 -123q-10 15 -33 15q-35 0 -47 -50l-13 -57h72v-108h-96z" />
    <glyph glyph-name="numbersign.onum" unicode="&#xf650;" horiz-adv-x="527" 
d="M512 406l-23 -79h-75l-35 -101h77l-26 -80h-77l-50 -146h-99l49 146h-68l-49 -146h-99l49 146h-72l25 80h75l34 101h-75l24 79h77l49 144h99l-49 -144h68l49 144h99l-49 -144h72zM314 327h-68l-34 -101h68z" />
    <glyph glyph-name="sterling.onum" unicode="&#xf651;" horiz-adv-x="462" 
d="M16 225v79h36q-20 42 -20 77q0 79 62.5 129.5t142.5 50.5q149 0 205 -100l-117 -63q-20 51 -70 51q-28 0 -46.5 -19.5t-18.5 -51.5t20 -74h121v-79h-89q2 -14 2 -20q0 -24 -11.5 -45.5t-25.5 -29.5q9 4 19 4q24 0 53.5 -10.5t47.5 -10.5q43 0 66 28l58 -108
q-40 -43 -130 -43q-38 0 -82.5 16t-67.5 16q-35 0 -89 -29l-49 94q78 36 78 80q0 22 -17 58h-78z" />
    <glyph glyph-name="yen.onum" unicode="&#xf652;" horiz-adv-x="574" 
d="M367 0h-158v105h-183v78h183v39h-183v78h131l-168 250h179l121 -194l118 194h178l-167 -250h128v-78h-179v-39h179v-78h-179v-105z" />
    <glyph glyph-name="cent.onum" unicode="&#xf654;" horiz-adv-x="587" 
d="M268 -79v72q-109 17 -176 94t-67 188t67 187.5t176 94.5v69h110v-68q70 -12 119.5 -53t76.5 -97l-133 -62q-21 46 -63 65v-272q42 20 63 64l133 -61q-26 -56 -76 -97t-120 -52v-72h-110zM186 275q0 -46 22 -82t60 -53v270q-38 -17 -60 -53t-22 -82z" />
    <glyph glyph-name="zero.dnom" unicode="&#xf655;" 
d="M379 200q0 -87 -46 -147t-131 -60q-87 0 -133 60t-46 147t46 146.5t133 59.5q85 0 131 -60t46 -146zM265 200q0 116 -63 116q-65 0 -65 -116q0 -117 65 -117q63 0 63 117z" />
    <glyph glyph-name="one.dnom" unicode="&#xf656;" horiz-adv-x="311" 
d="M251 0h-114v255l-69 -69l-64 68l149 146h98v-400z" />
    <glyph glyph-name="two.dnom" unicode="&#xf657;" 
d="M370 0h-326v83q134 94 171.5 127.5t37.5 58.5q0 22 -16 34.5t-43 12.5q-32 0 -61.5 -15t-45.5 -34l-58 72q62 67 168 67q77 0 123.5 -34t46.5 -94q0 -43 -35.5 -85t-122.5 -103h161v-90z" />
    <glyph glyph-name="three.dnom" unicode="&#xf658;" 
d="M373 112q0 -53 -47.5 -86t-125.5 -33q-116 0 -172 63l54 74q46 -47 113 -47q31 0 48 10.5t17 26.5q0 23 -20.5 31t-60.5 8q-41 0 -47 -1v88q9 -1 46 -1q40 0 57.5 8t17.5 28q0 35 -65 35q-62 0 -104 -42l-51 67q60 65 167 65q80 0 123 -30t43 -80q0 -33 -25.5 -58.5
t-63.5 -31.5q37 -3 66.5 -28.5t29.5 -65.5z" />
    <glyph glyph-name="four.dnom" unicode="&#xf659;" 
d="M384 78h-50v-78h-113v78h-197v77l150 245h160v-233h50v-89zM221 167v138l-85 -138h85z" />
    <glyph glyph-name="five.dnom" unicode="&#xf65a;" 
d="M373 135q0 -63 -47 -102.5t-129 -39.5q-110 0 -167 63l60 75q42 -48 107 -48q31 0 47.5 14.5t16.5 34.5q0 21 -16 34.5t-45 13.5q-49 0 -80 -37l-78 24v233h304v-90h-190v-80q32 32 87 32t92.5 -33t37.5 -94z" />
    <glyph glyph-name="six.dnom" unicode="&#xf65b;" 
d="M379 136q0 -63 -46.5 -103t-118.5 -40q-95 0 -142.5 57t-47.5 149q0 98 56 152.5t152 54.5q74 0 126 -36l-47 -81q-34 27 -79 27q-41 0 -67.5 -24t-26.5 -61v-6q37 45 97 45q59 0 101.5 -36.5t42.5 -97.5zM265 131q0 25 -19.5 38t-43.5 13q-39 0 -64 -26q2 -31 19 -52
t51 -21q25 0 41 14.5t16 33.5z" />
    <glyph glyph-name="seven.dnom" unicode="&#xf65c;" horiz-adv-x="375" 
d="M350 321l-139 -321h-126l142 310h-204v90h327v-79z" />
    <glyph glyph-name="eight.dnom" unicode="&#xf65d;" 
d="M379 106q0 -59 -51 -86t-127 -27q-75 0 -126.5 26.5t-51.5 86.5q0 33 26 61.5t66 38.5q-38 9 -61.5 34t-23.5 59q0 54 50.5 80.5t120.5 26.5t120.5 -26.5t50.5 -80.5q0 -34 -23.5 -59t-61.5 -34q40 -10 66 -38.5t26 -61.5zM258 282q0 38 -57 38q-58 0 -58 -38
q0 -29 58 -41q57 11 57 41zM266 118q0 22 -23 34.5t-42 13.5q-18 -1 -41.5 -13.5t-23.5 -34.5q0 -39 65 -39t65 39z" />
    <glyph glyph-name="nine.dnom" unicode="&#xf65e;" 
d="M24 264q0 63 46.5 102.5t119.5 39.5q94 0 141.5 -57t47.5 -149q0 -98 -56 -152.5t-152 -54.5q-74 0 -125 36l47 81q32 -27 79 -27q39 0 66 23.5t27 62.5v5q-37 -45 -97 -45q-59 0 -101.5 36.5t-42.5 98.5zM139 268q0 -25 19 -38t43 -13q40 0 64 27q-2 30 -18.5 51
t-49.5 21q-26 0 -42 -14t-16 -34z" />
    <glyph glyph-name="zero.numr" unicode="&#xf661;" 
d="M379 467q0 -87 -46 -147t-131 -60q-87 0 -133 60t-46 147t46 146.5t133 59.5q85 0 131 -60t46 -146zM265 467q0 116 -63 116q-65 0 -65 -116q0 -117 65 -117q63 0 63 117z" />
    <glyph glyph-name="one.numr" unicode="&#xf662;" horiz-adv-x="311" 
d="M251 267h-114v255l-69 -69l-64 68l149 146h98v-400z" />
    <glyph glyph-name="two.numr" unicode="&#xf663;" 
d="M370 267h-326v83q134 94 171.5 127.5t37.5 58.5q0 22 -16 34.5t-43 12.5q-32 0 -61.5 -15t-45.5 -34l-58 72q62 67 168 67q77 0 123.5 -34t46.5 -94q0 -43 -35.5 -85t-122.5 -103h161v-90z" />
    <glyph glyph-name="three.numr" unicode="&#xf664;" 
d="M373 379q0 -53 -47.5 -86t-125.5 -33q-116 0 -172 63l54 74q46 -47 113 -47q31 0 48 10.5t17 26.5q0 23 -20.5 31t-60.5 8q-41 0 -47 -1v88q9 -1 46 -1q40 0 57.5 8t17.5 28q0 35 -65 35q-62 0 -104 -42l-51 67q60 65 167 65q80 0 123 -30t43 -80q0 -33 -25.5 -58.5
t-63.5 -31.5q37 -3 66.5 -28.5t29.5 -65.5z" />
    <glyph glyph-name="four.numr" unicode="&#xf665;" 
d="M384 345h-50v-78h-113v78h-197v77l150 245h160v-233h50v-89zM221 434v138l-85 -138h85z" />
    <glyph glyph-name="five.numr" unicode="&#xf666;" 
d="M373 402q0 -63 -47 -102.5t-129 -39.5q-110 0 -167 63l60 75q42 -48 107 -48q31 0 47.5 14.5t16.5 34.5q0 21 -16 34.5t-45 13.5q-49 0 -80 -37l-78 24v233h304v-90h-190v-80q32 32 87 32t92.5 -33t37.5 -94z" />
    <glyph glyph-name="six.numr" unicode="&#xf667;" 
d="M379 403q0 -63 -46.5 -103t-118.5 -40q-95 0 -142.5 57t-47.5 149q0 98 56 152.5t152 54.5q74 0 126 -36l-47 -81q-34 27 -79 27q-41 0 -67.5 -24t-26.5 -61v-6q37 45 97 45q59 0 101.5 -36.5t42.5 -97.5zM265 398q0 25 -19.5 38t-43.5 13q-39 0 -64 -26q2 -31 19 -52
t51 -21q25 0 41 14.5t16 33.5z" />
    <glyph glyph-name="seven.numr" unicode="&#xf668;" horiz-adv-x="375" 
d="M350 588l-139 -321h-126l142 310h-204v90h327v-79z" />
    <glyph glyph-name="eight.numr" unicode="&#xf669;" 
d="M379 373q0 -59 -51 -86t-127 -27q-75 0 -126.5 26.5t-51.5 86.5q0 33 26 61.5t66 38.5q-38 9 -61.5 34t-23.5 59q0 54 50.5 80.5t120.5 26.5t120.5 -26.5t50.5 -80.5q0 -34 -23.5 -59t-61.5 -34q40 -10 66 -38.5t26 -61.5zM258 549q0 38 -57 38q-58 0 -58 -38
q0 -29 58 -41q57 11 57 41zM266 385q0 22 -23 34.5t-42 13.5q-18 -1 -41.5 -13.5t-23.5 -34.5q0 -39 65 -39t65 39z" />
    <glyph glyph-name="nine.numr" unicode="&#xf66a;" 
d="M24 531q0 63 46.5 102.5t119.5 39.5q94 0 141.5 -57t47.5 -149q0 -98 -56 -152.5t-152 -54.5q-74 0 -125 36l47 81q32 -27 79 -27q39 0 66 23.5t27 62.5v5q-37 -45 -97 -45q-59 0 -101.5 36.5t-42.5 98.5zM139 535q0 -25 19 -38t43 -13q40 0 64 27q-2 30 -18.5 51
t-49.5 21q-26 0 -42 -14t-16 -34z" />
    <glyph glyph-name="Abreve.smcp" unicode="&#xf66d;" horiz-adv-x="609" 
d="M208 550h194l218 -550h-178l-28 76h-219l-27 -76h-179zM369 214l-64 177l-65 -177h129zM481 681q-65 -88 -175 -88q-109 0 -176 88l66 54q43 -58 110 -58q69 0 110 58z" />
    <glyph glyph-name="Amacron.smcp" unicode="&#xf66e;" horiz-adv-x="609" 
d="M208 550h194l218 -550h-178l-28 76h-219l-27 -76h-179zM369 214l-64 177l-65 -177h129zM487 623h-363v85h363v-85z" />
    <glyph glyph-name="Aogonek.smcp" unicode="&#xf66f;" horiz-adv-x="609" 
d="M208 550h194l218 -550q-68 -35 -68 -87q0 -38 33 -38q27 0 39 31l59 -37q-33 -55 -98 -55q-45 0 -75 23t-30 69q0 55 42 94h-80l-28 76h-219l-27 -76h-179zM369 214l-64 177l-65 -177h129z" />
    <glyph glyph-name="AEacute.smcp" unicode="&#xf670;" horiz-adv-x="857" 
d="M630 750l-159 -144h-104l127 144h136zM820 0h-432v76h-177l-44 -76h-179l338 550h494v-138h-272v-64h265v-138h-265v-72h272v-138zM388 214v177l-102 -177h102z" />
    <glyph glyph-name="Cacute.smcp" unicode="&#xf671;" horiz-adv-x="587" 
d="M327 -12q-132 0 -217 80.5t-85 206.5q0 127 85 207t217 80q90 0 152.5 -43.5t94.5 -110.5l-133 -62q-15 33 -45.5 54.5t-68.5 21.5q-62 0 -101.5 -42t-39.5 -105t39.5 -105t101.5 -42q38 0 68.5 21t45.5 54l133 -61q-31 -66 -94 -110t-153 -44zM503 750l-159 -144h-104
l127 144h136z" />
    <glyph glyph-name="Ccaron.smcp" unicode="&#xf672;" horiz-adv-x="587" 
d="M327 -12q-132 0 -217 80.5t-85 206.5q0 127 85 207t217 80q90 0 152.5 -43.5t94.5 -110.5l-133 -62q-15 33 -45.5 54.5t-68.5 21.5q-62 0 -101.5 -42t-39.5 -105t39.5 -105t101.5 -42q38 0 68.5 21t45.5 54l133 -61q-31 -66 -94 -110t-153 -44zM398 606h-135l-93 144h92
l68 -81l66 81h92z" />
    <glyph glyph-name="Ccircumflex.smcp" unicode="&#xf673;" horiz-adv-x="587" 
d="M327 -12q-132 0 -217 80.5t-85 206.5q0 127 85 207t217 80q90 0 152.5 -43.5t94.5 -110.5l-133 -62q-15 33 -45.5 54.5t-68.5 21.5q-62 0 -101.5 -42t-39.5 -105t39.5 -105t101.5 -42q38 0 68.5 21t45.5 54l133 -61q-31 -66 -94 -110t-153 -44zM488 606h-92l-69 81
l-65 -81h-92l90 144h135z" />
    <glyph glyph-name="Cdotaccent.smcp" unicode="&#xf674;" horiz-adv-x="587" 
d="M327 -12q-132 0 -217 80.5t-85 206.5q0 127 85 207t217 80q90 0 152.5 -43.5t94.5 -110.5l-133 -62q-15 33 -45.5 54.5t-68.5 21.5q-62 0 -101.5 -42t-39.5 -105t39.5 -105t101.5 -42q38 0 68.5 21t45.5 54l133 -61q-31 -66 -94 -110t-153 -44zM328 608q-32 0 -55 23
t-23 55t23 55.5t55 23.5t55 -23.5t23 -55.5t-23 -55t-55 -23z" />
    <glyph glyph-name="Dcaron.smcp" unicode="&#xf675;" horiz-adv-x="632" 
d="M296 0h-248v550h247q139 0 221.5 -74t82.5 -201t-82.5 -201t-220.5 -74zM295 138q69 0 106 39.5t37 97.5q0 61 -35 99t-107 38h-88v-274h87zM382 606h-135l-93 144h92l68 -81l66 81h92z" />
    <glyph glyph-name="Dcroat.smcp" unicode="&#xf676;" horiz-adv-x="639" 
d="M304 0h-248v222h-48v106h48v222h247q139 0 221.5 -74t82.5 -201t-82.5 -201t-220.5 -74zM320 222h-104v-84h87q69 0 106 39.5t37 97.5q0 61 -35 99t-107 38h-88v-84h104v-106z" />
    <glyph glyph-name="Ebreve.smcp" unicode="&#xf677;" horiz-adv-x="525" 
d="M488 0h-432v550h432v-138h-272v-64h266v-138h-266v-72h272v-138zM448 681q-65 -88 -175 -88q-109 0 -176 88l66 54q43 -58 110 -58q69 0 110 58z" />
    <glyph glyph-name="Ecaron.smcp" unicode="&#xf678;" horiz-adv-x="525" 
d="M488 0h-432v550h432v-138h-272v-64h266v-138h-266v-72h272v-138zM342 606h-135l-93 144h92l68 -81l66 81h92z" />
    <glyph glyph-name="Edotaccent.smcp" unicode="&#xf679;" horiz-adv-x="525" 
d="M488 0h-432v550h432v-138h-272v-64h266v-138h-266v-72h272v-138zM278 608q-32 0 -55 23t-23 55t23 55.5t55 23.5t55 -23.5t23 -55.5t-23 -55t-55 -23z" />
    <glyph glyph-name="Emacron.smcp" unicode="&#xf67a;" horiz-adv-x="525" 
d="M488 0h-432v550h432v-138h-272v-64h266v-138h-266v-72h272v-138zM454 623h-363v85h363v-85z" />
    <glyph glyph-name="Eng.smcp" unicode="&#xf67b;" horiz-adv-x="657" 
d="M376 -196q-95 0 -156 55l61 121q36 -36 81 -36q30 0 50.5 15t26.5 41h-2l-222 303v-303h-159v550h173l212 -289v289h159v-547q0 -100 -59 -149.5t-165 -49.5z" />
    <glyph glyph-name="Eogonek.smcp" unicode="&#xf67c;" horiz-adv-x="525" 
d="M492 -94l59 -37q-33 -55 -98 -55q-45 0 -75 23t-30 69q0 55 42 94h-334v550h432v-138h-272v-64h266v-138h-266v-72h272v-138q-68 -35 -68 -87q0 -38 33 -38q27 0 39 31z" />
    <glyph glyph-name="Gbreve.smcp" unicode="&#xf67d;" horiz-adv-x="611" 
d="M330 -12q-131 0 -218 79.5t-87 207.5q0 130 86.5 208.5t218.5 78.5q79 0 140 -36.5t93 -89.5l-130 -73q-36 59 -103 59q-64 0 -104 -41.5t-40 -105.5q0 -63 40 -105.5t104 -42.5q52 0 88 30v34h-111v130h270v-224q-102 -109 -247 -109zM508 681q-65 -88 -175 -88
q-109 0 -176 88l66 54q43 -58 110 -58q69 0 110 58z" />
    <glyph glyph-name="Gcircumflex.smcp" unicode="&#xf67e;" horiz-adv-x="611" 
d="M330 -12q-131 0 -218 79.5t-87 207.5q0 130 86.5 208.5t218.5 78.5q79 0 140 -36.5t93 -89.5l-130 -73q-36 59 -103 59q-64 0 -104 -41.5t-40 -105.5q0 -63 40 -105.5t104 -42.5q52 0 88 30v34h-111v130h270v-224q-102 -109 -247 -109zM490 606h-92l-69 81l-65 -81h-92
l90 144h135z" />
    <glyph glyph-name="Gcommaaccent.smcp" unicode="&#xf67f;" horiz-adv-x="611" 
d="M330 -12q-131 0 -218 79.5t-87 207.5q0 130 86.5 208.5t218.5 78.5q79 0 140 -36.5t93 -89.5l-130 -73q-36 59 -103 59q-64 0 -104 -41.5t-40 -105.5q0 -63 40 -105.5t104 -42.5q52 0 88 30v34h-111v130h270v-224q-102 -109 -247 -109zM410 -139q0 -94 -88 -157l-49 39
q20 11 40 33.5t25 43.5q-3 -3 -17 -3q-25 0 -42 17.5t-17 45.5q0 29 20.5 50t49.5 21q32 0 55 -24.5t23 -65.5z" />
    <glyph glyph-name="Gdotaccent.smcp" unicode="&#xf680;" horiz-adv-x="611" 
d="M330 -12q-131 0 -218 79.5t-87 207.5q0 130 86.5 208.5t218.5 78.5q79 0 140 -36.5t93 -89.5l-130 -73q-36 59 -103 59q-64 0 -104 -41.5t-40 -105.5q0 -63 40 -105.5t104 -42.5q52 0 88 30v34h-111v130h270v-224q-102 -109 -247 -109zM327 608q-32 0 -55 23t-23 55
t23 55.5t55 23.5t55 -23.5t23 -55.5t-23 -55t-55 -23z" />
    <glyph glyph-name="Hcircumflex.smcp" unicode="&#xf681;" horiz-adv-x="658" 
d="M602 0h-159v212h-227v-212h-160v550h160v-200h227v200h159v-550zM488 606h-92l-69 81l-65 -81h-92l90 144h135z" />
    <glyph glyph-name="Hbar.smcp" unicode="&#xf682;" horiz-adv-x="672" 
d="M610 0h-159v212h-227v-212h-160v411h-56v85h56v54h160v-54h227v54h159v-54h55v-85h-55v-411zM224 350h227v61h-227v-61z" />
    <glyph glyph-name="Ibreve.smcp" unicode="&#xf683;" horiz-adv-x="267" 
d="M214 0h-160v550h160v-550zM309 681q-65 -88 -175 -88q-109 0 -176 88l66 54q43 -58 110 -58q69 0 110 58z" />
    <glyph glyph-name="IJ.smcp" unicode="&#xf684;" horiz-adv-x="711" 
d="M216 0h-160v550h160v-550zM429 -12q-94 0 -155 55l60 121q38 -36 82 -36q36 0 57 20t21 54v348h160v-363q0 -100 -59.5 -149.5t-165.5 -49.5z" />
    <glyph glyph-name="Imacron.smcp" unicode="&#xf685;" horiz-adv-x="267" 
d="M214 0h-160v550h160v-550zM316 623h-363v85h363v-85z" />
    <glyph glyph-name="Iogonek.smcp" unicode="&#xf686;" horiz-adv-x="267" 
d="M218 -94l59 -37q-33 -55 -98 -55q-45 0 -75 23t-30 69q0 55 42 94h-62v550h160v-550q-68 -35 -68 -87q0 -38 33 -38q27 0 39 31z" />
    <glyph glyph-name="Itilde.smcp" unicode="&#xf687;" horiz-adv-x="267" 
d="M214 0h-160v550h160v-550zM190 586q-28 0 -49 14t-36.5 27.5t-27.5 13.5q-30 0 -30 -49h-78q0 134 113 134q28 0 49 -14t36.5 -27.5t27.5 -13.5q30 0 30 49h78q0 -134 -113 -134z" />
    <glyph glyph-name="Jcircumflex.smcp" unicode="&#xf688;" horiz-adv-x="438" 
d="M157 -12q-94 0 -155 55l60 121q38 -36 82 -36q36 0 57 20t21 54v348h160v-363q0 -100 -59.5 -149.5t-165.5 -49.5zM461 606h-92l-69 81l-65 -81h-92l90 144h135z" />
    <glyph glyph-name="Kcommaaccent.smcp" unicode="&#xf689;" horiz-adv-x="582" 
d="M588 0h-192l-148 200l-32 -38v-162h-160v550h160v-211l167 211h193l-224 -257zM370 -139q0 -94 -88 -157l-49 39q20 11 40 33.5t25 43.5q-3 -3 -17 -3q-25 0 -42 17.5t-17 45.5q0 29 20.5 50t49.5 21q32 0 55 -24.5t23 -65.5z" />
    <glyph glyph-name="Lacute.smcp" unicode="&#xf68a;" horiz-adv-x="474" 
d="M446 0h-390v550h160v-412h230v-138zM427 750l-159 -144h-104l127 144h136z" />
    <glyph glyph-name="Lcaron.smcp" unicode="&#xf68b;" horiz-adv-x="474" 
d="M446 0h-390v550h160v-412h230v-138zM418 470q0 -94 -88 -157l-49 39q20 11 40 33.5t25 43.5q-3 -3 -17 -3q-25 0 -42 17.5t-17 45.5q0 29 20.5 50t49.5 21q32 0 55 -24.5t23 -65.5z" />
    <glyph glyph-name="Lcommaaccent.smcp" unicode="&#xf68c;" horiz-adv-x="474" 
d="M446 0h-390v550h160v-412h230v-138zM328 -139q0 -94 -88 -157l-49 39q20 11 40 33.5t25 43.5q-3 -3 -17 -3q-25 0 -42 17.5t-17 45.5q0 29 20.5 50t49.5 21q32 0 55 -24.5t23 -65.5z" />
    <glyph glyph-name="Ldot.smcp" unicode="&#xf68d;" horiz-adv-x="513" 
d="M446 0h-390v550h160v-412h230v-138zM490 309q0 -38 -27.5 -65.5t-65.5 -27.5t-66 27.5t-28 65.5t28 66t66 28t65.5 -28t27.5 -66z" />
    <glyph glyph-name="Nacute.smcp" unicode="&#xf68e;" horiz-adv-x="657" 
d="M600 0h-163l-222 303v-303h-159v550h173l212 -289v289h159v-550zM501 750l-159 -144h-104l127 144h136z" />
    <glyph glyph-name="Ncaron.smcp" unicode="&#xf68f;" horiz-adv-x="657" 
d="M600 0h-163l-222 303v-303h-159v550h173l212 -289v289h159v-550zM396 606h-135l-93 144h92l68 -81l66 81h92z" />
    <glyph glyph-name="Ncommaaccent.smcp" unicode="&#xf690;" horiz-adv-x="657" 
d="M600 0h-163l-222 303v-303h-159v550h173l212 -289v289h159v-550zM408 -139q0 -94 -88 -157l-49 39q20 11 40 33.5t25 43.5q-3 -3 -17 -3q-25 0 -42 17.5t-17 45.5q0 29 20.5 50t49.5 21q32 0 55 -24.5t23 -65.5z" />
    <glyph glyph-name="Obreve.smcp" unicode="&#xf691;" horiz-adv-x="651" 
d="M325 -12q-132 0 -216 81t-84 206t84 206t216 81t216.5 -81t84.5 -206t-84.5 -206t-216.5 -81zM325 128q63 0 101 42t38 105t-38 105t-101 42q-62 0 -100.5 -42t-38.5 -105t38.5 -105t100.5 -42zM502 681q-65 -88 -175 -88q-109 0 -176 88l66 54q43 -58 110 -58
q69 0 110 58z" />
    <glyph glyph-name="Ohungarumlaut.smcp" unicode="&#xf692;" horiz-adv-x="651" 
d="M325 -12q-132 0 -216 81t-84 206t84 206t216 81t216.5 -81t84.5 -206t-84.5 -206t-216.5 -81zM325 128q63 0 101 42t38 105t-38 105t-101 42q-62 0 -100.5 -42t-38.5 -105t38.5 -105t100.5 -42zM400 750l-115 -144h-87l84 144h118zM553 750l-115 -144h-87l83 144h119z
" />
    <glyph glyph-name="Omacron.smcp" unicode="&#xf693;" horiz-adv-x="651" 
d="M325 -12q-132 0 -216 81t-84 206t84 206t216 81t216.5 -81t84.5 -206t-84.5 -206t-216.5 -81zM325 128q63 0 101 42t38 105t-38 105t-101 42q-62 0 -100.5 -42t-38.5 -105t38.5 -105t100.5 -42zM509 625h-363v85h363v-85z" />
    <glyph glyph-name="Oslashacute.smcp" unicode="&#xf694;" horiz-adv-x="651" 
d="M325 -12q-81 0 -147 33l-17 -21h-120l61 75q-77 80 -77 200q0 125 84 206t216 81q78 0 145 -32l17 20h120l-60 -74q79 -81 79 -201q0 -125 -84.5 -206t-216.5 -81zM325 128q63 0 101 42t38 105q0 40 -18 76l-174 -214q24 -9 53 -9zM186 275q0 -43 17 -75l173 213
q-24 9 -51 9q-62 0 -100.5 -42t-38.5 -105zM501 750l-159 -144h-104l127 144h136z" />
    <glyph glyph-name="Racute.smcp" unicode="&#xf695;" horiz-adv-x="588" 
d="M558 0h-180l-92 176h-70v-176h-160v550h299q92 0 146 -54t54 -133q0 -70 -35 -113t-81 -57zM336 314q26 0 41.5 14t15.5 35q0 22 -15.5 35.5t-41.5 13.5h-120v-98h120zM460 750l-159 -144h-104l127 144h136z" />
    <glyph glyph-name="Rcaron.smcp" unicode="&#xf696;" horiz-adv-x="588" 
d="M558 0h-180l-92 176h-70v-176h-160v550h299q92 0 146 -54t54 -133q0 -70 -35 -113t-81 -57zM336 314q26 0 41.5 14t15.5 35q0 22 -15.5 35.5t-41.5 13.5h-120v-98h120zM356 606h-135l-93 144h92l68 -81l66 81h92z" />
    <glyph glyph-name="Rcommaaccent.smcp" unicode="&#xf697;" horiz-adv-x="588" 
d="M558 0h-180l-92 176h-70v-176h-160v550h299q92 0 146 -54t54 -133q0 -70 -35 -113t-81 -57zM336 314q26 0 41.5 14t15.5 35q0 22 -15.5 35.5t-41.5 13.5h-120v-98h120zM365 -139q0 -94 -88 -157l-49 39q20 11 40 33.5t25 43.5q-3 -3 -17 -3q-25 0 -42 17.5t-17 45.5
q0 29 20.5 50t49.5 21q32 0 55 -24.5t23 -65.5z" />
    <glyph glyph-name="Sacute.smcp" unicode="&#xf698;" horiz-adv-x="522" 
d="M258 -12q-156 0 -248 81l70 125q31 -29 82 -50t102 -21q80 0 80 41q0 18 -32.5 27.5t-78.5 18.5t-92.5 24t-79 53t-32.5 97q0 73 63.5 125.5t167.5 52.5q142 0 235 -79l-73 -115q-31 26 -77.5 42.5t-85.5 16.5q-33 0 -50.5 -10.5t-17.5 -27.5q0 -16 32.5 -25t78.5 -17.5
t92.5 -24t79 -53.5t32.5 -97q0 -86 -65.5 -135t-182.5 -49zM436 750l-159 -144h-104l127 144h136z" />
    <glyph glyph-name="Scedilla.smcp" unicode="&#xf699;" horiz-adv-x="522" 
d="M256 -198q-73 0 -114 33l28 58q41 -30 82 -30q19 0 33 7.5t14 20.5q0 22 -25 22q-18 0 -29 -13l-52 30l22 60q-129 12 -205 79l70 125q31 -29 82 -50t102 -21q80 0 80 41q0 18 -32.5 27.5t-78.5 18.5t-92.5 24t-79 53t-32.5 97q0 73 63.5 125.5t167.5 52.5q142 0 235 -79
l-73 -115q-31 26 -77.5 42.5t-85.5 16.5q-33 0 -50.5 -10.5t-17.5 -27.5q0 -16 32.5 -25t78.5 -17.5t92.5 -24t79 -53.5t32.5 -97q0 -81 -58 -129.5t-164 -53.5l-15 -38q17 10 34 10q28 0 48 -20.5t20 -51.5q0 -40 -33 -63.5t-82 -23.5z" />
    <glyph glyph-name="Scircumflex.smcp" unicode="&#xf69a;" horiz-adv-x="522" 
d="M258 -12q-156 0 -248 81l70 125q31 -29 82 -50t102 -21q80 0 80 41q0 18 -32.5 27.5t-78.5 18.5t-92.5 24t-79 53t-32.5 97q0 73 63.5 125.5t167.5 52.5q142 0 235 -79l-73 -115q-31 26 -77.5 42.5t-85.5 16.5q-33 0 -50.5 -10.5t-17.5 -27.5q0 -16 32.5 -25t78.5 -17.5
t92.5 -24t79 -53.5t32.5 -97q0 -86 -65.5 -135t-182.5 -49zM424 606h-92l-69 81l-65 -81h-92l90 144h135z" />
    <glyph glyph-name="Scommaaccent.smcp" unicode="&#xf69b;" horiz-adv-x="522" 
d="M258 -12q-156 0 -248 81l70 125q31 -29 82 -50t102 -21q80 0 80 41q0 18 -32.5 27.5t-78.5 18.5t-92.5 24t-79 53t-32.5 97q0 73 63.5 125.5t167.5 52.5q142 0 235 -79l-73 -115q-31 26 -77.5 42.5t-85.5 16.5q-33 0 -50.5 -10.5t-17.5 -27.5q0 -16 32.5 -25t78.5 -17.5
t92.5 -24t79 -53.5t32.5 -97q0 -86 -65.5 -135t-182.5 -49zM340 -139q0 -94 -88 -157l-49 39q20 11 40 33.5t25 43.5q-3 -3 -17 -3q-25 0 -42 17.5t-17 45.5q0 29 20.5 50t49.5 21q32 0 55 -24.5t23 -65.5z" />
    <glyph glyph-name="Tbar.smcp" unicode="&#xf69c;" horiz-adv-x="494" 
d="M327 0h-159v188h-95v85h95v139h-150v138h458v-138h-149v-139h96v-85h-96v-188z" />
    <glyph glyph-name="Tcaron.smcp" unicode="&#xf69d;" horiz-adv-x="494" 
d="M327 0h-159v412h-150v138h458v-138h-149v-412zM317 606h-135l-93 144h92l68 -81l66 81h92z" />
    <glyph glyph-name="Tcommaaccent.smcp" unicode="&#xf69e;" horiz-adv-x="494" 
d="M327 0h-159v412h-150v138h458v-138h-149v-412zM324 -139q0 -94 -88 -157l-49 39q20 11 40 33.5t25 43.5q-3 -3 -17 -3q-25 0 -42 17.5t-17 45.5q0 29 20.5 50t49.5 21q32 0 55 -24.5t23 -65.5z" />
    <glyph glyph-name="Ubreve.smcp" unicode="&#xf69f;" horiz-adv-x="657" 
d="M329 -12q-134 0 -203.5 63.5t-69.5 169.5v329h161v-314q0 -48 29.5 -78t82.5 -30q52 0 81.5 30t29.5 78v314h161v-328q0 -107 -69 -170.5t-203 -63.5zM505 681q-65 -88 -175 -88q-109 0 -176 88l66 54q43 -58 110 -58q69 0 110 58z" />
    <glyph glyph-name="Uhungarumlaut.smcp" unicode="&#xf6a0;" horiz-adv-x="657" 
d="M329 -12q-134 0 -203.5 63.5t-69.5 169.5v329h161v-314q0 -48 29.5 -78t82.5 -30q52 0 81.5 30t29.5 78v314h161v-328q0 -107 -69 -170.5t-203 -63.5zM403 750l-115 -144h-87l84 144h118zM556 750l-115 -144h-87l83 144h119z" />
    <glyph glyph-name="Umacron.smcp" unicode="&#xf6a1;" horiz-adv-x="657" 
d="M329 -12q-134 0 -203.5 63.5t-69.5 169.5v329h161v-314q0 -48 29.5 -78t82.5 -30q52 0 81.5 30t29.5 78v314h161v-328q0 -107 -69 -170.5t-203 -63.5zM511 623h-363v85h363v-85z" />
    <glyph glyph-name="Uogonek.smcp" unicode="&#xf6a2;" horiz-adv-x="657" 
d="M435 -94l59 -37q-33 -55 -98 -55q-45 0 -75 23t-30 69q0 45 31 82q-131 2 -198.5 65.5t-67.5 167.5v329h161v-314q0 -48 29.5 -78t82.5 -30q52 0 81.5 30t29.5 78v314h161v-328q0 -84 -43 -142.5t-128 -79.5q-67 -35 -67 -87q0 -38 33 -38q27 0 39 31z" />
    <glyph glyph-name="Uring.smcp" unicode="&#xf6a3;" horiz-adv-x="657" 
d="M329 -12q-134 0 -203.5 63.5t-69.5 169.5v329h161v-314q0 -48 29.5 -78t82.5 -30q52 0 81.5 30t29.5 78v314h161v-328q0 -107 -69 -170.5t-203 -63.5zM331 594q-45 0 -77 32.5t-32 76.5t32 76.5t77 32.5q44 0 75.5 -32.5t31.5 -76.5t-31.5 -76.5t-75.5 -32.5zM331 662
q16 0 28 12t12 29t-12 29t-28 12q-17 0 -29 -12t-12 -29t12 -29t29 -12z" />
    <glyph glyph-name="Utilde.smcp" unicode="&#xf6a4;" horiz-adv-x="657" 
d="M329 -12q-134 0 -203.5 63.5t-69.5 169.5v329h161v-314q0 -48 29.5 -78t82.5 -30q52 0 81.5 30t29.5 78v314h161v-328q0 -107 -69 -170.5t-203 -63.5zM384 604q-28 0 -49 14t-36.5 27.5t-27.5 13.5q-30 0 -30 -49h-78q0 134 113 134q28 0 49 -14t36.5 -27.5t27.5 -13.5
q30 0 30 49h78q0 -134 -113 -134z" />
    <glyph glyph-name="Wcircumflex.smcp" unicode="&#xf6a6;" horiz-adv-x="814" 
d="M567 606h-92l-69 81l-65 -81h-92l90 144h135zM655 0h-166l-82 322l-82 -322h-166l-165 550h178l81 -343l93 343h122l93 -343l82 343h178z" />
    <glyph glyph-name="Ycircumflex.smcp" unicode="&#xf6a9;" horiz-adv-x="574" 
d="M367 0h-158v223l-220 327h179l121 -194l118 194h178l-218 -327v-223zM448 606h-92l-69 81l-65 -81h-92l90 144h135z" />
    <glyph glyph-name="Zacute.smcp" unicode="&#xf6ab;" horiz-adv-x="527" 
d="M493 0h-459v114l231 296h-231v140h453v-114l-231 -296h237v-140zM434 750l-159 -144h-104l127 144h136z" />
    <glyph glyph-name="Zdotaccent.smcp" unicode="&#xf6ac;" horiz-adv-x="527" 
d="M493 0h-459v114l231 296h-231v140h453v-114l-231 -296h237v-140zM275 608q-32 0 -55 23t-23 55t23 55.5t55 23.5t55 -23.5t23 -55.5t-23 -55t-55 -23z" />
    <glyph glyph-name="Idotaccent.smcp" unicode="&#xf6ad;" horiz-adv-x="252" 
d="M208 0h-160v550h160v-550zM129 608q-32 0 -55 23t-23 55t23 55.5t55 23.5t55 -23.5t23 -55.5t-23 -55t-55 -23z" />
    <glyph glyph-name="parenleft.case" unicode="&#xf6ae;" horiz-adv-x="322" 
d="M304 -33l-97 -76q-76 76 -122 198t-46 244t46 244t122 198l97 -74q-53 -90 -76.5 -176t-23.5 -192q0 -105 23.5 -191.5t76.5 -174.5z" />
    <glyph glyph-name="parenright.case" unicode="&#xf6af;" horiz-adv-x="322" 
d="M18 -33l97 -76q76 76 122 198t46 244t-46 244t-122 198l-97 -74q52 -90 75.5 -176t23.5 -192q0 -105 -23.5 -191.5t-75.5 -174.5z" />
    <glyph glyph-name="bracketleft.case" unicode="&#xf6b0;" horiz-adv-x="299" 
d="M281 -100h-230v868h230v-99h-122v-670h122v-99z" />
    <glyph glyph-name="bracketright.case" unicode="&#xf6b1;" horiz-adv-x="299" 
d="M248 -100h-230v99h122v670h-122v99h230v-868z" />
    <glyph glyph-name="braceleft.case" unicode="&#xf6b2;" horiz-adv-x="302" 
d="M285 -100h-60q-70 0 -120 47t-50 125v155q0 29 -13.5 47.5t-38.5 18.5v82q25 0 38.5 18.5t13.5 47.5v155q0 77 50 124.5t120 47.5h60v-99h-60q-26 0 -44 -20t-18 -53v-172q0 -70 -46 -90q46 -20 46 -90v-172q0 -32 18 -52.5t44 -20.5h60v-99z" />
    <glyph glyph-name="braceright.case" unicode="&#xf6b3;" horiz-adv-x="302" 
d="M17 -100v99h60q26 0 44 20.5t18 52.5v172q0 70 46 90q-46 20 -46 90v172q0 33 -18 53t-44 20h-60v99h60q70 0 120 -47.5t50 -124.5v-155q0 -29 13.5 -47.5t38.5 -18.5v-82q-25 0 -38.5 -18.5t-13.5 -47.5v-155q0 -78 -50 -125t-120 -47h-60z" />
    <glyph glyph-name="exclamdown.case" unicode="&#xf6b4;" horiz-adv-x="267" 
d="M42 0l22 434h137l25 -434h-184zM40 585q0 38 27.5 65.5t65.5 27.5t65.5 -27.5t27.5 -65.5t-27.5 -66t-65.5 -28t-65.5 28t-27.5 66z" />
    <glyph glyph-name="questiondown.case" unicode="&#xf6b5;" horiz-adv-x="453" 
d="M287 452q30 -35 30 -91q0 -32 -13.5 -57.5t-32.5 -41.5t-37.5 -29t-32 -26.5t-13.5 -26.5q0 -38 59 -38t105 51l96 -110q-40 -46 -98.5 -70t-121.5 -24q-98 0 -156 44t-58 116q0 40 16 71.5t38.5 50.5t45.5 35t39 34t16 39q0 25 -15 40zM226 678q38 0 66 -28t28 -66
t-28 -65.5t-66 -27.5t-66 27.5t-28 65.5t28 66t66 28z" />
    <glyph glyph-name="guillemotleft.case" unicode="&#xf6b6;" horiz-adv-x="571" 
d="M541 162h-139l-160 180l160 177h139l-160 -177zM329 162h-139l-160 180l160 177h139l-160 -177z" />
    <glyph glyph-name="guillemotright.case" unicode="&#xf6b7;" horiz-adv-x="571" 
d="M329 342l-160 -180h-139l160 180l-160 177h139zM541 342l-160 -180h-139l160 180l-160 177h139z" />
    <glyph glyph-name="guilsinglleft.case" unicode="&#xf6b8;" horiz-adv-x="359" 
d="M329 162h-139l-160 180l160 177h139l-160 -177z" />
    <glyph glyph-name="guilsinglright.case" unicode="&#xf6b9;" horiz-adv-x="359" 
d="M329 342l-160 -180h-139l160 180l-160 177h139z" />
    <glyph glyph-name="hyphen.case" unicode="&#xf6ba;" horiz-adv-x="300" 
d="M270 277h-240v129h240v-129z" />
    <glyph glyph-name="endash.case" unicode="&#xf6bb;" horiz-adv-x="593" 
d="M563 277h-533v129h533v-129z" />
    <glyph glyph-name="emdash.case" unicode="&#xf6bc;" horiz-adv-x="833" 
d="M803 277h-773v129h773v-129z" />
    <glyph glyph-name="periodcentered.case" unicode="&#xf6bd;" horiz-adv-x="270" 
d="M228 342q0 -38 -27.5 -65.5t-65.5 -27.5t-66 27.5t-28 65.5t28 66t66 28t65.5 -28t27.5 -66z" />
    <glyph glyph-name="bullet.case" unicode="&#xf6be;" horiz-adv-x="358" 
d="M304 341q0 -51 -36 -87t-88 -36t-88 36t-36 87q0 52 36 88t88 36t88 -36t36 -88z" />
    <glyph glyph-name="cent.case" unicode="&#xf6bf;" horiz-adv-x="500" 
d="M235 -9v92q-94 17 -152 84.5t-58 165.5t58 165t152 83v75h109v-75q95 -17 142 -84l-100 -93q-18 25 -42 36v-214q24 11 42 36l100 -94q-48 -68 -142 -85v-92h-109zM182 333q0 -72 53 -103v204q-53 -31 -53 -101z" />
    <glyph glyph-name="commaaccent" unicode="&#xf6c3;" horiz-adv-x="268" 
d="M211 -139q0 -94 -88 -157l-49 39q20 11 40 33.5t25 43.5q-3 -3 -17 -3q-25 0 -42 17.5t-17 45.5q0 29 20.5 50t49.5 21q32 0 55 -24.5t23 -65.5z" />
    <glyph glyph-name="one.tnum" unicode="&#xf6dc;" horiz-adv-x="636" 
d="M479 0h-172v447l-112 -113l-98 103l233 230h149v-667z" />
    <glyph glyph-name="rupiah" unicode="&#xf6dd;" horiz-adv-x="1204" 
d="M629 0h-197l-112 224h-88v-224h-172v667h334q108 0 170 -63t62 -159q0 -80 -39 -130.5t-94 -69.5zM368 374q36 0 59.5 19t23.5 53q0 33 -23.5 52t-59.5 19h-136v-143h136zM968 -12q-86 0 -143 69v-241h-154v667h154v-56q56 68 143 68q94 0 153 -67t59 -186
q0 -120 -59 -187t-153 -67zM917 124q46 0 76 32t30 86q0 53 -30 85t-76 32q-25 0 -51.5 -12.5t-40.5 -31.5v-147q14 -19 40.5 -31.5t51.5 -12.5z" />
    <glyph glyph-name="centinferior" unicode="&#xf6df;" horiz-adv-x="315" 
d="M306 -41q-29 -41 -86 -53v-57h-72v56q-58 10 -94.5 50t-36.5 99t36.5 99t94.5 50v45h72v-46q57 -12 86 -53l-70 -55q-7 13 -16 19v-118q9 6 16 19zM121 54q0 -51 37 -66v130q-37 -15 -37 -64z" />
    <glyph glyph-name="centsuperior" unicode="&#xf6e0;" horiz-adv-x="315" 
d="M306 526q-27 -41 -86 -53v-57h-72v56q-58 10 -94.5 50t-36.5 99t36.5 99t94.5 50v45h72v-46q57 -12 86 -53l-70 -55q-7 13 -16 19v-119q9 8 16 20zM121 621q0 -50 37 -67v131q-37 -15 -37 -64z" />
    <glyph glyph-name="commainferior" unicode="&#xf6e1;" horiz-adv-x="166" 
d="M143 -98q0 -83 -69 -132l-42 34q14 5 31.5 21.5t20.5 30.5q-3 -1 -6 -1q-22 0 -39.5 16.5t-17.5 39.5q0 25 18 43t43 18q27 0 44 -19.5t17 -50.5z" />
    <glyph glyph-name="commasuperior" unicode="&#xf6e2;" horiz-adv-x="166" 
d="M143 469q0 -83 -69 -132l-42 34q14 5 31.5 21.5t20.5 30.5q-3 -1 -6 -1q-22 0 -39.5 16.5t-17.5 39.5q0 25 18 43t43 18q27 0 44 -19.5t17 -50.5z" />
    <glyph glyph-name="dollarinferior" unicode="&#xf6e3;" horiz-adv-x="390" 
d="M164 -206v54q-100 9 -150 64l61 73q40 -39 89 -50v72q-31 7 -51.5 14t-44.5 21.5t-36 38t-12 55.5q0 44 39 80.5t105 42.5v56h72v-58q87 -12 125 -55l-62 -66q-27 23 -63 34v-67q30 -7 50.5 -14.5t43.5 -21t34.5 -36.5t11.5 -54q0 -52 -36 -85.5t-104 -41.5v-56h-72z
M136 147q0 -20 38 -30v58q-38 -6 -38 -28zM260 -38q0 20 -34 32v-60q34 8 34 28z" />
    <glyph glyph-name="dollarsuperior" unicode="&#xf6e4;" horiz-adv-x="390" 
d="M164 361v54q-100 7 -150 64l61 73q40 -39 89 -50v72q-31 7 -51.5 14t-44.5 21.5t-36 38t-12 55.5q0 44 39 80.5t105 42.5v56h72v-58q87 -12 125 -55l-62 -66q-27 23 -63 34v-67q30 -7 50.5 -14.5t43.5 -21t34.5 -36.5t11.5 -54q0 -53 -36 -86t-104 -41v-56h-72zM136 714
q0 -20 38 -30v58q-38 -6 -38 -28zM260 529q0 21 -34 31v-59q34 8 34 28z" />
    <glyph glyph-name="hypheninferior" unicode="&#xf6e5;" horiz-adv-x="183" 
d="M165 10h-147v85h147v-85z" />
    <glyph glyph-name="hyphensuperior" unicode="&#xf6e6;" horiz-adv-x="183" 
d="M165 577h-147v85h147v-85z" />
    <glyph glyph-name="periodinferior" unicode="&#xf6e7;" horiz-adv-x="166" 
d="M143 -89q0 -24 -17.5 -42t-42.5 -18t-42.5 18t-17.5 42q0 25 17.5 43t42.5 18t42.5 -18t17.5 -43z" />
    <glyph glyph-name="periodsuperior" unicode="&#xf6e8;" horiz-adv-x="166" 
d="M143 478q0 -24 -17.5 -42t-42.5 -18t-42.5 18t-17.5 42q0 25 17.5 43t42.5 18t42.5 -18t17.5 -43z" />
    <glyph glyph-name="asuperior" unicode="&#xf6e9;" horiz-adv-x="389" 
d="M343 326h-109v31q-32 -39 -99 -39q-43 0 -76.5 27t-33.5 76t33.5 75t76.5 26q68 0 99 -35v31q0 22 -16.5 35.5t-46.5 13.5q-50 0 -89 -39l-39 71q61 49 147 49q153 0 153 -132v-190zM181 385q37 0 53 24v25q-15 23 -53 23q-48 0 -48 -36t48 -36z" />
    <glyph glyph-name="bsuperior" unicode="&#xf6ea;" horiz-adv-x="414" 
d="M212 404q28 0 47 21.5t19 57.5t-19 57t-47 21q-39 0 -57 -21v-115q18 -21 57 -21zM155 326h-110v434h111v-155q36 43 92 43q61 0 101.5 -44.5t40.5 -120.5q0 -77 -40.5 -121t-101.5 -44q-54 0 -93 43v-35z" />
    <glyph glyph-name="dsuperior" unicode="&#xf6eb;" horiz-adv-x="415" 
d="M370 326h-109v35q-37 -43 -93 -43q-61 0 -102 44t-41 121q0 76 40.5 120.5t102.5 44.5q56 0 92 -43v155h110v-434zM204 404q38 0 57 21v115q-20 21 -57 21q-29 0 -48 -21t-19 -57t19 -57.5t48 -21.5z" />
    <glyph glyph-name="esuperior" unicode="&#xf6ec;" horiz-adv-x="388" 
d="M202 318q-76 0 -126.5 45t-50.5 120q0 69 48.5 117t123.5 48q72 0 119 -48.5t47 -129.5v-23h-224q15 -48 75 -48q47 0 75 23l47 -64q-44 -40 -134 -40zM258 522q-7 49 -61 49q-48 0 -59 -49h120z" />
    <glyph glyph-name="isuperior" unicode="&#xf6ed;" horiz-adv-x="196" 
d="M98 665q-26 0 -44 18t-18 43q0 26 18 44.5t44 18.5t44 -18.5t18 -44.5t-18 -43.5t-44 -17.5zM153 326h-110v314h110v-314z" />
    <glyph glyph-name="lsuperior" unicode="&#xf6ee;" horiz-adv-x="200" 
d="M155 326h-110v434h110v-434z" />
    <glyph glyph-name="msuperior" unicode="&#xf6ef;" horiz-adv-x="608" 
d="M563 326h-110v189q0 41 -40 41q-32 0 -55 -28v-202h-109v189q0 41 -40 41q-31 0 -54 -28v-202h-110v314h110v-37q13 16 42 30.5t64 14.5q70 0 92 -56q15 23 45 39.5t67 16.5q46 0 72 -24t26 -73v-225z" />
    <glyph glyph-name="osuperior" unicode="&#xf6f0;" horiz-adv-x="405" 
d="M202 318q-80 0 -128.5 48t-48.5 117t48.5 117t128.5 48q81 0 129.5 -48t48.5 -117t-48.5 -117t-129.5 -48zM202 405q31 0 48.5 20.5t17.5 57.5t-17.5 56.5t-48.5 19.5q-64 0 -64 -76q0 -37 17 -57.5t47 -20.5z" />
    <glyph glyph-name="rsuperior" unicode="&#xf6f1;" horiz-adv-x="266" 
d="M155 326h-110v314h110v-36q17 18 45 31.5t55 13.5v-96l-26 2q-55 0 -74 -25v-204z" />
    <glyph glyph-name="ssuperior" unicode="&#xf6f2;" horiz-adv-x="339" 
d="M165 318q-87 0 -151 54l43 67q20 -18 52 -32.5t58 -14.5q42 0 42 21q0 11 -13.5 18.5t-34 10.5t-44.5 10t-44.5 16.5t-34 30.5t-13.5 51q0 39 38 68.5t101 29.5q88 0 135 -43l-40 -63q-38 32 -91 32q-39 0 -39 -22q0 -13 29 -20.5t63.5 -12t63.5 -28.5t29 -67
q0 -47 -40 -76.5t-109 -29.5z" />
    <glyph glyph-name="tsuperior" unicode="&#xf6f3;" horiz-adv-x="249" 
d="M166 318q-51 0 -78 24.5t-27 72.5v148h-54v77h54v86h109v-86h66v-77h-66v-127q0 -13 8 -22t20 -9q20 0 25 7q14 -48 20 -72q-22 -22 -77 -22z" />
    <glyph glyph-name="Lslash.smcp" unicode="&#xf6f9;" horiz-adv-x="479" 
d="M8 125v138l53 30v257h160v-164l73 42v-139l-73 -42v-109h230v-138h-390v155z" />
    <glyph glyph-name="OE.smcp" unicode="&#xf6fa;" horiz-adv-x="917" 
d="M880 0h-432v52q-57 -64 -154 -64q-118 0 -193.5 80.5t-75.5 206.5t75.5 206.5t193.5 80.5q97 0 154 -64v52h432v-138h-272v-64h266v-138h-266v-72h272v-138zM448 202v147q-34 73 -120 73q-64 0 -103 -41.5t-39 -105.5t39 -105.5t103 -41.5q85 0 120 74z" />
    <glyph glyph-name="Scaron.smcp" unicode="&#xf6fd;" horiz-adv-x="522" 
d="M258 -12q-156 0 -248 81l70 125q31 -29 82 -50t102 -21q80 0 80 41q0 18 -32.5 27.5t-78.5 18.5t-92.5 24t-79 53t-32.5 97q0 73 63.5 125.5t167.5 52.5q142 0 235 -79l-73 -115q-31 26 -77.5 42.5t-85.5 16.5q-33 0 -50.5 -10.5t-17.5 -27.5q0 -16 32.5 -25t78.5 -17.5
t92.5 -24t79 -53.5t32.5 -97q0 -86 -65.5 -135t-182.5 -49zM334 606h-135l-93 144h92l68 -81l66 81h92z" />
    <glyph glyph-name="Zcaron.smcp" unicode="&#xf6ff;" horiz-adv-x="527" 
d="M493 0h-459v114l231 296h-231v140h453v-114l-231 -296h237v-140zM331 606h-135l-93 144h92l68 -81l66 81h92z" />
    <glyph glyph-name="exclam.smcp" unicode="&#xf721;" horiz-adv-x="214" 
d="M190 550l-19 -325h-125l-21 325h165zM201 82q0 -38 -27.5 -65.5t-65.5 -27.5t-65.5 27.5t-27.5 65.5t27.5 66t65.5 28t65.5 -28t27.5 -66z" />
    <glyph glyph-name="dollar.onum" unicode="&#xf724;" horiz-adv-x="522" 
d="M211 -74v64q-129 13 -201 79l70 125q50 -48 131 -65v85q-38 8 -66 18.5t-56.5 29t-44 49.5t-15.5 73q0 64 49 113t133 61v70h110v-70q103 -15 174 -75l-73 -115q-42 34 -101 50v-75q38 -8 66.5 -18.5t57.5 -29t45 -50t16 -73.5q0 -73 -48.5 -120t-136.5 -60v-66h-110z
M344 164q0 20 -46 32v-70q46 8 46 38zM191 389q0 -17 43 -29v65q-43 -7 -43 -36z" />
    <glyph glyph-name="ampersand.smcp" unicode="&#xf726;" horiz-adv-x="573" 
d="M574 0h-175l-34 32q-68 -42 -149 -42q-88 0 -143.5 43t-55.5 122q0 57 32 93.5t89 63.5q-33 64 -33 112q0 59 50.5 98.5t125.5 39.5q69 0 116.5 -34t47.5 -90q0 -57 -35.5 -90t-100.5 -60q33 -41 38 -46l38 -43q30 48 45 95l110 -49q-34 -73 -80 -129zM235 94q29 0 56 15
q-24 26 -51 58q-32 39 -48 62q-30 -27 -30 -62q0 -32 21 -52.5t52 -20.5zM240 421q0 -25 18 -59q68 31 68 69q0 16 -11 25.5t-27 9.5q-21 0 -34.5 -13t-13.5 -32z" />
    <glyph glyph-name="zero.onum" unicode="&#xf730;" horiz-adv-x="624" 
d="M598 275q0 -123 -74 -205t-212 -82t-212 82t-74 205q0 124 73.5 205.5t212.5 81.5t212.5 -81.5t73.5 -205.5zM424 275q0 61 -29.5 98t-82.5 37t-82.5 -37t-29.5 -98t29.5 -98t82.5 -37t82.5 37t29.5 98z" />
    <glyph glyph-name="one.onum" unicode="&#xf731;" horiz-adv-x="447" 
d="M387 0h-172v330l-112 -113l-98 103l233 230h149v-550z" />
    <glyph glyph-name="two.onum" unicode="&#xf732;" horiz-adv-x="585" 
d="M534 0h-488v135q174 52 249.5 109t75.5 104q0 28 -23.5 45t-59.5 17q-98 0 -172 -73l-96 114q51 56 123.5 83.5t147.5 27.5q119 0 186.5 -49.5t67.5 -134.5q0 -69 -58 -134t-134 -94h181v-150z" />
    <glyph glyph-name="three.onum" unicode="&#xf733;" horiz-adv-x="592" 
d="M282 -129q-92 0 -163 28.5t-113 76.5l87 117q35 -34 85.5 -52t96.5 -18q54 0 83 18t29 47q0 30 -26.5 43.5t-92.5 13.5q-70 0 -90 -2v153q13 -1 90 -1q108 0 108 52q0 30 -31 45.5t-81 15.5q-94 0 -166 -64l-83 108q98 108 267 108q126 0 195.5 -49.5t69.5 -133.5
q0 -57 -42.5 -98.5t-103.5 -51.5q60 -6 108.5 -48.5t48.5 -109.5q0 -88 -76 -143t-200 -55z" />
    <glyph glyph-name="four.onum" unicode="&#xf734;" horiz-adv-x="616" 
d="M595 14h-81v-131h-173v131h-319v133l253 403h239v-386h81v-150zM341 164v236l-152 -236h152z" />
    <glyph glyph-name="five.onum" unicode="&#xf735;" horiz-adv-x="617" 
d="M309 -129q-169 0 -268 97l93 121q71 -66 173 -66q52 0 80.5 22t28.5 55q0 35 -27 56t-77 21q-79 0 -132 -50l-119 29v394h484v-150h-312v-129q55 53 143 53q89 0 152 -59.5t63 -157.5q0 -108 -76 -172t-206 -64z" />
    <glyph glyph-name="six.onum" unicode="&#xf736;" horiz-adv-x="617" 
d="M329 -12q-151 0 -227 95.5t-76 248.5q0 159 89.5 252t241.5 93q120 0 202 -64l-74 -132q-54 44 -128 44q-64 0 -110.5 -42.5t-46.5 -109.5v-8q25 34 70 55t94 21q96 0 163.5 -58.5t67.5 -160.5q0 -103 -75 -168.5t-191 -65.5zM318 140q46 0 74.5 23t28.5 53
q0 39 -32.5 59t-76.5 20q-70 0 -112 -45q4 -46 33 -78t85 -32z" />
    <glyph glyph-name="seven.onum" unicode="&#xf737;" horiz-adv-x="560" 
d="M309 -117h-189l226 517h-325v150h523v-119z" />
    <glyph glyph-name="eight.onum" unicode="&#xf738;" horiz-adv-x="618" 
d="M309 -12q-118 0 -200.5 48t-82.5 140q0 55 37.5 100t97.5 68q-124 47 -124 155q0 61 42 102.5t101 58.5t129 17t129 -17t101 -58.5t42 -102.5q0 -108 -125 -155q61 -23 98.5 -68t37.5 -100q0 -62 -41.5 -106t-104 -63t-137.5 -19zM309 411q37 5 66.5 20.5t29.5 38.5
q0 26 -26 40.5t-70 14.5t-70.5 -14.5t-26.5 -40.5q0 -23 30 -38.5t67 -20.5zM309 140q47 0 77.5 16.5t30.5 43.5t-34.5 44t-73.5 22q-40 -5 -74 -22t-34 -44t30 -43.5t78 -16.5z" />
    <glyph glyph-name="nine.onum" unicode="&#xf739;" horiz-adv-x="617" 
d="M260 -128q-120 0 -202 64l74 132q54 -44 128 -44q71 0 113.5 44.5t42.5 107.5v8q-24 -34 -69 -55t-94 -21q-96 0 -164 58.5t-68 160.5t75 168t191 66q151 0 227 -95.5t76 -248.5q0 -159 -89 -252t-241 -93zM304 254q70 0 112 45q-3 46 -32 78t-87 32q-45 0 -73 -23
t-28 -53q0 -39 32.5 -59t75.5 -20z" />
    <glyph glyph-name="question.smcp" unicode="&#xf73f;" horiz-adv-x="395" 
d="M385 438q0 -38 -20.5 -67t-45.5 -43.5t-45.5 -31.5t-20.5 -32q0 -18 14 -31l-122 -29q-23 24 -23 64q0 28 16.5 50.5t37 33.5t37 24t16.5 25q0 29 -48 29q-63 0 -105 -45l-74 96q74 80 195 80q85 0 136.5 -35t51.5 -88zM293 83q0 -38 -28 -66t-66 -28t-66 28t-28 66
t28 65.5t66 27.5t66 -27.5t28 -65.5z" />
    <glyph glyph-name="A.smcp" unicode="&#xf761;" horiz-adv-x="609" 
d="M208 550h194l218 -550h-178l-28 76h-219l-27 -76h-179zM369 214l-64 177l-65 -177h129z" />
    <glyph glyph-name="B.smcp" unicode="&#xf762;" horiz-adv-x="602" 
d="M398 0h-342v550h331q83 0 128 -42t45 -99q0 -47 -26.5 -80t-67.5 -45q46 -10 76 -47t30 -87q0 -64 -45.5 -107t-128.5 -43zM366 138q20 0 32 9.5t12 26.5q0 15 -12 25.5t-32 10.5h-150v-72h150zM361 348q16 0 26.5 9t10.5 23t-10.5 23t-26.5 9h-145v-64h145z" />
    <glyph glyph-name="C.smcp" unicode="&#xf763;" horiz-adv-x="587" 
d="M327 -12q-132 0 -217 80.5t-85 206.5q0 127 85 207t217 80q90 0 152.5 -43.5t94.5 -110.5l-133 -62q-15 33 -45.5 54.5t-68.5 21.5q-62 0 -101.5 -42t-39.5 -105t39.5 -105t101.5 -42q38 0 68.5 21t45.5 54l133 -61q-31 -66 -94 -110t-153 -44z" />
    <glyph glyph-name="D.smcp" unicode="&#xf764;" horiz-adv-x="632" 
d="M304 0h-248v550h247q139 0 221.5 -74t82.5 -201t-82.5 -201t-220.5 -74zM303 138q69 0 106 39.5t37 97.5q0 61 -35 99t-107 38h-88v-274h87z" />
    <glyph glyph-name="E.smcp" unicode="&#xf765;" horiz-adv-x="525" 
d="M488 0h-432v550h432v-138h-272v-64h266v-138h-266v-72h272v-138z" />
    <glyph glyph-name="F.smcp" unicode="&#xf766;" horiz-adv-x="517" 
d="M216 0h-160v550h432v-138h-272v-64h266v-138h-266v-210z" />
    <glyph glyph-name="G.smcp" unicode="&#xf767;" horiz-adv-x="611" 
d="M330 -12q-131 0 -218 79.5t-87 207.5q0 130 86.5 208.5t218.5 78.5q79 0 140 -36.5t93 -89.5l-130 -73q-36 59 -103 59q-64 0 -104 -41.5t-40 -105.5q0 -63 40 -105.5t104 -42.5q52 0 88 30v34h-111v130h270v-224q-102 -109 -247 -109z" />
    <glyph glyph-name="H.smcp" unicode="&#xf768;" horiz-adv-x="658" 
d="M602 0h-159v212h-227v-212h-160v550h160v-200h227v200h159v-550z" />
    <glyph glyph-name="I.smcp" unicode="&#xf769;" horiz-adv-x="272" 
d="M216 0h-160v550h160v-550z" />
    <glyph glyph-name="J.smcp" unicode="&#xf76a;" horiz-adv-x="438" 
d="M157 -12q-94 0 -155 55l60 121q38 -36 82 -36q36 0 57 20t21 54v348h160v-363q0 -100 -59.5 -149.5t-165.5 -49.5z" />
    <glyph glyph-name="K.smcp" unicode="&#xf76b;" horiz-adv-x="582" 
d="M588 0h-192l-148 200l-32 -38v-162h-160v550h160v-211l167 211h193l-224 -257z" />
    <glyph glyph-name="L.smcp" unicode="&#xf76c;" horiz-adv-x="474" 
d="M446 0h-390v550h160v-412h230v-138z" />
    <glyph glyph-name="M.smcp" unicode="&#xf76d;" horiz-adv-x="775" 
d="M719 0h-159v336l-135 -336h-74l-135 336v-336h-160v550h211l121 -303l120 303h211v-550z" />
    <glyph glyph-name="N.smcp" unicode="&#xf76e;" horiz-adv-x="657" 
d="M600 0h-163l-222 303v-303h-159v550h173l212 -289v289h159v-550z" />
    <glyph glyph-name="O.smcp" unicode="&#xf76f;" horiz-adv-x="651" 
d="M325 -12q-132 0 -216 81t-84 206t84 206t216 81t216.5 -81t84.5 -206t-84.5 -206t-216.5 -81zM325 128q63 0 101 42t38 105t-38 105t-101 42q-62 0 -100.5 -42t-38.5 -105t38.5 -105t100.5 -42z" />
    <glyph glyph-name="P.smcp" unicode="&#xf770;" horiz-adv-x="569" 
d="M216 0h-160v550h299q92 0 146 -54t54 -133q0 -80 -52.5 -133.5t-147.5 -53.5h-139v-176zM336 314q26 0 41.5 14t15.5 35q0 22 -15.5 35.5t-41.5 13.5h-120v-98h120z" />
    <glyph glyph-name="Q.smcp" unicode="&#xf771;" horiz-adv-x="651" 
d="M325 -12q-132 0 -216 81t-84 206t84 206t216 81t216.5 -81t84.5 -206q0 -116 -73 -195l36 -42l-95 -75l-41 49q-61 -24 -128 -24zM325 128q15 0 29 3l-41 50l93 75l43 -52q15 35 15 71q0 63 -38 105t-101 42q-62 0 -100.5 -42t-38.5 -105t38.5 -105t100.5 -42z" />
    <glyph glyph-name="R.smcp" unicode="&#xf772;" horiz-adv-x="588" 
d="M558 0h-180l-92 176h-70v-176h-160v550h299q92 0 146 -54t54 -133q0 -70 -35 -113t-81 -57zM336 314q26 0 41.5 14t15.5 35q0 22 -15.5 35.5t-41.5 13.5h-120v-98h120z" />
    <glyph glyph-name="S.smcp" unicode="&#xf773;" horiz-adv-x="522" 
d="M258 -12q-156 0 -248 81l70 125q31 -29 82 -50t102 -21q80 0 80 41q0 18 -32.5 27.5t-78.5 18.5t-92.5 24t-79 53t-32.5 97q0 73 63.5 125.5t167.5 52.5q142 0 235 -79l-73 -115q-31 26 -77.5 42.5t-85.5 16.5q-33 0 -50.5 -10.5t-17.5 -27.5q0 -16 32.5 -25t78.5 -17.5
t92.5 -24t79 -53.5t32.5 -97q0 -86 -65.5 -135t-182.5 -49z" />
    <glyph glyph-name="T.smcp" unicode="&#xf774;" horiz-adv-x="494" 
d="M327 0h-159v412h-150v138h458v-138h-149v-412z" />
    <glyph glyph-name="U.smcp" unicode="&#xf775;" horiz-adv-x="657" 
d="M329 -12q-134 0 -203.5 63.5t-69.5 169.5v329h161v-314q0 -48 29.5 -78t82.5 -30q52 0 81.5 30t29.5 78v314h161v-328q0 -107 -69 -170.5t-203 -63.5z" />
    <glyph glyph-name="V.smcp" unicode="&#xf776;" horiz-adv-x="609" 
d="M402 0h-194l-219 550h181l135 -378l137 378h178z" />
    <glyph glyph-name="W.smcp" unicode="&#xf777;" horiz-adv-x="814" 
d="M655 0h-166l-82 322l-82 -322h-166l-165 550h178l81 -343l93 343h122l93 -343l82 343h178z" />
    <glyph glyph-name="X.smcp" unicode="&#xf778;" horiz-adv-x="593" 
d="M603 0h-186l-121 177l-120 -177h-187l202 282l-188 268h186l107 -163l107 163h186l-188 -267z" />
    <glyph glyph-name="Y.smcp" unicode="&#xf779;" horiz-adv-x="574" 
d="M367 0h-158v223l-220 327h179l121 -194l118 194h178l-218 -327v-223z" />
    <glyph glyph-name="Z.smcp" unicode="&#xf77a;" horiz-adv-x="527" 
d="M493 0h-459v114l231 296h-231v140h453v-114l-231 -296h237v-140z" />
    <glyph glyph-name="exclamdown.smcp" unicode="&#xf7a1;" horiz-adv-x="214" 
d="M26 0l19 325h125l21 -325h-165zM15 468q0 38 27.5 65.5t65.5 27.5t65.5 -27.5t27.5 -65.5t-27.5 -66t-65.5 -28t-65.5 28t-27.5 66z" />
    <glyph glyph-name="questiondown.smcp" unicode="&#xf7b8;" horiz-adv-x="395" 
d="M10 112q0 38 20.5 67t45.5 43.5t45.5 31.5t20.5 32q0 18 -14 31l122 29q23 -24 23 -64q0 -28 -16.5 -50.5t-37 -33.5t-37 -24t-16.5 -25q0 -29 48 -29q63 0 105 45l74 -96q-74 -80 -195 -80q-85 0 -136.5 35t-51.5 88zM102 467q0 38 28 66t66 28t66 -28t28 -66t-28 -65.5
t-66 -27.5t-66 27.5t-28 65.5z" />
    <glyph glyph-name="Agrave.smcp" unicode="&#xf7e0;" horiz-adv-x="609" 
d="M208 550h194l218 -550h-178l-28 76h-219l-27 -76h-179zM369 214l-64 177l-65 -177h129zM395 606h-104l-159 144h136z" />
    <glyph glyph-name="Aacute.smcp" unicode="&#xf7e1;" horiz-adv-x="609" 
d="M208 550h194l218 -550h-178l-28 76h-219l-27 -76h-179zM369 214l-64 177l-65 -177h129zM479 750l-159 -144h-104l127 144h136z" />
    <glyph glyph-name="Acircumflex.smcp" unicode="&#xf7e2;" horiz-adv-x="609" 
d="M208 550h194l218 -550h-178l-28 76h-219l-27 -76h-179zM369 214l-64 177l-65 -177h129zM465 606h-92l-69 81l-65 -81h-92l90 144h135z" />
    <glyph glyph-name="Atilde.smcp" unicode="&#xf7e3;" horiz-adv-x="609" 
d="M208 550h194l218 -550h-178l-28 76h-219l-27 -76h-179zM369 214l-64 177l-65 -177h129zM359 604q-28 0 -49 14t-36.5 27.5t-27.5 13.5q-30 0 -30 -49h-78q0 134 113 134q28 0 49 -14t36.5 -27.5t27.5 -13.5q30 0 30 49h78q0 -134 -113 -134z" />
    <glyph glyph-name="Adieresis.smcp" unicode="&#xf7e4;" horiz-adv-x="609" 
d="M208 550h194l218 -550h-178l-28 76h-219l-27 -76h-179zM369 214l-64 177l-65 -177h129zM491 682q0 -33 -23 -56t-56 -23q-32 0 -55 23t-23 56q0 32 23 55t55 23q33 0 56 -23t23 -55zM277 682q0 -33 -23 -56t-56 -23q-32 0 -55 23t-23 56q0 32 23 55t55 23q33 0 56 -23
t23 -55z" />
    <glyph glyph-name="Aring.smcp" unicode="&#xf7e5;" horiz-adv-x="609" 
d="M208 550h194l218 -550h-178l-28 76h-219l-27 -76h-179zM369 214l-64 177l-65 -177h129zM306 594q-45 0 -77 32.5t-32 76.5t32 76.5t77 32.5q44 0 75.5 -32.5t31.5 -76.5t-31.5 -76.5t-75.5 -32.5zM306 662q16 0 28 12t12 29t-12 29t-28 12q-17 0 -29 -12t-12 -29t12 -29
t29 -12z" />
    <glyph glyph-name="AE.smcp" unicode="&#xf7e6;" horiz-adv-x="857" 
d="M820 0h-432v76h-177l-44 -76h-179l338 550h494v-138h-272v-64h265v-138h-265v-72h272v-138zM388 214v177l-102 -177h102z" />
    <glyph glyph-name="Ccedilla.smcp" unicode="&#xf7e7;" horiz-adv-x="587" 
d="M324 -198q-73 0 -114 33l28 58q41 -30 82 -30q19 0 33 7.5t14 20.5q0 22 -25 22q-18 0 -29 -13l-52 30l22 61q-115 13 -186.5 91t-71.5 193q0 127 85 207t217 80q90 0 152.5 -43.5t94.5 -110.5l-133 -62q-15 33 -45.5 54.5t-68.5 21.5q-62 0 -101.5 -42t-39.5 -105
t39.5 -105t101.5 -42q38 0 68.5 21t45.5 54l133 -61q-29 -61 -85 -103.5t-136 -49.5l-16 -38q17 10 34 10q28 0 48 -20.5t20 -51.5q0 -40 -33 -63.5t-82 -23.5z" />
    <glyph glyph-name="Egrave.smcp" unicode="&#xf7e8;" horiz-adv-x="525" 
d="M488 0h-432v550h432v-138h-272v-64h266v-138h-266v-72h272v-138zM363 606h-104l-159 144h136z" />
    <glyph glyph-name="Eacute.smcp" unicode="&#xf7e9;" horiz-adv-x="525" 
d="M488 0h-432v550h432v-138h-272v-64h266v-138h-266v-72h272v-138zM447 750l-159 -144h-104l127 144h136z" />
    <glyph glyph-name="Ecircumflex.smcp" unicode="&#xf7ea;" horiz-adv-x="525" 
d="M488 0h-432v550h432v-138h-272v-64h266v-138h-266v-72h272v-138zM434 606h-92l-69 81l-65 -81h-92l90 144h135z" />
    <glyph glyph-name="Edieresis.smcp" unicode="&#xf7eb;" horiz-adv-x="525" 
d="M488 0h-432v550h432v-138h-272v-64h266v-138h-266v-72h272v-138zM459 682q0 -33 -23 -56t-56 -23q-32 0 -55 23t-23 56q0 32 23 55t55 23q33 0 56 -23t23 -55zM245 682q0 -33 -23 -56t-56 -23q-32 0 -55 23t-23 56q0 32 23 55t55 23q33 0 56 -23t23 -55z" />
    <glyph glyph-name="Igrave.smcp" unicode="&#xf7ec;" horiz-adv-x="267" 
d="M216 0h-160v550h160v-550zM223 606h-104l-159 144h136z" />
    <glyph glyph-name="Iacute.smcp" unicode="&#xf7ed;" horiz-adv-x="267" 
d="M216 0h-160v550h160v-550zM307 750l-159 -144h-104l127 144h136z" />
    <glyph glyph-name="Icircumflex.smcp" unicode="&#xf7ee;" horiz-adv-x="267" 
d="M216 0h-160v550h160v-550zM293 606h-92l-69 81l-65 -81h-92l90 144h135z" />
    <glyph glyph-name="Idieresis.smcp" unicode="&#xf7ef;" horiz-adv-x="267" 
d="M216 0h-160v550h160v-550zM320 682q0 -33 -23 -56t-56 -23q-32 0 -55 23t-23 56q0 32 23 55t55 23q33 0 56 -23t23 -55zM106 682q0 -33 -23 -56t-56 -23q-32 0 -55 23t-23 56q0 32 23 55t55 23q33 0 56 -23t23 -55z" />
    <glyph glyph-name="Eth.smcp" unicode="&#xf7f0;" horiz-adv-x="639" 
d="M304 0h-248v222h-48v106h48v222h247q139 0 221.5 -74t82.5 -201t-82.5 -201t-220.5 -74zM320 222h-104v-84h87q69 0 106 39.5t37 97.5q0 61 -35 99t-107 38h-88v-84h104v-106z" />
    <glyph glyph-name="Ntilde.smcp" unicode="&#xf7f1;" horiz-adv-x="657" 
d="M600 0h-163l-222 303v-303h-159v550h173l212 -289v289h159v-550zM383 604q-28 0 -49 14t-36.5 27.5t-27.5 13.5q-30 0 -30 -49h-78q0 134 113 134q28 0 49 -14t36.5 -27.5t27.5 -13.5q30 0 30 49h78q0 -134 -113 -134z" />
    <glyph glyph-name="Ograve.smcp" unicode="&#xf7f2;" horiz-adv-x="651" 
d="M325 -12q-132 0 -216 81t-84 206t84 206t216 81t216.5 -81t84.5 -206t-84.5 -206t-216.5 -81zM325 128q63 0 101 42t38 105t-38 105t-101 42q-62 0 -100.5 -42t-38.5 -105t38.5 -105t100.5 -42zM415 606h-104l-159 144h136z" />
    <glyph glyph-name="Oacute.smcp" unicode="&#xf7f3;" horiz-adv-x="651" 
d="M325 -12q-132 0 -216 81t-84 206t84 206t216 81t216.5 -81t84.5 -206t-84.5 -206t-216.5 -81zM325 128q63 0 101 42t38 105t-38 105t-101 42q-62 0 -100.5 -42t-38.5 -105t38.5 -105t100.5 -42zM501 750l-159 -144h-104l127 144h136z" />
    <glyph glyph-name="Ocircumflex.smcp" unicode="&#xf7f4;" horiz-adv-x="651" 
d="M325 -12q-132 0 -216 81t-84 206t84 206t216 81t216.5 -81t84.5 -206t-84.5 -206t-216.5 -81zM325 128q63 0 101 42t38 105t-38 105t-101 42q-62 0 -100.5 -42t-38.5 -105t38.5 -105t100.5 -42zM487 606h-92l-69 81l-65 -81h-92l90 144h135z" />
    <glyph glyph-name="Otilde.smcp" unicode="&#xf7f5;" horiz-adv-x="651" 
d="M325 -12q-132 0 -216 81t-84 206t84 206t216 81t216.5 -81t84.5 -206t-84.5 -206t-216.5 -81zM325 128q63 0 101 42t38 105t-38 105t-101 42q-62 0 -100.5 -42t-38.5 -105t38.5 -105t100.5 -42zM382 604q-28 0 -49 14t-36.5 27.5t-27.5 13.5q-30 0 -30 -49h-78
q0 134 113 134q28 0 49 -14t36.5 -27.5t27.5 -13.5q30 0 30 49h78q0 -134 -113 -134z" />
    <glyph glyph-name="Odieresis.smcp" unicode="&#xf7f6;" horiz-adv-x="651" 
d="M325 -12q-132 0 -216 81t-84 206t84 206t216 81t216.5 -81t84.5 -206t-84.5 -206t-216.5 -81zM325 128q63 0 101 42t38 105t-38 105t-101 42q-62 0 -100.5 -42t-38.5 -105t38.5 -105t100.5 -42zM514 682q0 -33 -23 -56t-56 -23q-32 0 -55 23t-23 56q0 32 23 55t55 23
q33 0 56 -23t23 -55zM300 682q0 -33 -23 -56t-56 -23q-32 0 -55 23t-23 56q0 32 23 55t55 23q33 0 56 -23t23 -55z" />
    <glyph glyph-name="Oslash.smcp" unicode="&#xf7f8;" horiz-adv-x="651" 
d="M325 -12q-81 0 -147 33l-17 -21h-120l61 75q-77 80 -77 200q0 125 84 206t216 81q78 0 145 -32l17 20h120l-60 -74q79 -81 79 -201q0 -125 -84.5 -206t-216.5 -81zM325 128q63 0 101 42t38 105q0 40 -18 76l-174 -214q24 -9 53 -9zM186 275q0 -43 17 -75l173 213
q-24 9 -51 9q-62 0 -100.5 -42t-38.5 -105z" />
    <glyph glyph-name="Ugrave.smcp" unicode="&#xf7f9;" horiz-adv-x="657" 
d="M329 -12q-134 0 -203.5 63.5t-69.5 169.5v329h161v-314q0 -48 29.5 -78t82.5 -30q52 0 81.5 30t29.5 78v314h161v-328q0 -107 -69 -170.5t-203 -63.5zM419 606h-104l-159 144h136z" />
    <glyph glyph-name="Uacute.smcp" unicode="&#xf7fa;" horiz-adv-x="657" 
d="M329 -12q-134 0 -203.5 63.5t-69.5 169.5v329h161v-314q0 -48 29.5 -78t82.5 -30q52 0 81.5 30t29.5 78v314h161v-328q0 -107 -69 -170.5t-203 -63.5zM503 750l-159 -144h-104l127 144h136z" />
    <glyph glyph-name="Ucircumflex.smcp" unicode="&#xf7fb;" horiz-adv-x="657" 
d="M329 -12q-134 0 -203.5 63.5t-69.5 169.5v329h161v-314q0 -48 29.5 -78t82.5 -30q52 0 81.5 30t29.5 78v314h161v-328q0 -107 -69 -170.5t-203 -63.5zM489 606h-92l-69 81l-65 -81h-92l90 144h135z" />
    <glyph glyph-name="Udieresis.smcp" unicode="&#xf7fc;" horiz-adv-x="657" 
d="M329 -12q-134 0 -203.5 63.5t-69.5 169.5v329h161v-314q0 -48 29.5 -78t82.5 -30q52 0 81.5 30t29.5 78v314h161v-328q0 -107 -69 -170.5t-203 -63.5zM516 682q0 -33 -23 -56t-56 -23q-32 0 -55 23t-23 56q0 32 23 55t55 23q33 0 56 -23t23 -55zM302 682q0 -33 -23 -56
t-56 -23q-32 0 -55 23t-23 56q0 32 23 55t55 23q33 0 56 -23t23 -55z" />
    <glyph glyph-name="Yacute.smcp" unicode="&#xf7fd;" horiz-adv-x="574" 
d="M367 0h-158v223l-220 327h179l121 -194l118 194h178l-218 -327v-223zM463 750l-159 -144h-104l127 144h136z" />
    <glyph glyph-name="Thorn.smcp" unicode="&#xf7fe;" horiz-adv-x="569" 
d="M216 0h-160v550h160v-76h139q92 0 146 -54.5t54 -132.5q0 -80 -52.5 -133.5t-147.5 -53.5h-139v-100zM336 238q26 0 41.5 13.5t15.5 35.5q0 21 -15.5 35.5t-41.5 14.5h-120v-99h120z" />
    <glyph glyph-name="Ydieresis.smcp" unicode="&#xf7ff;" horiz-adv-x="574" 
d="M367 0h-158v223l-220 327h179l121 -194l118 194h178l-218 -327v-223zM474 682q0 -33 -23 -56t-56 -23q-32 0 -55 23t-23 56q0 32 23 55t55 23q33 0 56 -23t23 -55zM260 682q0 -33 -23 -56t-56 -23q-32 0 -55 23t-23 56q0 32 23 55t55 23q33 0 56 -23t23 -55z" />
    <glyph glyph-name="f.alt1" horiz-adv-x="349" 
d="M243 0h-154v350h-80v133h80v11q0 87 49 135t124 48q66 0 103 -19l-30 -115q-13 10 -41 10q-22 0 -36.5 -15t-14.5 -44v-11h98v-133h-98v-350z" />
    <glyph glyph-name="l.alt1" horiz-adv-x="313" 
d="M208 -12q-74 0 -113 36.5t-39 105.5v537h154v-494q0 -21 11.5 -35t30.5 -14q28 0 40 12l29 -116q-34 -32 -113 -32z" />
    <glyph glyph-name="a.alt1" horiz-adv-x="591" 
d="M534 0h-153v56q-59 -68 -143 -68q-93 0 -153 67.5t-60 186.5q0 116 60 184.5t153 68.5q87 0 142 -69v57h154v-483zM288 124q25 0 51.5 12.5t41.5 31.5v147q-15 19 -41.5 31t-51.5 12q-47 0 -76.5 -31.5t-29.5 -84.5t30 -85.5t76 -32.5z" />
    <glyph glyph-name="y.alt1" horiz-adv-x="592" 
d="M262 -196q-124 0 -212 72l67 108q48 -56 145 -56q57 0 88.5 29.5t31.5 84.5v42q-62 -70 -167 -70q-79 0 -119 41t-40 110v318h154v-254q0 -79 80 -79q54 0 92 47v286h154v-441q0 -109 -73 -173.5t-201 -64.5z" />
    <glyph glyph-name="G.alt1" horiz-adv-x="723" 
d="M371 -12q-142 0 -243.5 95.5t-101.5 249.5q0 155 104 250t257 95q104 0 175 -46t110 -116l-144 -75q-20 36 -57.5 60.5t-83.5 24.5q-81 0 -133.5 -55t-52.5 -138q0 -82 52.5 -137.5t133.5 -55.5q53 0 91.5 26t56.5 67h-175v151h364q0 -187 -94.5 -291.5t-258.5 -104.5z
" />
    <glyph glyph-name="G.smcp.alt1" horiz-adv-x="626" 
d="M322 -12q-126 0 -211.5 79.5t-85.5 207.5q0 130 86.5 208.5t218.5 78.5q79 0 140 -36.5t93 -89.5l-130 -72q-35 58 -103 58q-64 0 -104 -41.5t-40 -105.5q0 -63 40 -105.5t104 -42.5q36 0 66 17t42 47h-131v130h301q0 -164 -78 -248.5t-208 -84.5z" />
    <glyph glyph-name="Gbreve.alt1" horiz-adv-x="730" 
d="M563 800q-65 -88 -175 -88q-109 0 -176 88l66 54q43 -58 110 -58q69 0 110 58zM371 -12q-142 0 -243.5 95.5t-101.5 249.5q0 155 104 250t257 95q104 0 175 -46t110 -116l-144 -75q-20 36 -57.5 60.5t-83.5 24.5q-81 0 -133.5 -55t-52.5 -138q0 -82 52.5 -137.5
t133.5 -55.5q53 0 91.5 26t56.5 67h-175v151h364q0 -187 -94.5 -291.5t-258.5 -104.5z" />
    <glyph glyph-name="Gbreve.smcp.alt1" horiz-adv-x="620" 
d="M508 681q-65 -88 -175 -88q-109 0 -176 88l66 54q43 -58 110 -58q69 0 110 58zM322 -12q-126 0 -211.5 79.5t-85.5 207.5q0 130 86.5 208.5t218.5 78.5q79 0 140 -36.5t93 -89.5l-130 -72q-35 58 -103 58q-64 0 -104 -41.5t-40 -105.5q0 -63 40 -105.5t104 -42.5
q36 0 66 17t42 47h-131v130h301q0 -164 -78 -248.5t-208 -84.5z" />
    <glyph glyph-name="Gcommaaccent.alt1" horiz-adv-x="730" 
d="M466 -139q0 -94 -88 -157l-49 39q20 11 40 33.5t25 43.5q-3 -3 -17 -3q-25 0 -42 17.5t-17 45.5q0 29 20.5 50t49.5 21q32 0 55 -24.5t23 -65.5zM371 -12q-142 0 -243.5 95.5t-101.5 249.5q0 155 104 250t257 95q104 0 175 -46t110 -116l-144 -75q-20 36 -57.5 60.5
t-83.5 24.5q-81 0 -133.5 -55t-52.5 -138q0 -82 52.5 -137.5t133.5 -55.5q53 0 91.5 26t56.5 67h-175v151h364q0 -187 -94.5 -291.5t-258.5 -104.5z" />
    <glyph glyph-name="Gcommaaccent.smcp.alt1" horiz-adv-x="626" 
d="M410 -139q0 -94 -88 -157l-49 39q20 11 40 33.5t25 43.5q-3 -3 -17 -3q-25 0 -42 17.5t-17 45.5q0 29 20.5 50t49.5 21q32 0 55 -24.5t23 -65.5zM322 -12q-126 0 -211.5 79.5t-85.5 207.5q0 130 86.5 208.5t218.5 78.5q79 0 140 -36.5t93 -89.5l-130 -72q-35 58 -103 58
q-64 0 -104 -41.5t-40 -105.5q0 -63 40 -105.5t104 -42.5q36 0 66 17t42 47h-131v130h301q0 -164 -78 -248.5t-208 -84.5z" />
    <glyph glyph-name="lslash.alt1" horiz-adv-x="339" 
d="M8 192v109l74 42v324h154v-235l75 44v-109l-75 -44v-150q0 -21 11.5 -35t30.5 -14q28 0 40 12l29 -116q-34 -32 -113 -32q-74 0 -113 36.5t-39 105.5v104z" />
    <glyph glyph-name="lacute.alt1" horiz-adv-x="313" 
d="M307 872l-159 -144h-104l127 144h136zM208 -12q-74 0 -113 36.5t-39 105.5v537h154v-494q0 -21 11.5 -35t30.5 -14q28 0 40 12l29 -116q-34 -32 -113 -32z" />
    <glyph glyph-name="lcommaaccent.alt1" horiz-adv-x="313" 
d="M216 -139q0 -94 -88 -157l-49 39q20 11 40 33.5t25 43.5q-3 -3 -17 -3q-25 0 -42 17.5t-17 45.5q0 29 20.5 50t49.5 21q32 0 55 -24.5t23 -65.5zM208 -12q-74 0 -113 36.5t-39 105.5v537h154v-494q0 -21 11.5 -35t30.5 -14q28 0 40 12l29 -116q-34 -32 -113 -32z" />
    <glyph glyph-name="lcaron.alt1" horiz-adv-x="387" 
d="M411 591q0 -94 -88 -157l-49 39q20 11 40 33.5t25 43.5q-3 -3 -17 -3q-25 0 -42 17.5t-17 45.5q0 29 20.5 50t49.5 21q32 0 55 -24.5t23 -65.5zM208 -12q-74 0 -113 36.5t-39 105.5v537h154v-494q0 -21 11.5 -35t30.5 -14q28 0 40 12l29 -116q-34 -32 -113 -32z" />
    <glyph glyph-name="aacute.alt1" horiz-adv-x="591" 
d="M478 700l-159 -144h-104l127 144h136zM534 0h-153v56q-59 -68 -143 -68q-93 0 -153 67.5t-60 186.5q0 116 60 184.5t153 68.5q87 0 142 -69v57h154v-483zM288 124q25 0 51.5 12.5t41.5 31.5v147q-15 19 -41.5 31t-51.5 12q-47 0 -76.5 -31.5t-29.5 -84.5t30 -85.5
t76 -32.5z" />
    <glyph glyph-name="agrave.alt1" horiz-adv-x="591" 
d="M394 556h-104l-159 144h136zM534 0h-153v56q-59 -68 -143 -68q-93 0 -153 67.5t-60 186.5q0 116 60 184.5t153 68.5q87 0 142 -69v57h154v-483zM288 124q25 0 51.5 12.5t41.5 31.5v147q-15 19 -41.5 31t-51.5 12q-47 0 -76.5 -31.5t-29.5 -84.5t30 -85.5t76 -32.5z" />
    <glyph glyph-name="acircumflex.alt1" horiz-adv-x="591" 
d="M463 556h-92l-69 81l-65 -81h-92l90 144h135zM534 0h-153v56q-59 -68 -143 -68q-93 0 -153 67.5t-60 186.5q0 116 60 184.5t153 68.5q87 0 142 -69v57h154v-483zM288 124q25 0 51.5 12.5t41.5 31.5v147q-15 19 -41.5 31t-51.5 12q-47 0 -76.5 -31.5t-29.5 -84.5t30 -85.5
t76 -32.5z" />
    <glyph glyph-name="adieresis.alt1" horiz-adv-x="591" 
d="M491 615q0 -33 -23 -56t-56 -23q-32 0 -55 23t-23 56q0 32 23 55t55 23q33 0 56 -23t23 -55zM277 615q0 -33 -23 -56t-56 -23q-32 0 -55 23t-23 56q0 32 23 55t55 23q33 0 56 -23t23 -55zM534 0h-153v56q-59 -68 -143 -68q-93 0 -153 67.5t-60 186.5q0 116 60 184.5
t153 68.5q87 0 142 -69v57h154v-483zM288 124q25 0 51.5 12.5t41.5 31.5v147q-15 19 -41.5 31t-51.5 12q-47 0 -76.5 -31.5t-29.5 -84.5t30 -85.5t76 -32.5z" />
    <glyph glyph-name="atilde.alt1" horiz-adv-x="591" 
d="M360 554q-28 0 -49 14t-36.5 27.5t-27.5 13.5q-30 0 -30 -49h-78q0 134 113 134q28 0 49 -14t36.5 -27.5t27.5 -13.5q30 0 30 49h78q0 -134 -113 -134zM534 0h-153v56q-59 -68 -143 -68q-93 0 -153 67.5t-60 186.5q0 116 60 184.5t153 68.5q87 0 142 -69v57h154v-483z
M288 124q25 0 51.5 12.5t41.5 31.5v147q-15 19 -41.5 31t-51.5 12q-47 0 -76.5 -31.5t-29.5 -84.5t30 -85.5t76 -32.5z" />
    <glyph glyph-name="aring.alt1" horiz-adv-x="591" 
d="M306 544q-45 0 -77 32.5t-32 76.5t32 76.5t77 32.5q44 0 75.5 -32.5t31.5 -76.5t-31.5 -76.5t-75.5 -32.5zM306 612q16 0 28 12t12 29t-12 29t-28 12q-17 0 -29 -12t-12 -29t12 -29t29 -12zM534 0h-153v56q-59 -68 -143 -68q-93 0 -153 67.5t-60 186.5q0 116 60 184.5
t153 68.5q87 0 142 -69v57h154v-483zM288 124q25 0 51.5 12.5t41.5 31.5v147q-15 19 -41.5 31t-51.5 12q-47 0 -76.5 -31.5t-29.5 -84.5t30 -85.5t76 -32.5z" />
    <glyph glyph-name="amacron.alt1" horiz-adv-x="591" 
d="M486 591h-363v85h363v-85zM534 0h-153v56q-59 -68 -143 -68q-93 0 -153 67.5t-60 186.5q0 116 60 184.5t153 68.5q87 0 142 -69v57h154v-483zM288 124q25 0 51.5 12.5t41.5 31.5v147q-15 19 -41.5 31t-51.5 12q-47 0 -76.5 -31.5t-29.5 -84.5t30 -85.5t76 -32.5z" />
    <glyph glyph-name="abreve.alt1" horiz-adv-x="591" 
d="M481 641q-65 -88 -175 -88q-109 0 -176 88l66 54q43 -58 110 -58q69 0 110 58zM534 0h-153v56q-59 -68 -143 -68q-93 0 -153 67.5t-60 186.5q0 116 60 184.5t153 68.5q87 0 142 -69v57h154v-483zM288 124q25 0 51.5 12.5t41.5 31.5v147q-15 19 -41.5 31t-51.5 12
q-47 0 -76.5 -31.5t-29.5 -84.5t30 -85.5t76 -32.5z" />
    <glyph glyph-name="aogonek.alt1" horiz-adv-x="591" 
d="M534 0q-68 -35 -68 -87q0 -38 33 -38q27 0 39 31l59 -37q-33 -55 -98 -55q-45 0 -75 23t-30 69q0 55 42 94h-55v56q-59 -68 -143 -68q-93 0 -153 67.5t-60 186.5q0 116 60 184.5t153 68.5q87 0 142 -69v57h154v-483zM288 124q25 0 51.5 12.5t41.5 31.5v147
q-15 19 -41.5 31t-51.5 12q-47 0 -76.5 -31.5t-29.5 -84.5t30 -85.5t76 -32.5z" />
    <glyph glyph-name="yacute.alt1" horiz-adv-x="592" 
d="M470 700l-159 -144h-104l127 144h136zM262 -196q-124 0 -212 72l67 108q48 -56 145 -56q57 0 88.5 29.5t31.5 84.5v42q-62 -70 -167 -70q-79 0 -119 41t-40 110v318h154v-254q0 -79 80 -79q54 0 92 47v286h154v-441q0 -109 -73 -173.5t-201 -64.5z" />
    <glyph glyph-name="ydieresis.alt1" horiz-adv-x="592" 
d="M479 615q0 -33 -23 -56t-56 -23q-32 0 -55 23t-23 56q0 32 23 55t55 23q33 0 56 -23t23 -55zM265 615q0 -33 -23 -56t-56 -23q-32 0 -55 23t-23 56q0 32 23 55t55 23q33 0 56 -23t23 -55zM262 -196q-124 0 -212 72l67 108q48 -56 145 -56q57 0 88.5 29.5t31.5 84.5v42
q-62 -70 -167 -70q-79 0 -119 41t-40 110v318h154v-254q0 -79 80 -79q54 0 92 47v286h154v-441q0 -109 -73 -173.5t-201 -64.5z" />
    <glyph glyph-name="ae.alt1" horiz-adv-x="900" 
d="M534 0h-153v56q-59 -68 -143 -68q-93 0 -153 67.5t-60 186.5q0 116 60 184.5t153 68.5q87 0 142 -69v57h154v-56q52 68 146 68q87 0 143.5 -74t56.5 -195v-35h-346q9 -34 40.5 -54.5t81.5 -20.5q28 0 63 11t54 29l67 -104q-26 -26 -68.5 -45t-85.5 -19q-99 0 -152 69v-57
zM288 124q25 0 51.5 12.5t41.5 31.5v147q-15 19 -41.5 31t-51.5 12q-47 0 -76.5 -31.5t-29.5 -84.5t30 -85.5t76 -32.5zM733 296q-4 30 -28 52.5t-72 22.5q-46 0 -70 -22t-29 -53h199z" />
    <glyph glyph-name="zero.pzero" horiz-adv-x="624" 
d="M312 -12q-83 0 -147 40l-19 -28h-116l64 96q-68 95 -68 237q0 92 30 168t96.5 126t159.5 50q83 0 145 -40l20 30h116l-65 -97q70 -95 70 -237q0 -68 -17.5 -128.5t-52 -109.5t-90 -78t-126.5 -29zM312 140q112 0 112 193q0 37 -5 74l-166 -248q22 -19 59 -19zM200 333
q0 -46 5 -72l165 246q-24 18 -58 18q-112 0 -112 -192z" />
    <glyph glyph-name="Gcircumflex.alt1" horiz-adv-x="730" 
d="M543 728h-92l-69 81l-65 -81h-92l90 144h135zM371 -12q-142 0 -243.5 95.5t-101.5 249.5q0 155 104 250t257 95q104 0 175 -46t110 -116l-144 -75q-20 36 -57.5 60.5t-83.5 24.5q-81 0 -133.5 -55t-52.5 -138q0 -82 52.5 -137.5t133.5 -55.5q53 0 91.5 26t56.5 67h-175
v151h364q0 -187 -94.5 -291.5t-258.5 -104.5z" />
    <glyph glyph-name="Gdotaccent.alt1" horiz-adv-x="730" 
d="M385 712q-32 0 -55 23t-23 55t23 55.5t55 23.5t55 -23.5t23 -55.5t-23 -55t-55 -23zM371 -12q-142 0 -243.5 95.5t-101.5 249.5q0 155 104 250t257 95q104 0 175 -46t110 -116l-144 -75q-20 36 -57.5 60.5t-83.5 24.5q-81 0 -133.5 -55t-52.5 -138q0 -82 52.5 -137.5
t133.5 -55.5q53 0 91.5 26t56.5 67h-175v151h364q0 -187 -94.5 -291.5t-258.5 -104.5z" />
    <glyph glyph-name="Gcircumflex.smcp.alt1" horiz-adv-x="611" 
d="M322 -12q-126 0 -211.5 79.5t-85.5 207.5q0 130 86.5 208.5t218.5 78.5q79 0 140 -36.5t93 -89.5l-130 -72q-35 58 -103 58q-64 0 -104 -41.5t-40 -105.5q0 -63 40 -105.5t104 -42.5q36 0 66 17t42 47h-131v130h301q0 -164 -78 -248.5t-208 -84.5zM479 606h-92l-69 81
l-65 -81h-92l90 144h135z" />
    <glyph glyph-name="Gdotaccent.smcp.alt1" horiz-adv-x="611" 
d="M322 -12q-126 0 -211.5 79.5t-85.5 207.5q0 130 86.5 208.5t218.5 78.5q79 0 140 -36.5t93 -89.5l-130 -72q-35 58 -103 58q-64 0 -104 -41.5t-40 -105.5q0 -63 40 -105.5t104 -42.5q36 0 66 17t42 47h-131v130h301q0 -164 -78 -248.5t-208 -84.5zM328 608q-32 0 -55 23
t-23 55t23 55.5t55 23.5t55 -23.5t23 -55.5t-23 -55t-55 -23z" />
    <glyph glyph-name="aeacute.alt1" horiz-adv-x="860" 
d="M534 0h-153v56q-59 -68 -143 -68q-93 0 -153 67.5t-60 186.5q0 116 60 184.5t153 68.5q87 0 142 -69v57h154v-56q52 68 146 68q87 0 143.5 -74t56.5 -195v-35h-346q9 -34 40.5 -54.5t81.5 -20.5q28 0 63 11t54 29l67 -104q-26 -26 -68.5 -45t-85.5 -19q-99 0 -152 69v-57
zM288 124q25 0 51.5 12.5t41.5 31.5v147q-15 19 -41.5 31t-51.5 12q-47 0 -76.5 -31.5t-29.5 -84.5t30 -85.5t76 -32.5zM609 700l-159 -144h-104l127 144h136zM733 296q-4 30 -28 52.5t-72 22.5q-46 0 -70 -22t-29 -53h199z" />
    <glyph glyph-name="ycircumflex.alt1" horiz-adv-x="592" 
d="M458 556h-92l-69 81l-65 -81h-92l90 144h135zM262 -196q-124 0 -212 72l67 108q48 -56 145 -56q57 0 88.5 29.5t31.5 84.5v42q-62 -70 -167 -70q-79 0 -119 41t-40 110v318h154v-254q0 -79 80 -79q54 0 92 47v286h154v-441q0 -109 -73 -173.5t-201 -64.5z" />
    <glyph glyph-name="ldot.alt1" horiz-adv-x="423" 
d="M208 -12q-74 0 -113 36.5t-39 105.5v537h154v-494q0 -21 11.5 -35t30.5 -14q28 0 40 12l29 -116q-34 -32 -113 -32zM438 244q0 -38 -27.5 -65.5t-65.5 -27.5t-66 27.5t-28 65.5t28 66t66 28t65.5 -28t27.5 -66z" />
    <glyph glyph-name="fl.alt1" horiz-adv-x="662" 
d="M243 0h-154v350h-80v133h80v11q0 87 49 135t124 48q66 0 103 -19l-30 -115q-13 10 -41 10q-22 0 -36.5 -15t-14.5 -44v-11h98v-133h-98v-350zM557 -12q-74 0 -113 36.5t-39 105.5v537h154v-494q0 -21 11.5 -35t30.5 -14q28 0 40 12l29 -116q-34 -32 -113 -32z" />
    <glyph glyph-name="f_f_l.alt1" horiz-adv-x="1011" 
d="M243 0h-154v350h-80v133h80v11q0 85 48 134t125 49q90 0 138 -45l-56 -96q-19 17 -50 17q-22 0 -36.5 -15t-14.5 -44v-11h98v-133h-98v-350zM592 0h-154v350h-80v133h80v11q0 87 49 135t124 48q66 0 103 -19l-30 -115q-13 10 -41 10q-22 0 -36.5 -15t-14.5 -44v-11h98
v-133h-98v-350zM906 -12q-74 0 -113 36.5t-39 105.5v537h154v-494q0 -21 11.5 -35t30.5 -14q28 0 40 12l29 -116q-34 -32 -113 -32z" />
    </font>
</defs>
</svg>
